osu file format v14

[General]
AudioFilename: audio.mp3
AudioLeadIn: 0
PreviewTime: 281
Countdown: 0
SampleSet: Normal
StackLeniency: 0.2
Mode: 1
LetterboxInBreaks: 0
WidescreenStoryboard: 1

[Editor]
Bookmarks: 24153
DistanceSpacing: 2
BeatDivisor: 4
GridSize: 32
TimelineZoom: 2

[Metadata]
Title:Granat
TitleUnicode:Granat
Artist:Drop
ArtistUnicode:Drop
Creator:Vulkin
Version:Futsuu
Source:
Tags:竜と炎の物語 清風明月 c85 seifuu meigetsu ryuu to honou no monogatari Dragon and Flame Skull Kid Nao Tomori Naotoshi
BeatmapID:1779160
BeatmapSetID:851062

[Difficulty]
HPDrainRate:9
CircleSize:5
OverallDifficulty:4
ApproachRate:10
SliderMultiplier:1.4
SliderTickRate:1

[Events]
//Background and Video events
0,0,"anime_flowers_dance_night_girl_moon_27627_1920x1080.jpg",0,0
//Break Periods
//Storyboard Layer 0 (Background)
//Storyboard Layer 1 (Fail)
//Storyboard Layer 2 (Pass)
//Storyboard Layer 3 (Foreground)
//Storyboard Sound Samples

[TimingPoints]
281,331.5649867374,3,1,0,100,1,0

[HitObjects]
256,192,281,5,12,0:0:0:0:
256,192,944,1,0,0:0:0:0:
256,192,1275,1,8,0:0:0:0:
256,192,1773,1,8,0:0:0:0:
256,192,1938,1,8,0:0:0:0:
256,192,2270,1,0,0:0:0:0:
256,192,2601,1,0,0:0:0:0:
256,192,2933,1,0,0:0:0:0:
256,192,3265,1,8,0:0:0:0:
256,192,3928,1,0,0:0:0:0:
256,192,4259,1,8,0:0:0:0:
256,192,4922,1,0,0:0:0:0:
256,192,5254,1,8,0:0:0:0:
256,192,5751,1,8,0:0:0:0:
256,192,5917,1,8,0:0:0:0:
256,192,6249,1,0,0:0:0:0:
256,192,6912,1,8,0:0:0:0:
256,192,7243,1,0,0:0:0:0:
256,192,8238,1,12,0:0:0:0:
256,192,8901,1,0,0:0:0:0:
256,192,9233,1,8,0:0:0:0:
256,192,9730,1,8,0:0:0:0:
256,192,10062,1,8,0:0:0:0:
256,192,10227,1,0,0:0:0:0:
256,192,10891,1,0,0:0:0:0:
256,192,11222,1,8,0:0:0:0:
256,192,11885,1,8,0:0:0:0:
256,192,12217,1,0,0:0:0:0:
256,192,12880,1,0,0:0:0:0:
256,192,13212,1,8,0:0:0:0:
256,192,13543,1,0,0:0:0:0:
256,192,13875,1,8,0:0:0:0:
256,192,14206,1,0,0:0:0:0:
256,192,15201,1,8,0:0:0:0:
256,192,16196,1,4,0:0:0:0:
256,192,16693,1,0,0:0:0:0:
256,192,17025,1,0,0:0:0:0:
256,192,17190,1,8,0:0:0:0:
256,192,17853,1,8,0:0:0:0:
256,192,18185,1,4,0:0:0:0:
256,192,19180,1,8,0:0:0:0:
256,192,19677,1,8,0:0:0:0:
256,192,19843,1,0,0:0:0:0:
256,192,20174,1,12,0:0:0:0:
256,192,20838,1,0,0:0:0:0:
256,192,21169,1,8,0:0:0:0:
256,192,21501,1,8,0:0:0:0:
256,192,21832,1,0,0:0:0:0:
256,192,22164,1,12,0:0:0:0:
256,192,23158,1,8,0:0:0:0:
256,192,23490,1,0,0:0:0:0:
256,192,23822,1,0,0:0:0:0:
256,192,24153,1,8,0:0:0:0:
256,192,25148,1,8,0:0:0:0:
256,192,25811,1,0,0:0:0:0:
256,192,26143,1,8,0:0:0:0:
256,192,26806,1,8,0:0:0:0:
256,192,27137,1,0,0:0:0:0:
256,192,28132,1,0,0:0:0:0:
256,192,28795,1,0,0:0:0:0:
256,192,29127,1,8,0:0:0:0:
256,192,29790,1,8,0:0:0:0:
256,192,30121,1,0,0:0:0:0:
256,192,31116,1,0,0:0:0:0:
256,192,32111,1,8,0:0:0:0:
256,192,32774,1,0,0:0:0:0:
256,192,33105,1,8,0:0:0:0:
256,192,33769,1,8,0:0:0:0:
256,192,34100,1,0,0:0:0:0:
256,192,34763,1,0,0:0:0:0:
256,192,35095,1,8,0:0:0:0:
256,192,35426,1,8,0:0:0:0:
256,192,35592,1,8,0:0:0:0:
256,192,35758,1,8,0:0:0:0:
256,192,36090,1,0,0:0:0:0:
256,192,36753,1,0,0:0:0:0:
256,192,37084,1,8,0:0:0:0:
256,192,37747,1,8,0:0:0:0:
256,192,38079,1,0,0:0:0:0:
256,192,38742,1,0,0:0:0:0:
256,192,39074,1,0,0:0:0:0:
256,192,39405,1,8,0:0:0:0:
256,192,39737,1,8,0:0:0:0:
256,192,40068,1,0,0:0:0:0:
256,192,41063,1,0,0:0:0:0:
256,192,41726,1,0,0:0:0:0:
256,192,42058,1,12,0:0:0:0:
