osu file format v14

[General]
AudioFilename: audio.mp3
AudioLeadIn: 0
PreviewTime: -1
Countdown: 0
SampleSet: None
StackLeniency: 0.7
Mode: 0
LetterboxInBreaks: 0
WidescreenStoryboard: 1

[Editor]
DistanceSpacing: 1.2
BeatDivisor: 4
GridSize: 16
TimelineZoom: 1

[Metadata]
Title:Granat
TitleUnicode:Granat
Artist:Drop
ArtistUnicode:Drop
Creator:Villy
Version:Insane
Source:
Tags:
BeatmapID:2051377
BeatmapSetID:979695

[Difficulty]
HPDrainRate:6
CircleSize:4
OverallDifficulty:8
ApproachRate:9
SliderMultiplier:1.4
SliderTickRate:1

[Events]
//Background and Video events
0,0,"Konachan.com - 283912 sample.jpg",0,0
//Break Periods
//Storyboard Layer 0 (Background)
//Storyboard Layer 1 (Fail)
//Storyboard Layer 2 (Pass)
//Storyboard Layer 3 (Foreground)
//Storyboard Sound Samples

[TimingPoints]
281,331.491712707182,4,2,0,100,1,0

[HitObjects]
128,256,281,6,0,P|96:224|128:128,1,140
192,192,778,1,0,0:0:0:0:
256,96,943,1,0,0:0:0:0:
320,192,1109,1,0,0:0:0:0:
384,96,1275,6,0,P|448:160|416:224,1,140
320,192,1772,1,0,0:0:0:0:
192,192,1938,1,0,0:0:0:0:
256,320,2104,1,0,0:0:0:0:
128,288,2269,6,0,P|96:256|128:224,1,70
224,160,2601,1,0,0:0:0:0:
128,32,2767,1,0,0:0:0:0:
32,160,2932,1,0,0:0:0:0:
224,160,3098,1,0,0:0:0:0:
128,192,3264,2,0,P|96:256|160:288,1,140
352,288,3761,1,0,0:0:0:0:
352,288,3844,1,0,0:0:0:0:
352,288,3927,2,0,P|384:256|352:224,1,70
256,160,4258,6,0,P|192:160|192:224,1,140
288,256,4756,1,0,0:0:0:0:
384,192,4921,1,0,0:0:0:0:
384,320,5087,1,0,0:0:0:0:
288,160,5253,6,0,P|288:64|256:64,1,140
192,128,5750,1,0,0:0:0:0:
192,256,5916,1,0,0:0:0:0:
64,160,6082,1,0,0:0:0:0:
64,288,6247,6,0,P|96:320|128:288,1,70
288,96,6579,2,0,P|320:128|288:160,1,70
192,192,6910,1,0,0:0:0:0:
160,64,7076,1,0,0:0:0:0:
64,192,7242,1,0,0:0:0:0:
256,256,7408,1,0,0:0:0:0:
288,128,7573,1,0,0:0:0:0:
160,256,7739,1,0,0:0:0:0:
160,96,7905,1,0,0:0:0:0:
320,256,8071,1,0,0:0:0:0:
384,160,8236,6,0,P|416:96|352:64,1,140
288,128,8734,1,0,0:0:0:0:
192,160,8899,1,0,0:0:0:0:
192,64,9065,1,0,0:0:0:0:
256,224,9231,6,0,P|288:256|384:224,1,140
320,352,9728,1,0,0:0:0:0:
448,256,9894,1,0,0:0:0:0:
320,192,10060,1,0,0:0:0:0:
416,128,10225,6,0,P|384:64|320:64,1,140
256,160,10722,1,0,0:0:0:0:
128,96,10888,1,0,0:0:0:0:
160,224,11054,1,0,0:0:0:0:
224,64,11220,1,0,0:0:0:0:
64,192,11385,1,0,0:0:0:0:
256,256,11551,1,0,0:0:0:0:
288,128,11717,1,0,0:0:0:0:
160,224,11883,1,0,0:0:0:0:
128,64,12048,1,0,0:0:0:0:
352,224,12214,6,0,P|416:192|416:128,1,140
256,64,12711,1,0,0:0:0:0:
320,128,12877,1,0,0:0:0:0:
384,32,13043,1,0,0:0:0:0:
224,160,13209,6,0,P|224:224|160:256,1,140
64,64,13706,1,0,0:0:0:0:
128,160,13872,1,0,0:0:0:0:
192,64,14037,1,0,0:0:0:0:
256,160,14203,5,0,0:0:0:0:
192,256,14369,1,0,0:0:0:0:
320,256,14535,1,0,0:0:0:0:
352,128,14700,1,0,0:0:0:0:
256,288,14866,1,0,0:0:0:0:
160,128,15032,1,0,0:0:0:0:
320,224,15198,5,0,0:0:0:0:
192,224,15363,1,0,0:0:0:0:
256,128,15529,1,0,0:0:0:0:
256,256,15695,1,0,0:0:0:0:
320,128,15861,1,0,0:0:0:0:
192,128,16026,1,0,0:0:0:0:
128,256,16192,6,0,B|64:224|64:160|64:128,1,140
192,192,16689,1,0,0:0:0:0:
288,288,16855,1,0,0:0:0:0:
352,160,17021,1,0,0:0:0:0:
192,288,17187,6,0,P|128:288|96:224,1,140
192,64,17684,1,0,0:0:0:0:
256,192,17850,1,0,0:0:0:0:
320,64,18015,1,0,0:0:0:0:
384,192,18181,6,0,P|384:288|352:320,1,140
192,160,18678,1,0,0:0:0:0:
288,224,18844,1,0,0:0:0:0:
192,288,19010,1,0,0:0:0:0:
288,128,19176,6,0,P|256:96|288:64,1,70
384,96,19507,1,0,0:0:0:0:
352,224,19673,1,0,0:0:0:0:
352,224,19756,1,0,0:0:0:0:
352,224,19839,2,0,P|384:256|352:288,1,70
160,224,20170,5,0,0:0:0:0:
224,288,20336,1,0,0:0:0:0:
256,192,20501,1,0,0:0:0:0:
160,128,20667,1,0,0:0:0:0:
160,128,20750,1,0,0:0:0:0:
160,128,20833,2,0,P|128:96|160:64,1,70
352,96,21164,5,0,0:0:0:0:
256,32,21330,1,0,0:0:0:0:
256,128,21496,1,0,0:0:0:0:
256,128,21579,1,0,0:0:0:0:
256,128,21662,2,0,P|288:160|256:192,1,70
96,224,21993,1,0,0:0:0:0:
160,320,22159,5,0,0:0:0:0:
224,224,22325,1,0,0:0:0:0:
352,96,22490,1,0,0:0:0:0:
160,96,22656,1,0,0:0:0:0:
352,224,22822,1,0,0:0:0:0:
256,64,22988,1,0,0:0:0:0:
160,224,23153,5,0,0:0:0:0:
256,192,23319,1,0,0:0:0:0:
192,128,23485,1,0,0:0:0:0:
320,128,23651,1,0,0:0:0:0:
256,288,23816,1,0,0:0:0:0:
256,128,23982,1,0,0:0:0:0:
176,240,24148,6,0,P|144:288|128:288,1,70
144,96,24479,2,0,P|128:64|96:64,1,70
272,144,24811,2,0,P|304:128|336:144,1,70
384,256,25142,2,0,P|384:320|320:352,1,140
224,336,25640,1,0,0:0:0:0:
128,288,25805,1,0,0:0:0:0:
64,208,25971,1,0,0:0:0:0:
48,112,26137,2,0,P|96:48|160:48,1,140
192,144,26634,5,0,0:0:0:0:
224,224,26800,1,0,0:0:0:0:
288,288,26966,1,0,0:0:0:0:
384,304,27131,2,0,P|448:224|432:176,1,140
368,112,27545,1,0,0:0:0:0:
368,112,27628,1,0,0:0:0:0:
368,112,27711,2,0,P|336:80|272:96,1,105
64,48,28126,5,0,0:0:0:0:
80,128,28292,1,0,0:0:0:0:
96,208,28457,1,0,0:0:0:0:
144,272,28623,1,0,0:0:0:0:
208,304,28789,1,0,0:0:0:0:
272,304,28955,1,0,0:0:0:0:
320,256,29120,1,0,0:0:0:0:
336,48,29783,5,0,0:0:0:0:
304,128,29949,1,0,0:0:0:0:
256,192,30115,2,0,P|192:240|128:256,1,140
192,128,30612,5,0,0:0:0:0:
112,48,30778,1,0,0:0:0:0:
272,48,30943,1,0,0:0:0:0:
352,128,31109,1,0,0:0:0:0:
352,256,31441,1,0,0:0:0:0:
352,256,31524,1,0,0:0:0:0:
352,256,31606,2,0,P|288:304|272:304,1,70
256,192,31938,1,0,0:0:0:0:
144,208,32104,5,0,0:0:0:0:
128,64,32269,1,0,0:0:0:0:
272,96,32435,1,0,0:0:0:0:
192,128,32601,1,0,0:0:0:0:
64,144,32767,2,0,P|48:192|64:208,1,70
144,272,33098,5,0,0:0:0:0:
256,192,33264,1,0,0:0:0:0:
256,320,33430,1,0,0:0:0:0:
144,272,33595,1,0,0:0:0:0:
336,256,33761,2,0,P|368:240|368:208,1,70
256,192,34093,5,0,0:0:0:0:
352,96,34258,1,0,0:0:0:0:
160,96,34424,1,0,0:0:0:0:
352,288,34590,1,0,0:0:0:0:
160,288,34756,1,0,0:0:0:0:
256,192,34921,1,0,0:0:0:0:
368,192,35087,5,0,0:0:0:0:
448,96,35253,1,0,0:0:0:0:
288,96,35419,1,0,0:0:0:0:
272,192,35584,1,0,0:0:0:0:
368,80,35750,1,0,0:0:0:0:
464,192,35916,1,0,0:0:0:0:
368,256,36082,6,0,P|352:320|336:320,1,70
256,224,36413,2,0,B|224:256|240:288|240:304,1,70
128,288,36745,2,0,P|96:240|112:224,1,70
208,256,37076,5,0,0:0:0:0:
112,96,37242,1,0,0:0:0:0:
304,96,37408,1,0,0:0:0:0:
112,208,37573,1,0,0:0:0:0:
208,64,37739,1,0,0:0:0:0:
304,208,37905,1,0,0:0:0:0:
400,64,38071,5,0,0:0:0:0:
272,128,38236,1,0,0:0:0:0:
400,208,38402,1,0,0:0:0:0:
272,272,38568,1,0,0:0:0:0:
176,192,38734,2,0,P|112:176|112:160,1,70
256,64,39065,5,0,0:0:0:0:
256,240,39231,1,0,0:0:0:0:
176,144,39397,1,0,0:0:0:0:
336,144,39562,1,0,0:0:0:0:
256,144,39728,1,0,0:0:0:0:
96,96,40060,5,0,0:0:0:0:
256,48,40391,1,0,0:0:0:0:
416,128,40722,1,0,0:0:0:0:
384,288,41054,1,0,0:0:0:0:
208,320,41385,1,0,0:0:0:0:
80,208,41717,1,0,0:0:0:0:
176,64,42048,1,0,0:0:0:0:
