osu file format v14

[General]
AudioFilename: audio.mp3
AudioLeadIn: 0
PreviewTime:24153
Countdown: 0
SampleSet: Soft
StackLeniency: 0.3
Mode: 0
LetterboxInBreaks: 0
WidescreenStoryboard: 1
EpilepsyWarning: 1

[Editor]
Bookmarks: 8238,24153,32111
DistanceSpacing: 1.2
BeatDivisor: 4
GridSize: 16
TimelineZoom: 2

[Metadata]
Title:Granat
TitleUnicode:Granat
Artist:Drop
ArtistUnicode:Drop
Creator:TritoBandito
Version:how2miss' Insane
Source:
Tags:竜と炎の物語 清風明月 c85 seifuu meigetsu ryuu to honou no monogatari how2miss wiwit CallieCube ObamaCube Cacturne chill instrumental Urghi muya- Allice Smokebloke le mirai le_mirai sirmirai
BeatmapID:3398265
BeatmapSetID:1664556

[Difficulty]
HPDrainRate:5
CircleSize:4
OverallDifficulty:8.4
ApproachRate:8.8
SliderMultiplier:1.4
SliderTickRate:1

[Events]
//Background and Video events
0,0,"house2.jpg",0,0
//Break Periods
//Storyboard Layer 0 (Background)
//Storyboard Layer 1 (Fail)
//Storyboard Layer 2 (Pass)
//Storyboard Layer 3 (Foreground)
//Storyboard Layer 4 (Overlay)
//Storyboard Sound Samples

[TimingPoints]
281,331.5649867374,3,2,1,80,1,0
446,-100,3,2,2,68,0,0
529,-100,3,2,2,50,0,0
612,-100,3,2,3,80,0,0
695,-100,3,2,3,5,0,0
778,-100,3,2,4,80,0,0
861,-100,3,2,4,5,0,0
944,-100,3,2,5,80,0,0
1109,-100,3,2,6,80,0,0
1192,-100,3,2,6,5,0,0
1275,-100,3,2,7,80,0,0
1524,-100,3,2,7,50,0,0
1607,-100,3,2,8,80,0,0
1773,-100,3,2,9,80,0,0
1855,-100,3,2,9,5,0,0
1938,-100,3,2,10,80,0,0
2270,-100,3,2,11,80,0,0
2436,-100,3,2,12,80,0,0
2601,-100,3,2,13,80,0,0
2767,-100,3,2,14,80,0,0
2933,-100,3,2,15,80,0,0
3099,-100,3,2,16,80,0,0
3265,-100,3,2,17,80,0,0
3430,-100,3,2,18,68,0,0
3513,-100,3,2,18,5,0,0
3596,-100,3,2,19,80,0,0
3707,-100,3,2,20,80,0,0
3762,-100,3,2,21,80,0,0
3817,-100,3,2,22,80,0,0
3928,-100,3,2,23,80,0,0
4093,-100,3,2,24,80,0,0
4176,-100,3,2,24,5,0,0
4259,-100,3,2,25,80,0,0
4425,-100,3,2,2,68,0,0
4508,-100,3,2,2,50,0,0
4591,-100,3,2,3,80,0,0
4674,-100,3,2,3,5,0,0
4757,-100,3,2,4,80,0,0
4840,-100,3,2,4,5,0,0
4922,-100,3,2,5,80,0,0
5088,-100,3,2,6,80,0,0
5171,-100,3,2,6,5,0,0
5254,-100,3,2,7,80,0,0
5503,-100,3,2,7,50,0,0
5586,-100,3,2,8,80,0,0
5751,-100,3,2,9,80,0,0
5834,-100,3,2,9,5,0,0
5917,-100,3,2,10,80,0,0
6166,-100,3,2,10,5,0,0
6249,-100,3,2,26,80,0,0
6414,-100,3,2,27,80,0,0
6497,-100,3,2,27,5,0,0
6580,-100,3,2,28,80,0,0
6746,-100,3,2,29,80,0,0
6829,-100,3,2,29,5,0,0
6912,-100,3,2,30,80,0,0
7160,-100,3,2,30,5,0,0
7243,-100,3,2,31,80,0,0
7409,-100,3,2,18,68,0,0
7575,-100,3,2,29,80,0,0
7741,-100,3,2,32,80,0,0
7824,-100,3,2,32,5,0,0
7906,-100,3,2,33,80,0,0
8072,-100,3,2,33,5,0,0
8238,-100,3,2,34,80,0,0
8404,-100,3,2,34,80,0,0
8487,-100,3,2,34,50,0,0
8570,-100,3,2,27,80,0,0
8735,-100,3,2,35,80,0,0
8901,-100,3,2,29,80,0,0
9067,-100,3,2,21,80,0,0
9233,-100,3,2,36,80,0,0
9896,-100,3,2,37,80,0,0
10227,-100,3,2,38,80,0,0
10393,-100,3,2,38,80,0,0
10559,-100,3,2,27,80,0,0
10725,-100,3,2,35,80,0,0
10891,-100,3,2,29,80,0,0
11056,-100,3,2,21,80,0,0
11222,-100,3,2,39,80,0,0
11554,-100,3,2,40,80,0,0
11637,-100,3,2,40,5,0,0
11719,-100,3,2,41,80,0,0
11802,-100,3,2,41,5,0,0
11885,-100,3,2,42,80,0,0
12134,-100,3,2,42,5,0,0
12217,-100,3,2,43,80,0,0
12383,-100,3,2,43,80,0,0
12466,-100,3,2,43,50,0,0
12548,-100,3,2,44,80,0,0
12714,-100,3,2,27,80,0,0
12880,-100,3,2,6,80,0,0
13046,-100,3,2,21,80,0,0
13212,-100,3,2,45,80,0,0
14206,-100,3,2,46,80,0,0
14289,-100,3,2,46,5,0,0
14372,-100,3,2,47,80,0,0
14455,-100,3,2,47,5,0,0
14538,-100,3,2,48,80,0,0
14621,-100,3,2,48,5,0,0
14704,-100,3,2,49,75,0,0
14786,-100,3,2,49,5,0,0
14869,-100,3,2,50,75,0,0
14951,-100,3,2,50,5,0,0
15035,-100,3,2,51,75,0,0
15117,-100,3,2,51,5,0,0
15201,-100,3,2,52,70,0,0
15284,-100,3,2,52,5,0,0
15367,-100,3,2,53,70,0,0
15450,-100,3,2,53,5,0,0
15532,-100,3,2,54,70,0,0
15615,-100,3,2,54,5,0,0
15698,-100,3,2,55,65,0,0
15781,-100,3,2,55,5,0,0
15864,-100,3,2,54,65,0,0
15947,-100,3,2,54,5,0,0
16030,-100,3,2,56,65,0,0
16113,-100,3,2,56,5,0,0
16196,-100,3,2,34,80,0,0
16361,-100,3,2,34,80,0,0
16444,-100,3,2,34,50,0,0
16527,-100,3,2,27,80,0,0
16693,-100,3,2,35,80,0,0
16859,-100,3,2,29,80,0,0
17025,-100,3,2,21,80,0,0
17190,-100,3,2,36,80,0,0
17853,-100,3,2,37,80,0,0
18185,-100,3,2,57,80,0,0
18351,-100,3,2,57,80,0,0
18517,-100,3,2,44,80,0,0
18682,-100,3,2,18,80,0,0
18848,-100,3,2,58,80,0,0
19014,-100,3,2,21,80,0,0
19180,-100,3,2,59,80,0,0
19511,-100,3,2,37,80,0,0
19594,-100,3,2,37,5,0,0
19677,-100,3,2,60,80,0,0
19760,-100,3,2,60,5,0,0
19843,-100,3,2,61,80,0,0
20092,-100,3,2,61,5,0,0
20174,-100,3,2,62,80,0,0
20340,-100,3,2,63,68,0,0
20423,-100,3,2,63,50,0,0
20506,-100,3,2,6,80,0,0
20672,-100,3,2,21,80,0,0
20838,-100,3,2,64,80,0,0
21003,-100,3,2,65,80,0,0
21169,-100,3,2,45,80,0,0
21666,-100,3,2,56,80,0,0
21832,-100,3,2,54,80,0,0
22164,-100,3,2,66,80,0,0
22247,-100,3,2,66,5,0,0
22330,-100,3,2,67,80,0,0
22495,-100,3,2,63,68,0,0
22578,-100,3,2,63,5,0,0
22661,-100,3,2,6,80,0,0
22744,-100,3,2,6,5,0,0
22827,-100,3,2,68,80,0,0
22993,-100,3,2,64,80,0,0
23158,-100,3,2,69,80,0,0
23490,-100,3,2,70,80,0,0
23822,-100,3,2,71,80,0,0
24153,-100,3,2,72,47,0,0
24319,-100,3,2,73,47,0,0
24485,-100,3,2,74,47,0,0
24651,-100,3,2,75,47,0,0
24816,-100,3,2,76,47,0,0
24982,-100,3,2,77,47,0,0
25148,-100,3,2,1,47,0,0
25811,-100,3,2,74,47,0,0
25977,-100,3,2,75,47,0,0
26143,-100,3,2,2,47,0,0
26557,-100,3,2,2,47,0,0
26640,-100,3,2,78,47,0,0
26806,-100,3,2,79,47,0,0
27137,-100,3,2,80,47,0,0
27469,-100,3,2,3,47,0,0
27572,-100,3,2,3,47,0,0
27579,-100,3,2,81,47,0,0
27690,-100,3,2,82,47,0,0
27800,-100,3,2,74,47,0,0
27966,-100,3,2,83,47,0,0
28132,-100,3,2,84,47,0,0
28298,-100,3,2,85,47,0,0
28464,-100,3,2,86,47,0,0
28629,-100,3,2,87,47,0,0
28795,-100,3,2,88,47,0,0
28961,-100,3,2,89,47,0,0
29127,-100,3,2,4,47,0,0
29790,-100,3,2,86,47,0,0
29956,-100,3,2,87,47,0,0
30121,-100,3,2,5,47,0,0
30536,-100,3,2,5,47,0,0
30619,-100,3,2,85,47,0,0
30784,-100,3,2,90,47,0,0
30950,-100,3,2,88,47,0,0
31116,-100,3,2,91,47,0,0
31448,-100,3,2,6,47,0,0
31551,-100,3,2,6,47,0,0
31558,-100,3,2,92,47,0,0
31655,-100,3,2,92,47,0,0
31669,-100,3,2,93,47,0,0
31779,-100,3,2,86,47,0,0
31945,-100,3,2,94,47,0,0
32111,-100,3,2,95,60,0,0
32277,-100,3,2,73,60,0,0
32442,-100,3,2,96,60,0,0
32608,-100,3,2,73,60,0,0
32774,-100,3,2,97,60,0,0
32940,-100,3,2,98,60,0,0
33105,-100,3,2,99,60,0,0
33271,-100,3,2,73,60,0,0
33437,-100,3,2,97,60,0,0
33603,-100,3,2,73,60,0,0
33769,-100,3,2,96,60,0,0
33934,-100,3,2,98,60,0,0
34100,-100,3,2,100,60,0,0
34266,-100,3,2,73,60,0,0
34432,-100,3,2,101,60,0,0
34597,-100,3,2,73,60,0,0
34763,-100,3,2,96,60,0,0
34929,-100,3,2,98,60,0,0
35095,-100,3,2,102,60,0,0
35261,-100,3,2,73,60,0,0
35426,-100,3,2,97,60,0,0
35592,-100,3,2,73,60,0,0
35758,-100,3,2,96,60,0,0
35924,-100,3,2,98,60,0,0
36090,-100,3,2,103,60,0,0
36255,-100,3,2,73,60,0,0
36421,-100,3,2,104,60,0,0
36587,-100,3,2,73,60,0,0
36753,-100,3,2,105,60,0,0
36918,-100,3,2,98,60,0,0
37084,-100,3,2,99,60,0,0
37250,-100,3,2,73,60,0,0
37416,-100,3,2,106,60,0,0
37582,-100,3,2,73,60,0,0
37747,-100,3,2,105,60,0,0
37913,-100,3,2,98,60,0,0
38079,-100,3,2,107,60,0,0
38245,-100,3,2,108,60,0,0
38410,-100,3,2,109,60,0,0
38576,-100,3,2,110,60,0,0
38742,-100,3,2,111,60,0,0
38908,-100,3,2,112,60,0,0
39074,-100,3,2,113,60,0,0
39239,-100,3,2,114,60,0,0
39405,-100,3,2,115,60,0,0
39571,-100,3,2,116,60,0,0
39737,-100,3,2,117,60,0,0
39903,-100,3,2,117,60,0,0
40068,-100,3,2,118,60,0,0
40317,-100,3,2,118,5,0,0
40400,-100,3,2,119,60,0,0
40731,-100,3,2,120,60,0,0
41063,-100,3,2,121,60,0,0
41395,-100,3,2,122,60,0,0
41726,-100,3,2,123,60,0,0
42058,-100,3,2,7,60,0,0

[Colours]
Combo1 : 212,212,212
Combo2 : 137,166,224
Combo3 : 188,202,237
Combo4 : 210,148,223
Combo5 : 228,195,224
Combo6 : 170,170,170

[HitObjects]
320,240,281,6,0,P|370:258|424:245,1,105,6|0,2:0|2:0,0:0:0:0:
431,241,612,1,2,2:0:0:0:
309,230,778,1,2,2:0:0:0:
361,342,944,1,2,2:0:0:0:
365,328,1275,6,0,P|355:275|317:234,1,105,10|0,2:0|2:0,0:0:0:0:
309,230,1606,1,2,2:0:0:0:
361,342,1772,1,2,2:0:0:0:
431,241,1938,1,2,2:0:0:0:
268,316,2270,6,0,P|264:350|274:385,1,70,6|2,2:0|2:0,0:0:0:0:
376,163,2601,2,0,P|348:142|312:133,1,70,2|2,2:0|2:0,0:0:0:0:
456,333,2933,2,0,P|487:319|513:292,1,70,2|2,2:0|2:0,0:0:0:0:
367,270,3265,5,10,2:0:0:0:
456,333,3596,2,0,P|487:319|513:292,2,46.6666666666667,2|2|2,2:0|2:0|2:0,0:0:0:0:
273,384,3928,2,0,P|264:350|267:316,1,70,2|2,2:0|2:0,0:0:0:0:
220,107,4259,38,0,P|170:125|116:112,1,105,6|0,2:0|2:0,0:0:0:0:
109,108,4590,1,2,2:0:0:0:
231,97,4756,1,2,2:0:0:0:
179,209,4922,1,2,2:0:0:0:
175,195,5254,6,0,P|185:142|223:101,1,105,10|0,2:0|2:0,0:0:0:0:
231,97,5586,1,2,2:0:0:0:
179,209,5750,1,2,2:0:0:0:
109,108,5916,1,2,2:0:0:0:
272,183,6248,6,0,P|276:217|266:252,1,70,6|2,2:0|2:0,0:0:0:0:
164,30,6580,2,0,P|192:9|228:0,1,70,2|2,2:0|2:0,0:0:0:0:
84,200,6912,2,0,P|53:186|27:159,1,70,2|0,2:0|2:0,0:0:0:0:
173,137,7243,5,10,2:0:0:0:
28,160,7575,1,2,2:0:0:0:
28,160,7741,2,0,P|52:185|84:200,1,70,2|2,2:0|2:0,0:0:0:0:
338,118,8238,38,0,P|388:100|442:113,1,105,6|0,2:0|2:0,0:0:0:0:
449,117,8570,2,0,P|438:160|441:193,1,70,2|2,2:0|2:0,0:0:0:0:
327,128,8901,2,0,P|338:85|335:52,1,70,2|2,2:0|2:0,0:0:0:0:
354,212,9233,5,10,2:0:0:0:
297,54,9564,2,0,P|314:83|322:117,1,70,0|0,2:0|2:0,0:0:0:0:
478,190,9896,2,0,P|460:160|452:126,1,70,2|0,2:0|2:0,0:0:0:0:
354,212,10227,5,6,2:0:0:0:
458,131,10559,2,0,P|481:156|512:173,1,70,2|2,2:0|2:0,0:0:0:0:
314,110,10890,2,0,P|290:84|259:67,1,70,2|2,2:0|2:0,0:0:0:0:
354,212,11222,5,10,2:0:0:0:
465,131,11554,1,2,2:0:0:0:
384,119,11719,1,2,2:0:0:0:
302,107,11885,2,0,P|268:97|233:97,1,70,2|0,2:0|2:0,0:0:0:0:
166,252,12217,38,0,P|116:234|62:247,1,105,6|0,2:0|2:0,0:0:0:0:
55,251,12549,2,0,P|66:294|63:327,1,70,2|2,2:0|2:0,0:0:0:0:
177,262,12880,2,0,P|166:219|169:186,1,70,2|2,2:0|2:0,0:0:0:0:
150,346,13212,5,10,2:0:0:0:
207,188,13543,2,0,P|190:217|182:251,1,70,0|0,2:0|2:0,0:0:0:0:
26,324,13875,2,0,P|44:294|52:260,1,70,0|0,2:0|2:0,0:0:0:0:
150,346,14206,5,6,2:0:0:0:
0,180,14372,2,0,P|34:166|68:166,1,70,2|2,2:0|2:0,0:0:0:0:
141,357,14704,5,2,2:0:0:0:
63,154,14869,2,0,P|99:159|129:177,1,70,2|2,2:0|2:0,0:0:0:0:
132,367,15201,69,10,2:0:0:0:
130,162,15367,2,0,P|158:185|175:215,1,70,2|2,2:0|2:0,0:0:0:0:
121,376,15698,5,2,2:0:0:0:
184,203,15864,2,0,P|197:237|197:271,1,70,2|2,2:0|2:0,0:0:0:0:
364,261,16196,38,0,P|353:210|371:161,1,105,6|0,2:0|2:0,0:0:0:0:
381,150,16527,2,0,P|419:152|459:170,1,70,2|2,2:0|2:0,0:0:0:0:
370,272,16859,2,0,P|332:270|292:252,1,70,2|2,2:0|2:0,0:0:0:0:
463,256,17190,5,10,2:0:0:0:
296,300,17522,2,0,P|330:294|361:277,1,70,0|0,2:0|2:0,0:0:0:0:
455,122,17853,2,0,P|420:127|389:144,1,70,2|0,2:0|2:0,0:0:0:0:
463,256,18185,5,6,2:0:0:0:
355,286,18517,2,0,P|336:315|309:337,1,70,2|2,2:0|2:0,0:0:0:0:
394,134,18848,2,0,P|412:104|439:82,1,70,2|2,2:0|2:0,0:0:0:0:
463,256,19180,5,10,2:0:0:0:
355,296,19511,1,2,2:0:0:0:
373,209,19677,1,2,2:0:0:0:
393,123,19843,2,0,P|394:88|406:55,1,70,2|0,2:0|2:0,0:0:0:0:
151,116,20174,38,0,P|140:167|158:216,1,105,6|0,2:0|2:0,0:0:0:0:
168,227,20506,2,0,P|206:225|246:207,1,70,2|2,2:0|2:0,0:0:0:0:
157,105,20837,2,0,P|119:107|79:125,1,70,2|2,2:0|2:0,0:0:0:0:
250,121,21168,5,10,2:0:0:0:
83,77,21500,2,0,P|117:82|148:99,1,70,0|2,2:0|2:0,0:0:0:0:
242,255,21832,2,0,P|207:249|176:232,1,70,2|0,2:0|2:0,0:0:0:0:
250,121,22163,5,6,2:0:0:0:
75,211,22330,1,10,2:0:0:0:
66,205,22661,5,6,2:0:0:0:
258,126,22828,1,10,2:0:0:0:
176,232,22993,37,6,2:0:0:0:
167,226,23076,1,4,2:0:0:0:
158,220,23159,1,10,2:0:0:0:
147,98,23324,1,8,2:0:0:0:
270,219,23490,6,0,P|268:255|253:286,1,70,2|0,2:0|2:0,0:0:0:0:
53,111,23822,2,0,P|55:75|69:43,1,70,2|0,2:0|2:0,0:0:0:0:
389,12,24153,37,6,2:0:0:0:
390,0,24319,1,2,2:0:0:0:
447,137,24485,5,2,2:0:0:0:
457,144,24651,1,2,2:0:0:0:
309,125,24816,69,2,2:0:0:0:
298,130,24982,1,2,2:0:0:0:
382,91,25148,5,2,2:1:0:0:
251,270,25811,70,0,P|221:259|181:260,1,70,2|2,2:0|2:0,0:0:0:0:
41,363,26143,2,0,B|81:349|97:301|97:301|122:345|164:352,1,175,2|0,2:1|2:0,0:0:0:0:
178,354,26640,1,2,2:0:0:0:
28,368,26806,1,2,2:0:0:0:
90,231,27137,5,2,2:0:0:0:
164,352,27469,2,0,B|122:345|97:301,2,46.6666666666667,2|2|2,2:1|2:0|2:0,0:0:0:0:
251,270,27800,2,0,P|221:259|181:260,1,70,2|2,2:0|2:0,0:0:0:0:
89,21,28132,69,6,2:0:0:0:
88,9,28298,1,2,2:0:0:0:
31,146,28464,5,2,2:0:0:0:
21,153,28629,1,2,2:0:0:0:
169,134,28795,69,2,2:0:0:0:
180,139,28961,1,2,2:0:0:0:
96,100,29127,5,2,2:1:0:0:
289,55,29790,70,0,P|319:44|359:45,1,70,2|2,2:0|2:0,0:0:0:0:
499,148,30122,2,0,B|459:134|443:86|443:86|418:130|376:137,1,175,2|0,2:1|2:0,0:0:0:0:
362,139,30619,1,2,2:0:0:0:
512,153,30784,1,2,2:0:0:0:
450,16,30950,1,2,2:0:0:0:
430,221,31116,5,2,2:0:0:0:
375,137,31448,2,0,B|418:130|443:86,2,46.6666666666667,2|2|2,2:1|2:0|2:0,0:0:0:0:
289,55,31779,2,0,P|319:44|359:45,1,70,2|2,2:0|2:0,0:0:0:0:
180,161,32111,5,6,2:0:0:0:
78,192,32277,1,2,2:0:0:0:
0,121,32442,1,2,2:0:0:0:
81,181,32608,5,2,2:0:0:0:
10,118,32773,1,2,2:0:0:0:
30,24,32939,1,2,2:0:0:0:
20,114,33105,5,2,2:0:0:0:
38,31,33271,1,2,2:0:0:0:
118,4,33436,1,2,2:0:0:0:
45,38,33603,5,2,2:0:0:0:
115,15,33768,1,2,2:0:0:0:
169,65,33935,1,2,2:0:0:0:
321,234,34100,37,6,2:0:0:0:
423,265,34266,1,2,2:0:0:0:
501,194,34431,1,2,2:0:0:0:
420,254,34597,5,2,2:0:0:0:
491,191,34762,1,2,2:0:0:0:
471,97,34928,1,2,2:0:0:0:
481,187,35094,5,2,2:0:0:0:
463,104,35260,1,2,2:0:0:0:
383,77,35425,1,2,2:0:0:0:
456,111,35592,5,2,2:0:0:0:
386,88,35757,1,2,2:0:0:0:
332,138,35924,1,2,2:0:0:0:
180,310,36090,37,6,2:0:0:0:
78,341,36256,1,2,2:0:0:0:
0,270,36421,1,2,2:0:0:0:
188,207,36587,5,2,2:0:0:0:
171,302,36753,1,2,2:0:0:0:
81,330,36919,1,2,2:0:0:0:
118,153,37084,5,2,2:0:0:0:
180,211,37250,1,2,2:0:0:0:
163,294,37416,1,2,2:0:0:0:
45,187,37582,5,2,2:0:0:0:
115,164,37747,1,2,2:0:0:0:
169,214,37914,1,2,2:0:0:0:
403,166,38079,37,6,2:0:0:0:
479,329,38244,1,2,2:0:0:0:
299,313,38410,1,2,2:0:0:0:
402,178,38576,5,2,2:0:0:0:
469,322,38742,1,2,2:0:0:0:
310,308,38908,1,2,2:0:0:0:
443,246,39074,5,2,2:0:0:0:
454,240,39239,1,2,2:0:0:0:
388,324,39405,5,2,2:0:0:0:
387,336,39571,1,2,2:0:0:0:
338,229,39737,69,2,2:0:0:0:
114,152,40068,53,2,2:0:0:0:
147,78,40399,1,2,2:0:0:0:
227,71,40731,1,2,2:0:0:0:
274,136,41063,21,2,2:0:0:0:
240,209,41394,1,2,2:0:0:0:
160,216,41726,1,2,2:0:0:0:
194,143,42058,69,6,2:1:0:0:
