osu file format v14

[General]
AudioFilename: audio.mp3
AudioLeadIn: 0
PreviewTime: 281
Countdown: 0
SampleSet: Soft
StackLeniency: 0.5
Mode: 0
LetterboxInBreaks: 0
WidescreenStoryboard: 0

[Editor]
DistanceSpacing: 2
BeatDivisor: 4
GridSize: 4
TimelineZoom: 1.1

[Metadata]
Title:Granat
TitleUnicode:Granat
Artist:Drop
ArtistUnicode:Drop
Creator:Respirte
Version:Perilous Journey
Source:
Tags:竜と炎の物語 竜と炎の物語 清風明月 c85 seifuu meigetsu ryuu to honou no monogatari Dragon and Flame Mrploszaj
BeatmapID:1555581
BeatmapSetID:737109

[Difficulty]
HPDrainRate:5.5
CircleSize:3.8
OverallDifficulty:8.8
ApproachRate:9.3
SliderMultiplier:1.90000000596046
SliderTickRate:1

[Events]
//Background and Video events
0,0,"snowflake.jpg",0,0
//Break Periods
//Storyboard Layer 0 (Background)
//Storyboard Layer 1 (Fail)
//Storyboard Layer 2 (Pass)
//Storyboard Layer 3 (Foreground)
//Storyboard Layer 4 (Overlay)
//Storyboard Sound Samples

[TimingPoints]
281,331.5649867374,3,2,1,70,1,0
22164,-100,3,2,1,100,0,0
23324,-100,3,2,1,70,0,0
24153,-100,3,2,1,50,0,0

[Colours]
Combo1 : 74,223,101
Combo2 : 210,164,66
Combo3 : 92,197,205
Combo4 : 216,227,70

[HitObjects]
172,92,281,5,2,0:0:0:0:
200,252,612,1,0,0:0:0:0:
204,40,778,1,0,0:0:0:0:
244,192,944,2,0,L|261:285,1,95.000000298023
316,92,1275,5,2,0:0:0:0:
288,252,1606,1,0,0:0:0:0:
284,40,1772,1,0,0:0:0:0:
244,192,1938,2,0,L|226:285,1,95.000000298023
396,248,2270,6,0,P|428:282|445:326,1,95.000000298023
418,171,2602,2,0,P|431:125|461:88,1,95.000000298023
341,189,2933,2,0,P|294:200|247:193,1,95.000000298023
364,324,3265,1,2,0:0:0:0:
104,316,3596,2,0,P|68:325|28:306,2,63.3333335320153
241,286,3928,2,0,P|236:237|252:185,1,95.000000298023
175,93,4259,5,2,0:0:0:0:
203,253,4590,1,0,0:0:0:0:
207,41,4756,1,0,0:0:0:0:
247,193,4922,2,0,L|264:286,1,95.000000298023
319,93,5254,5,2,0:0:0:0:
291,253,5585,1,0,0:0:0:0:
287,41,5751,1,0,0:0:0:0:
247,193,5917,2,0,L|229:286,1,95.000000298023
164,181,6249,6,0,P|192:124|234:96,1,95.000000298023
282,270,6580,2,0,P|218:273|173:249,1,95.000000298023
300,119,6912,2,0,P|333:170|337:203,1,95.000000298023
216,339,7243,2,0,P|124:346|56:284,1,190.000000596046
178,208,7741,1,0,0:0:0:0:
230,74,7906,2,0,P|137:67|69:129,1,190.000000596046
138,276,8570,5,0,0:0:0:0:
250,185,8736,1,0,0:0:0:0:
105,193,8902,1,0,0:0:0:0:
227,270,9068,1,0,0:0:0:0:
176,137,9233,1,2,0:0:0:0:
52,296,9564,2,0,P|81:349|111:366,1,95.000000298023
166,296,9896,2,0,P|135:241|105:224,1,95.000000298023
32,168,10227,5,0,0:0:0:0:
32,152,10559,1,0,0:0:0:0:
216,92,10725,1,0,0:0:0:0:
148,264,10891,1,0,0:0:0:0:
180,72,11056,1,0,0:0:0:0:
124,284,11222,2,0,B|196:327|216:232|310:301,1,190.000000596046,2|0,2:0|2:0,2:0:0:0:
244,352,11719,1,0,0:0:0:0:
57,316,11885,2,0,P|52:268|73:226,1,95.000000298023,0|0,0:0|0:0,0:3:0:0:
272,160,12217,5,0,0:0:0:0:
264,148,12548,1,0,0:0:0:0:
268,272,12714,1,0,0:0:0:0:
328,108,12880,1,0,0:0:0:0:
332,312,13046,1,0,0:0:0:0:
256,136,13212,1,2,0:0:0:0:
110,336,13543,2,0,P|76:292|36:276,1,95.000000298023
112,200,13875,2,0,P|152:248|188:264,1,95.000000298023
268,79,14206,5,0,0:0:0:0:
72,116,14372,1,0,0:0:0:0:
221,207,14538,1,0,0:0:0:0:
432,140,14704,2,0,P|391:113|345:103,1,95.000000298023
180,261,15035,1,0,0:0:0:0:
261,78,15201,5,0,0:0:0:0:
432,140,15367,1,0,0:0:0:0:
286,232,15533,1,0,0:0:0:0:
112,200,15698,2,0,P|153:173|199:163,1,95.000000298023
302,266,16030,1,0,0:0:0:0:
254,77,16196,5,4,0:0:0:0:
251,207,16527,1,0,0:0:0:0:
393,211,16693,1,0,0:0:0:0:
254,125,16859,1,0,0:0:0:0:
129,225,17025,1,0,0:0:0:0:
257,37,17190,1,0,0:0:0:0:
302,266,17522,2,0,B|342:278|406:286,1,95.000000298023
347,142,17853,2,0,B|293:136|253:124,1,95.000000298023
487,261,18185,6,0,B|477:301|499:316|481:373,1,95.000000298023,4|0,1:2|0:0,0:0:0:0:
481,156,18517,1,0,0:0:0:0:
251,207,18682,1,0,0:0:0:0:
392,292,18848,1,0,0:0:0:0:
260,96,19014,1,0,0:0:0:0:
422,219,19180,2,0,B|330:195|336:280|254:286,1,190.000000596046,2|0,0:0|0:0,0:0:0:0:
72,332,19677,1,0,0:0:0:0:
254,285,19843,2,0,P|278:328|286:388,1,95.000000298023
192,172,20174,5,4,0:0:0:0:
107,112,20340,1,0,0:0:0:0:
283,128,20505,1,0,0:0:0:0:
182,272,20671,1,0,0:0:0:0:
198,81,20838,1,0,0:0:0:0:
101,198,21004,1,0,0:0:0:0:
284,212,21169,2,0,P|359:157|344:64,1,190.000000596046,2|0,0:0|0:0,0:0:0:0:
192,172,21667,1,0,0:0:0:0:
276,308,21832,1,0,0:0:0:0:
283,128,21999,1,0,0:0:0:0:
28,28,22164,6,8,B|40:124,1,95.000000298023
39,122,22661,6,8,B|28:28,1,95.000000298023
28,28,23158,6,8,B|40:124,1,95.000000298023
88,332,23490,2,0,B|184:320,1,95.000000298023
421,291,23822,2,0,B|409:195,1,95.000000298023
244,80,24153,5,6,0:0:0:0:
262,260,24319,1,0,0:0:0:0:
371,115,24485,1,0,0:0:0:0:
179,183,24651,1,0,0:0:0:0:
374,235,24816,1,0,0:0:0:0:
321,39,24982,1,0,0:0:0:0:
336,312,25148,2,0,B|297:317|285:341|243:340,1,95.000000298023,2|0,0:0|0:0,0:0:0:0:
116,204,25479,2,0,B|137:170|126:146|153:114,1,95.000000298023
304,240,25811,1,0,0:0:0:0:
204,168,25977,1,0,0:0:0:0:
124,348,26143,6,0,P|154:312|166:266,1,95.000000298023
38,348,26474,1,0,0:0:0:0:
220,348,26640,1,0,0:0:0:0:
399,348,26806,2,0,P|383:294|334:254,1,95.000000298023
476,348,27137,1,0,0:0:0:0:
462,348,27469,2,0,B|436:337|413:353|399:348,2,63.3333335320153
272,264,27800,2,0,P|233:315|229:361,1,95.000000298023
284,188,28132,5,4,0:0:0:0:
165,266,28298,1,0,0:0:0:0:
344,248,28464,1,0,0:0:0:0:
230,130,28629,1,0,0:0:0:0:
433,86,28795,1,0,0:0:0:0:
228,16,28961,1,0,0:0:0:0:
468,16,29127,1,2,0:0:0:0:
154,71,29790,1,0,0:0:0:0:
342,115,29956,1,0,0:0:0:0:
492,16,30121,6,0,P|390:50|311:18,1,190.000000596046
36,16,30619,1,0,0:0:0:0:
230,16,30784,2,0,P|198:52|122:60,1,95.000000298023
328,16,31116,1,2,0:0:0:0:
96,16,31448,2,0,P|65:23|35:15,2,63.3333335320153
230,22,31779,2,0,P|232:60|261:109,1,95.000000298023
125,92,32111,5,0,2:0:0:0:
74,277,32277,1,0,0:0:0:0:
259,228,32442,1,0,2:0:0:0:
309,43,32608,1,0,0:0:0:0:
259,228,32774,1,0,2:0:0:0:
74,277,32940,1,0,0:0:0:0:
125,92,33105,5,2,0:0:0:0:
338,215,33271,1,0,0:0:0:0:
231,30,33437,1,0,0:0:0:0:
124,215,33603,1,0,0:0:0:0:
338,92,33768,1,0,0:0:0:0:
231,277,33934,1,0,0:0:0:0:
125,92,34100,5,0,0:0:0:0:
380,239,34265,1,0,0:0:0:0:
88,168,34431,1,0,0:0:0:0:
414,163,34597,1,0,0:0:0:0:
124,239,34763,1,0,0:0:0:0:
380,92,34928,1,0,0:0:0:0:
125,92,35095,5,2,0:0:0:0:
359,227,35261,1,0,0:0:0:0:
242,24,35427,1,0,0:0:0:0:
124,227,35593,1,0,0:0:0:0:
359,92,35758,1,0,0:0:0:0:
241,295,35924,1,0,0:0:0:0:
125,92,36090,5,0,0:0:0:0:
379,95,36256,1,0,0:0:0:0:
375,350,36422,1,0,0:0:0:0:
121,346,36587,1,0,0:0:0:0:
375,350,36753,1,0,0:0:0:0:
379,95,36919,1,0,0:0:0:0:
125,92,37084,5,2,0:0:0:0:
380,239,37250,1,0,0:0:0:0:
252,18,37416,1,0,0:0:0:0:
124,239,37582,1,0,0:0:0:0:
380,92,37747,1,0,0:0:0:0:
252,314,37913,1,0,0:0:0:0:
116,114,38079,5,2,0:0:0:0:
368,13,38245,1,0,0:0:0:0:
234,291,38410,1,0,0:0:0:0:
116,15,38576,1,2,0:0:0:0:
423,153,38742,1,0,0:0:0:0:
110,237,38908,1,0,0:0:0:0:
245,13,39074,1,2,0:0:0:0:
344,247,39239,1,0,0:0:0:0:
148,122,39405,1,0,0:0:0:0:
343,72,39571,1,2,0:0:0:0:
242,198,39737,1,0,0:0:0:0:
35,351,40068,5,0,0:0:0:0:
120,175,40400,1,0,0:0:0:0:
232,340,40731,1,0,0:0:0:0:
262,46,41064,1,0,0:0:0:0:
385,254,41395,1,0,0:0:0:0:
457,23,41726,1,0,0:0:0:0:
256,188,42059,5,6,0:0:0:0:
