osu file format v14

[General]
AudioFilename: audio.mp3
AudioLeadIn: 0
PreviewTime: 281
Countdown: 0
SampleSet: Soft
StackLeniency: 0.7
Mode: 0
LetterboxInBreaks: 0
WidescreenStoryboard: 0

[Editor]
Bookmarks: 21169
DistanceSpacing: 1
BeatDivisor: 4
GridSize: 8
TimelineZoom: 1

[Metadata]
Title:Granat
TitleUnicode:Granat
Artist:Drop
ArtistUnicode:Drop
Creator:Respirte
Version:Normal
Source:
Tags:竜と炎の物語 竜と炎の物語 清風明月 c85 seifuu meigetsu ryuu to honou no monogatari Dragon and Flame Mrploszaj
BeatmapID:1555580
BeatmapSetID:737109

[Difficulty]
HPDrainRate:3
CircleSize:3
OverallDifficulty:3
ApproachRate:5
SliderMultiplier:1
SliderTickRate:1

[Events]
//Background and Video events
0,0,"snowflake.jpg",0,0
//Break Periods
//Storyboard Layer 0 (Background)
//Storyboard Layer 1 (Fail)
//Storyboard Layer 2 (Pass)
//Storyboard Layer 3 (Foreground)
//Storyboard Layer 4 (Overlay)
//Storyboard Sound Samples

[TimingPoints]
281,331.5649867374,3,2,1,70,1,0
22164,-100,4,2,1,100,0,0
23490,-100,4,2,1,70,0,0
24153,-100,4,2,1,50,0,0

[Colours]
Combo1 : 74,223,101
Combo2 : 210,164,66
Combo3 : 92,197,205
Combo4 : 216,227,70

[HitObjects]
171,188,281,6,0,P|219:198|268:188,1,100
351,133,944,1,0,0:0:0:0:
443,170,1275,2,0,P|453:218|443:267,1,100
373,338,1938,1,0,0:0:0:0:
274,357,2270,6,0,L|160:357,1,100
87,305,2933,1,0,0:0:0:0:
42,215,3265,1,0,0:0:0:0:
87,126,3596,2,0,B|82:104|82:104|86:76,2,50
133,214,4259,6,0,P|181:203|230:213,1,100,2|0,0:0|0:0,0:0:0:0:
313,269,4922,1,0,0:0:0:0:
405,232,5254,2,0,P|415:183|405:134,1,100,4|0,0:0|0:0,0:0:0:0:
335,64,5916,1,0,0:0:0:0:
247,13,6249,6,0,B|192:12|192:12|133:34,2,100
207,104,7243,2,0,B|197:168|197:168|143:214|143:214|130:279,1,200
224,311,8238,6,0,P|271:292|323:313,2,100,4|0|0,0:0|0:0|0:0,0:0:0:0:
140,365,9233,2,0,P|66:347|48:293,1,100
68,231,9896,1,0,0:0:0:0:
140,162,10227,6,0,P|187:143|239:164,2,100
54,109,11222,2,0,P|43:36|131:65,1,200
140,162,12217,6,0,P|89:194|40:196,2,100,2|0|0,0:0|0:0|0:0,0:0:0:0:
224,107,13212,2,0,P|274:74|323:72,1,100
412,77,13875,1,0,0:0:0:0:
487,142,14206,6,0,P|497:190|487:239,1,100,2|0,0:0|0:0,0:0:0:0:
465,284,14704,1,2,0:0:0:0:
333,355,15201,6,0,P|284:365|235:355,1,100,2|0,0:0|0:0,0:0:0:0:
191,333,15699,1,2,0:0:0:0:
123,199,16196,6,0,P|170:218|222:196,2,100,4|0|0,0:0|0:0|0:0,0:0:0:0:
85,105,17190,2,0,P|128:81|177:76,1,100
277,67,17853,1,0,0:0:0:0:
373,95,18185,6,0,P|358:48|377:3,2,100,4|0|0,0:0|0:0|0:0,0:0:0:0:
433,174,19180,2,0,P|452:219|450:269,1,100
387,347,19843,1,0,0:0:0:0:
287,353,20174,6,0,L|166:342,2,100,4|0|0,0:0|0:0|0:0,0:0:0:0:
263,255,21169,2,0,L|362:264,2,100
176,204,22164,6,8,L|180:253,1,50
89,212,22661,6,8,L|84:261,1,50
0,208,23158,6,8,L|4:257,2,50,8|8|0,0:0|0:0|0:0,0:0:0:0:
0,108,23822,1,0,0:0:0:0:
75,42,24153,6,0,B|126:28|126:28|179:28,1,100,6|0,0:0|0:0,0:0:0:0:
269,54,24816,2,0,B|298:57|298:57|338:49,2,50,0|0|2,0:0|0:0|0:0,0:0:0:0:
388,215,25811,2,0,L|339:219,1,50
298,249,26143,6,0,P|258:331|160:297,1,200
201,214,27137,1,2,0:0:0:0:
120,154,27469,2,0,B|98:148|98:148|72:121,2,50
213,117,28132,6,0,B|231:62|231:62|270:28,1,100,4|0,0:0|0:0,0:0:0:0:
362,19,28795,2,0,B|390:26|390:26|431:23,2,50,0|0|2,0:0|0:0|0:0,0:0:0:0:
432,206,29790,2,0,L|428:255,1,50
422,305,30121,6,0,P|329:272|236:305,1,200
158,367,31116,1,2,0:0:0:0:
72,315,31448,2,0,B|45:317|45:317|6:306,2,50
161,270,32111,5,0,0:0:0:0:
215,186,32442,1,0,0:0:0:0:
305,142,32774,1,0,0:0:0:0:
336,47,33105,2,0,P|391:28|457:49,2,100,2|0|0,0:0|0:0|0:0,0:0:0:0:
246,91,34100,5,0,0:0:0:0:
215,186,34431,1,0,0:0:0:0:
127,234,34763,1,0,0:0:0:0:
153,330,35094,2,0,P|105:343|56:333,2,100,2|0|0,0:0|0:0|0:0,0:0:0:0:
214,250,36090,5,0,0:0:0:0:
308,216,36421,1,0,0:0:0:0:
405,241,36753,1,0,0:0:0:0:
344,320,37084,2,0,P|389:338|439:333,2,100,2|0|0,0:0|0:0|0:0,0:0:0:0:
252,280,38079,6,0,P|206:298|156:293,2,100
331,219,39074,2,0,P|378:233|427:224,2,100
264,144,40068,5,4,0:0:0:0:
139,226,41063,1,0,0:0:0:0:
169,79,42058,1,6,0:0:0:0:
