osu file format v14

[General]
AudioFilename: audio.mp3
AudioLeadIn: 0
PreviewTime: 281
Countdown: 0
SampleSet: Soft
StackLeniency: 0.7
Mode: 0
LetterboxInBreaks: 0
WidescreenStoryboard: 0

[Editor]
DistanceSpacing: 2.3
BeatDivisor: 4
GridSize: 4
TimelineZoom: 1

[Metadata]
Title:Granat
TitleUnicode:Granat
Artist:Drop
ArtistUnicode:Drop
Creator:Respirte
Version:Light Insane
Source:
Tags:竜と炎の物語 竜と炎の物語 清風明月 c85 seifuu meigetsu ryuu to honou no monogatari Dragon and Flame Mrploszaj
BeatmapID:1555578
BeatmapSetID:737109

[Difficulty]
HPDrainRate:5.5
CircleSize:4
OverallDifficulty:6.5
ApproachRate:8.5
SliderMultiplier:1.4
SliderTickRate:1

[Events]
//Background and Video events
0,0,"snowflake.jpg",0,0
//Break Periods
//Storyboard Layer 0 (Background)
//Storyboard Layer 1 (Fail)
//Storyboard Layer 2 (Pass)
//Storyboard Layer 3 (Foreground)
//Storyboard Layer 4 (Overlay)
//Storyboard Sound Samples

[TimingPoints]
281,331.5649867374,3,2,1,70,1,0
22164,-100,3,2,1,100,0,0
23490,-100,3,2,1,70,0,0
24153,-100,3,2,1,50,0,0

[Colours]
Combo1 : 74,223,101
Combo2 : 210,164,66
Combo3 : 92,197,205
Combo4 : 216,227,70

[HitObjects]
88,172,281,5,4,0:0:0:0:
196,228,612,2,0,L|201:136,1,70
311,206,944,1,0,0:0:0:0:
305,107,1275,5,4,0:0:0:0:
199,158,1607,2,0,L|192:66,1,70
81,130,1938,1,0,0:0:0:0:
75,60,2270,6,0,B|76:97|81:131,1,70
144,256,2601,2,0,B|143:219|138:185,1,70
190,96,2933,2,0,P|224:88|261:86,1,70
333,110,3265,1,0,0:0:0:0:
282,238,3596,2,0,L|332:245,2,46.6666666666667
144,256,3928,2,0,L|74:245,1,70
228,68,4259,5,2,0:0:0:0:
164,172,4591,2,0,L|254:185,1,70
194,291,4922,1,0,0:0:0:0:
348,292,5254,5,4,0:0:0:0:
342,178,5585,2,0,L|412:188,1,70
382,69,5917,1,0,0:0:0:0:
92,120,6249,5,0,0:0:0:0:
194,291,6580,1,0,0:0:0:0:
296,120,6912,1,0,0:0:0:0:
404,248,7243,2,0,B|300:248|300:248|196:212,1,210
194,291,7906,1,0,0:0:0:0:
61,118,8238,6,0,B|169:128|169:128|240:128,1,140,4|0,0:0|0:0,0:0:0:0:
130,207,8735,2,0,L|201:213,1,70
194,291,9067,2,0,L|265:297,1,70
382,207,9564,1,0,0:0:0:0:
199,213,9896,1,0,0:0:0:0:
450,118,10227,6,0,B|342:128|342:128|272:128,1,140
380,203,10724,2,0,L|308:209,2,70
466,293,11222,2,0,B|358:283|358:283|287:283,1,140
130,207,11719,2,0,L|201:213,1,70
190,73,12217,6,0,B|199:180|199:180|199:251,1,140,2|0,0:0|0:0,0:0:0:0:
278,141,12714,2,0,L|284:212,1,70
256,289,13046,2,0,L|327:282,1,70
168,298,13543,2,0,L|238:292,2,70
72,159,14206,5,2,0:0:0:0:
171,195,14372,1,0,0:0:0:0:
31,251,14538,1,0,0:0:0:0:
198,302,14704,2,0,L|122:278,2,70,2|0|0,0:0|0:0|0:0,0:0:0:0:
297,338,15201,5,2,0:0:0:0:
198,302,15367,1,0,0:0:0:0:
338,246,15533,1,0,0:0:0:0:
171,195,15699,2,0,L|247:219,2,70,2|0|0,0:0|0:0|0:0,0:0:0:0:
108,72,16196,5,4,0:0:0:0:
108,264,16527,2,0,L|183:270,1,70
256,132,16859,2,0,L|184:125,1,70
285,279,17190,5,0,0:0:0:0:
256,132,17522,2,0,L|184:125,1,70
108,264,17853,2,0,L|183:270,1,70
79,117,18185,5,4,0:0:0:0:
215,272,18517,2,0,L|290:278,1,70
363,140,18849,2,0,L|291:133,1,70
79,117,19180,2,0,B|144:116|144:116|296:132,1,210
148,192,19843,2,0,L|287:204,1,140,0|4,0:0|0:0,0:0:0:0:
320,32,20506,6,0,L|247:37,1,70
197,187,20837,2,0,L|271:179,1,70
160,40,21169,1,2,0:0:0:0:
56,260,21501,1,0,0:0:0:0:
320,264,21832,1,0,0:0:0:0:
176,40,22164,6,8,L|164:116,1,70
360,44,22661,6,8,L|349:113,1,70
262,44,23158,6,8,L|250:120,1,70
320,264,23490,1,0,0:0:0:0:
56,260,23822,1,0,0:0:0:0:
128,56,24153,6,0,B|125:91|125:91|129:128,1,70,6|0,0:0|0:0,0:0:0:0:
348,128,24485,2,0,B|350:92|350:92|346:55,1,70
238,92,24816,2,0,L|238:162,2,70,0|0|2,0:0|0:0|0:0,0:0:0:0:
236,228,25811,2,0,L|166:225,1,70
77,83,26143,6,0,P|163:30|249:81,1,210
164,264,26806,2,0,L|164:124,1,140,0|2,0:0|0:0,0:0:0:0:
236,228,27469,2,0,L|283:212,2,46.6666666666667
144,196,27800,2,0,L|168:280,1,70
317,170,28132,6,0,L|272:118,1,70,4|0,0:0|0:0,0:0:0:0:
112,244,28464,2,0,L|190:309,1,70
383,193,28795,2,0,L|308:166,1,70
88,128,29127,1,2,0:0:0:0:
139,352,29790,2,0,L|241:343,1,70
371,264,30121,6,0,L|192:275,1,140
118,262,30619,1,0,0:0:0:0:
341,197,30784,2,0,L|412:192,1,70
231,274,31116,1,2,0:0:0:0:
231,274,31448,2,0,L|232:208,2,46.6666666666667
144,284,31779,2,0,L|146:186,1,70
184,60,32111,5,0,0:0:0:0:
248,204,32277,1,0,0:0:0:0:
92,190,32443,1,0,0:0:0:0:
256,113,32608,1,0,0:0:0:0:
167,241,32774,1,0,0:0:0:0:
99,99,32940,1,0,0:0:0:0:
256,113,33105,6,0,L|247:201,1,70,2|0,0:0|0:0,0:0:0:0:
159,310,33437,2,0,L|166:240,1,70
99,120,33769,2,0,L|91:189,1,70
159,310,34100,5,0,0:0:0:0:
223,166,34266,1,0,0:0:0:0:
67,180,34432,1,0,0:0:0:0:
231,257,34597,1,0,0:0:0:0:
142,129,34763,1,0,0:0:0:0:
74,271,34929,1,0,0:0:0:0:
159,310,35095,6,0,L|169:233,1,70,2|0,0:0|0:0,0:0:0:0:
248,329,35426,2,0,L|263:261,1,70
334,355,35758,2,0,L|354:288,1,70
446,129,36090,5,0,0:0:0:0:
444,288,36256,1,0,0:0:0:0:
308,209,36422,1,0,0:0:0:0:
489,209,36587,1,0,0:0:0:0:
354,287,36753,1,0,0:0:0:0:
353,130,36919,1,0,0:0:0:0:
444,288,37084,6,0,L|371:298,1,70,2|0,0:0|0:0,0:0:0:0:
204,224,37416,2,0,L|277:234,1,70
452,176,37747,2,0,L|379:186,1,70
168,68,38079,5,2,0:0:0:0:
204,224,38245,1,0,0:0:0:0:
276,88,38410,2,0,L|345:94,1,70,0|2,0:0|0:0,0:0:0:0:
186,143,38742,1,0,0:0:0:0:
222,299,38908,1,0,0:0:0:0:
294,163,39073,2,0,L|363:169,1,70,2|0,0:0|0:0,0:0:0:0:
452,256,39405,2,0,L|383:250,1,70,0|2,0:0|0:0,0:0:0:0:
222,299,39737,1,0,0:0:0:0:
124,152,40068,5,0,0:0:0:0:
336,296,40400,1,0,0:0:0:0:
244,104,40731,1,0,0:0:0:0:
104,364,41063,1,0,0:0:0:0:
400,240,41395,1,0,0:0:0:0:
88,196,41726,1,0,0:0:0:0:
280,20,42058,5,6,0:0:0:0:
