osu file format v14

[General]
AudioFilename: audio.mp3
AudioLeadIn: 0
PreviewTime: 260
Countdown: 0
SampleSet: Soft
StackLeniency: 0.7
Mode: 2
LetterboxInBreaks: 0
WidescreenStoryboard: 1

[Editor]
DistanceSpacing: 1
BeatDivisor: 4
GridSize: 4
TimelineZoom: 2

[Metadata]
Title:Granat
TitleUnicode:Granat
Artist:Drop
ArtistUnicode:Drop
Creator:Nene Sakura
Version:Salad
Source:
Tags:instrumental 竜と炎の物語 清風明月 c85 seifuu meigetsu ryuu to honoo no monogatari Dragon and Flame Story other chill orchestral
BeatmapID:3509123
BeatmapSetID:1717176

[Difficulty]
HPDrainRate:4
CircleSize:3
OverallDifficulty:7
ApproachRate:7
SliderMultiplier:1.3
SliderTickRate:1

[Events]
//Background and Video events
0,0,"96498881.jpg",0,0
//Break Periods
//Storyboard Layer 0 (Background)
//Storyboard Layer 1 (Fail)
//Storyboard Layer 2 (Pass)
//Storyboard Layer 3 (Foreground)
//Storyboard Layer 4 (Overlay)
//Storyboard Sound Samples

[TimingPoints]
281,331.5649867374,3,2,1,40,1,0
24153,-100,3,2,1,30,0,0
32111,-100,3,2,1,50,0,1
40068,-100,3,2,0,20,0,0

[Colours]
Combo1 : 255,255,0
Combo2 : 91,255,120
Combo3 : 0,255,255

[HitObjects]
320,272,281,6,0,L|456:272,2,130,4|0|0,0:0|0:0|0:0,0:0:0:0:
192,272,1275,2,0,L|35:273,2,130,8|0|0,0:0|0:0|0:0,0:0:0:0:
452,192,2270,6,0,P|452:104|400:88,1,130,0|0,0:0|0:0,0:0:0:0:
360,84,2767,1,0,0:0:0:0:
296,84,2933,1,0,0:0:0:0:
148,264,3265,2,0,P|88:216|88:140,1,130,8|0,0:0|0:0,0:0:0:0:
212,168,3928,1,0,0:0:0:0:
472,296,4259,6,0,L|329:296,2,130
342,152,5254,2,0,L|202:152,2,130,8|0|0,0:0|0:0|0:0,0:0:0:0:
82,304,6249,6,0,L|214:304,1,130
342,304,6912,1,0,0:0:0:0:
198,252,7243,2,0,P|85:226|76:152,1,195,8|0,0:0|0:0,0:0:0:0:
99,108,7906,1,0,0:0:0:0:
359,264,8238,6,0,P|389:146|263:88,1,260,4|0,0:0|0:0,0:0:0:0:
155,88,9233,2,0,L|433:88,1,260
284,292,10227,6,0,L|128:292,2,130
414,292,11222,2,0,P|461:216|410:123,1,195,8|0,0:0|0:0,0:0:0:0:
353,101,11885,1,0,0:0:0:0:
93,260,12217,6,0,P|61:152|197:80,1,260
297,80,13212,2,0,L|29:80,1,260
168,308,14206,6,0,L|302:309,2,130
324,295,15201,2,0,L|469:294,2,130,8|0|0,0:0|0:0|0:0,0:0:0:0:
64,132,16196,6,0,P|147:252|252:280,1,260,4|0,0:0|0:0,0:0:0:0:
381,272,17190,2,0,L|91:271,1,260
368,176,18184,6,0,L|521:176,2,130,4|0|0,0:0|0:0|0:0,0:0:0:0:
236,300,19179,2,0,P|99:248|89:187,1,195,8|0,0:0|0:0,0:0:0:0:
92,137,19843,1,0,0:0:0:0:
352,272,20174,6,0,P|382:208|366:142,1,130,4|0,0:0|0:0,0:0:0:0:
307,145,20672,1,0,0:0:0:0:
242,144,20838,1,0,0:0:0:0:
112,212,21169,1,8,0:0:0:0:
244,96,21501,2,0,L|388:96,1,130,0|0,0:0|0:0,0:0:0:0:
112,316,22164,6,0,L|112:248,1,65,4|8,0:0|0:0,0:0:0:0:
308,260,22827,1,8,0:0:0:0:
440,140,23158,2,0,L|356:140,1,65,8|0,0:0|0:0,0:0:0:0:
308,140,23490,1,0,0:0:0:0:
152,140,23821,1,0,0:0:0:0:
412,232,24153,6,0,L|282:301,1,130,4|0,0:0|0:0,0:0:0:0:
238,232,24651,1,0,0:0:0:0:
180,232,24816,1,0,0:0:0:0:
312,116,25148,1,2,0:0:0:0:
54,112,25811,1,0,0:0:0:0:
5,195,25977,1,0,0:0:0:0:
56,289,26143,6,0,L|259:289,1,195
316,112,26806,1,0,0:0:0:0:
186,236,27137,2,0,L|50:236,2,130,2|0|0,0:0|0:0|0:0,0:0:0:0:
446,200,28132,6,0,L|315:118,1,130
278,105,28629,1,0,0:0:0:0:
220,104,28795,1,0,0:0:0:0:
88,104,29127,1,2,0:0:0:0:
348,320,29790,1,0,0:0:0:0:
413,224,29956,1,0,0:0:0:0:
348,124,30122,6,0,P|257:198|285:248,1,195
348,68,30785,1,0,0:0:0:0:
216,236,31116,2,0,L|80:236,1,130,2|0,0:0|0:0,0:0:0:0:
160,140,31779,1,0,0:0:0:0:
420,144,32111,6,0,P|464:224|432:292,1,130
393,332,32608,1,0,0:0:0:0:
328,336,32774,1,0,0:0:0:0:
68,220,33105,2,0,L|208:220,1,130,2|0,0:0|0:0,0:0:0:0:
263,221,33603,1,0,0:0:0:0:
328,220,33769,1,0,0:0:0:0:
68,276,34100,6,0,P|48:208|76:144,1,130
132,157,34597,1,0,0:0:0:0:
196,156,34763,1,0,0:0:0:0:
456,304,35095,2,0,L|304:304,1,130,2|0,0:0|0:0,0:0:0:0:
260,303,35592,1,0,0:0:0:0:
196,304,35758,1,0,0:0:0:0:
456,196,36090,6,0,P|476:128|448:56,1,130
395,74,36587,1,0,0:0:0:0:
328,76,36753,1,0,0:0:0:0:
64,280,37084,2,0,L|208:280,1,130,2|0,0:0|0:0,0:0:0:0:
260,281,37582,1,0,0:0:0:0:
324,280,37747,1,0,0:0:0:0:
64,220,38079,5,0,0:0:0:0:
138,221,38245,1,0,0:0:0:0:
212,224,38410,1,0,0:0:0:0:
64,220,38742,1,0,0:0:0:0:
324,292,39074,1,2,0:0:0:0:
388,292,39239,1,0,0:0:0:0:
324,292,39405,1,0,0:0:0:0:
192,292,39737,1,0,0:0:0:0:
452,192,40068,5,2,0:0:0:0:
320,192,40400,1,0,0:0:0:0:
452,192,40731,1,0,0:0:0:0:
205,192,41063,1,2,0:0:0:0:
49,192,41395,1,0,0:0:0:0:
205,192,41726,1,2,0:0:0:0:
465,184,42058,5,2,0:0:0:0:
256,192,42389,12,0,44047,0:0:0:0:
