osu file format v14

[General]
AudioFilename: audio.mp3
AudioLeadIn: 0
PreviewTime: 260
Countdown: 0
SampleSet: Soft
StackLeniency: 0.7
Mode: 2
LetterboxInBreaks: 0
WidescreenStoryboard: 0

[Editor]
DistanceSpacing: 1
BeatDivisor: 4
GridSize: 4
TimelineZoom: 2.999999

[Metadata]
Title:Granat
TitleUnicode:Granat
Artist:Drop
ArtistUnicode:Drop
Creator:Nene Sakura
Version:Cup
Source:
Tags:instrumental 竜と炎の物語 清風明月 c85 seifuu meigetsu ryuu to honoo no monogatari Dragon and Flame Story other chill orchestral
BeatmapID:3509120
BeatmapSetID:1717176

[Difficulty]
HPDrainRate:3
CircleSize:2.5
OverallDifficulty:6
ApproachRate:6
SliderMultiplier:1.2
SliderTickRate:0.5

[Events]
//Background and Video events
0,0,"96498881.jpg",0,0
//Break Periods
//Storyboard Layer 0 (Background)
//Storyboard Layer 1 (Fail)
//Storyboard Layer 2 (Pass)
//Storyboard Layer 3 (Foreground)
//Storyboard Layer 4 (Overlay)
//Storyboard Sound Samples

[TimingPoints]
281,331.5649867374,3,2,1,40,1,0
24153,-100,3,2,1,30,0,0
32111,-100,3,2,1,50,0,1
40068,-100,3,2,0,20,0,0

[Colours]
Combo1 : 255,255,0
Combo2 : 91,255,120
Combo3 : 0,255,255

[HitObjects]
255,332,281,6,0,P|371:276|371:176,1,240,4|0,0:0|0:0,0:0:0:0:
252,256,1275,2,0,P|136:200|136:100,1,240,8|0,0:0|0:0,0:0:0:0:
256,48,2270,6,0,P|336:132|256:192,1,240,0|0,0:0|0:0,0:0:0:0:
140,256,3265,2,0,L|20:256,2,120,8|0|0,0:0|0:0|0:0,0:0:0:0:
296,256,4259,6,0,P|352:172|268:86,1,240
147,208,5254,2,0,P|172:356|255:348,1,240,8|0,0:0|0:0,0:0:0:0:
376,212,6249,6,0,L|376:76,1,120
256,84,6912,1,0,0:0:0:0:
376,176,7243,2,0,P|444:248|356:352,1,240,8|0,0:0|0:0,0:0:0:0:
220,172,8238,6,0,P|248:324|440:312,1,360,4|8,0:0|0:0,0:0:0:0:
184,276,9896,1,0,0:0:0:0:
304,241,10227,6,0,P|381:178|315:73,1,240
200,60,11222,2,0,P|120:88|120:236,1,240,8|0,0:0|0:0,0:0:0:0:
268,176,12217,6,0,P|408:222|295:323,1,360,0|8,0:0|0:0,0:0:0:0:
80,284,13875,1,0,0:0:0:0:
224,288,14206,6,0,P|352:288|352:192,1,240
238,196,15201,2,0,P|98:172|114:88,1,240,8|0,0:0|0:0,0:0:0:0:
258,100,16196,6,0,P|423:123|424:298,1,360,4|8,0:0|0:0,0:0:0:0:
193,277,17853,1,0,0:0:0:0:
349,214,18185,6,0,P|424:126|351:53,1,240,4|0,0:0|0:0,0:0:0:0:
232,313,19180,2,0,P|128:256|145:148,1,240,8|0,0:0|0:0,0:0:0:0:
299,329,20174,6,0,P|442:232|362:89,1,360,4|8,0:0|0:0,0:0:0:0:
155,313,21832,1,0,0:0:0:0:
311,264,22164,6,0,B|371:160|371:160|263:92,1,240,4|8,0:0|0:0,0:0:0:0:
150,276,23158,2,0,L|22:276,2,120,8|0|0,0:0|0:0|0:0,0:0:0:0:
306,268,24153,5,4,0:0:0:0:
89,272,24816,2,0,L|89:140,1,120,0|2,0:0|0:0,0:0:0:0:
306,132,25811,1,0,0:0:0:0:
426,132,26143,6,0,P|426:248|314:324,1,240
216,320,27137,2,0,L|80:320,2,120,2|0|0,0:0|0:0|0:0,0:0:0:0:
353,192,28132,5,0,0:0:0:0:
136,272,28795,2,0,L|265:272,1,120,0|2,0:0|0:0,0:0:0:0:
448,172,29790,1,0,0:0:0:0:
328,172,30121,6,0,P|192:116|192:36,1,240
312,312,31116,2,0,L|448:312,2,120,2|0|0,0:0|0:0|0:0,0:0:0:0:
156,288,32111,6,0,P|76:184|140:100,1,240
248,240,33105,2,0,P|360:228|436:120,1,240,2|0,0:0|0:0,0:0:0:0:
276,108,34100,6,0,P|164:188|164:292,1,240
284,320,35095,2,0,P|400:292|400:172,1,240,2|0,0:0|0:0,0:0:0:0:
252,200,36090,6,0,P|122:216|56:128,1,240
180,92,37084,2,0,P|304:92|384:180,1,240,2|0,0:0|0:0,0:0:0:0:
224,192,38079,6,0,L|88:192,2,120,0|0|0,0:0|0:0|0:0,0:0:0:0:
356,236,39074,2,0,L|448:328,2,120,2|0|0,0:0|0:0|0:0,0:0:0:0:
200,264,40068,5,2,0:0:0:0:
80,204,40400,1,0,0:0:0:0:
75,120,40731,1,0,0:0:0:0:
231,190,41063,1,2,0:0:0:0:
310,191,41395,1,0,0:0:0:0:
155,192,41726,1,2,0:0:0:0:
310,191,42058,5,2,0:0:0:0:
256,192,42389,12,0,44047,0:0:0:0:
