osu file format v14

[General]
AudioFilename: audio.mp3
AudioLeadIn: 0
PreviewTime: -1
Countdown: 1
SampleSet: Soft
StackLeniency: 0.7
Mode: 0
LetterboxInBreaks: 0
WidescreenStoryboard: 0

[Editor]
DistanceSpacing: 1
BeatDivisor: 4
GridSize: 32
TimelineZoom: 3.199999

[Metadata]
Title:Granat
TitleUnicode:Granat
Artist:Drop
ArtistUnicode:Drop
Creator:Louise5
Version:efsrfwsrwer
Source:
Tags:
BeatmapID:1738885
BeatmapSetID:829895

[Difficulty]
HPDrainRate:5
CircleSize:4.3
OverallDifficulty:5
ApproachRate:8.5
SliderMultiplier:2
SliderTickRate:1

[Events]
//Background and Video events
//Break Periods
//Storyboard Layer 0 (Background)
//Storyboard Layer 1 (Fail)
//Storyboard Layer 2 (Pass)
//Storyboard Layer 3 (Foreground)
//Storyboard Sound Samples

[TimingPoints]
281,331.5649867374,3,2,1,60,1,0
2270,-133.333333333333,3,2,1,60,0,0
4259,-100,3,2,1,60,0,0
6249,-133.333333333333,3,2,1,60,0,0
6497,-133.333333333333,3,2,1,5,0,0
6580,-133.333333333333,3,2,1,60,0,0
8238,-100,3,2,1,60,0,0
16196,-133.333333333333,3,2,1,60,0,0
18185,-100,3,2,1,60,0,0
19180,-133.333333333333,3,2,1,60,0,0
20174,-100,3,2,1,60,0,0
22330,-125,3,2,1,60,0,0
22578,-125,3,2,1,5,0,0
22661,-125,3,2,1,60,0,0
22827,-166.666666666667,3,2,1,60,0,0
23076,-166.666666666667,3,2,1,5,0,0
23158,-166.666666666667,3,2,1,60,0,0
24153,-166.666666666667,3,2,1,45,0,0
25645,-147.058823529412,3,2,1,45,0,0
42141,-147.058823529412,3,2,1,5,0,0

[HitObjects]
290,302,281,6,0,L|289:192,1,100,4|0,1:0|0:0,0:0:0:0:
238,65,612,1,8,0:0:0:0:
291,196,778,1,2,0:0:0:0:
148,117,944,1,8,0:0:0:0:
293,48,1109,1,2,0:0:0:0:
371,221,1275,6,0,L|271:197,1,100,4|0,3:0|0:0,0:0:0:0:
165,70,1607,1,2,0:0:0:0:
278,207,1773,1,8,0:0:0:0:
251,71,1938,1,2,0:0:0:0:
141,258,2104,1,8,0:0:0:0:
378,222,2270,6,2,P|347:168|324:148,1,75.0000028610231
250,162,2601,6,2,P|281:216|304:236,1,75.0000028610231
325,155,2933,6,2,P|294:101|271:81,1,75.0000028610231
204,92,3265,6,2,P|235:146|258:166,1,75.0000028610231
268,175,3596,1,2,0:0:0:0:
269,212,3678,1,8,0:0:0:0:
270,249,3761,1,8,0:0:0:0:
271,287,3844,1,8,0:0:0:0:
267,323,3928,6,2,P|212:325|190:308,2,75.0000028610231
396,201,4425,1,2,0:0:0:0:
255,89,4591,5,8,0:0:0:0:
172,249,4757,1,2,0:0:0:0:
301,211,4922,5,8,0:0:0:0:
90,169,5088,1,2,0:0:0:0:
206,58,5254,2,0,P|252:99|277:147,1,100,4|0,1:0|0:0,0:0:0:0:
290,275,5586,5,0,0:0:0:0:
143,311,5751,1,0,0:0:0:0:
228,135,5917,1,0,0:0:0:0:
269,274,6083,1,0,0:0:0:0:
102,266,6249,6,0,P|51:217|43:194,2,75.0000028610231
135,182,6746,6,0,P|186:231|194:254,2,75.0000028610231
99,267,7243,6,0,P|151:312|187:309,1,75.0000028610231
270,245,7575,1,0,0:0:0:0:
156,82,7741,1,0,0:0:0:0:
157,248,7906,5,0,0:0:0:0:
283,83,8072,1,0,0:0:0:0:
399,204,8238,6,0,B|338:271|338:271|216:277,1,200
73,117,8735,1,0,0:0:0:0:
248,143,8901,1,0,0:0:0:0:
72,241,9067,1,0,0:0:0:0:
253,216,9233,6,0,P|291:155|301:118,1,100
158,45,9564,5,0,0:0:0:0:
64,226,9730,1,0,0:0:0:0:
24,74,9896,1,0,0:0:0:0:
168,248,10062,1,0,0:0:0:0:
237,97,10227,6,0,P|311:87|354:112,1,100
403,215,10559,1,0,0:0:0:0:
231,299,10725,1,0,0:0:0:0:
322,148,10891,1,0,0:0:0:0:
162,229,11056,5,0,0:0:0:0:
264,84,11222,1,0,0:0:0:0:
