osu file format v14

[General]
AudioFilename: audio.mp3
AudioLeadIn: 0
PreviewTime: 24153
Countdown: 0
SampleSet: Soft
StackLeniency: 0.8
Mode: 0
LetterboxInBreaks: 0
WidescreenStoryboard: 1

[Editor]
Bookmarks: 8238,24153,32111
DistanceSpacing: 0.8
BeatDivisor: 2
GridSize: 16
TimelineZoom: 1

[Metadata]
Title:Granat
TitleUnicode:Granat
Artist:Drop
ArtistUnicode:Drop
Creator:Lollipop314
Version:Easy
Source:
Tags:ryuu to honou no monogatari dragon and flame
BeatmapID:1487664
BeatmapSetID:703115

[Difficulty]
HPDrainRate:2
CircleSize:3
OverallDifficulty:2
ApproachRate:4
SliderMultiplier:1
SliderTickRate:2

[Events]
//Background and Video events
0,0,"bgg.jpg",0,0
//Break Periods
//Storyboard Layer 0 (Background)
//Storyboard Layer 1 (Fail)
//Storyboard Layer 2 (Pass)
//Storyboard Layer 3 (Foreground)
//Storyboard Sound Samples

[TimingPoints]
281,331.5649867374,3,2,0,60,1,0
2270,-100,3,2,0,90,0,0
4259,-100,3,2,0,60,0,0
6249,-100,3,2,0,90,0,0
8238,-100,3,2,0,70,0,0
14206,-100,3,2,0,50,0,0
16196,-100,3,2,0,70,0,0
20174,-100,3,2,0,80,0,0
22164,-100,3,2,0,90,0,0
24153,-100,3,2,0,60,0,0
28132,-100,3,2,0,70,0,0
38079,-100,3,2,0,90,0,0
40068,-100,3,2,0,50,0,0

[Colours]
Combo1 : 0,128,64
Combo2 : 0,255,168
Combo3 : 128,255,128
Combo4 : 0,255,128
Combo5 : 128,255,0
Combo6 : 0,128,128

[HitObjects]
128,272,281,6,0,P|224:304|336:288,1,200
320,240,1275,2,0,P|224:208|112:224,1,200
96,288,2270,6,0,P|176:320|224:304,1,100
272,320,2933,1,0,0:0:0:0:
352,320,3265,2,0,P|400:272|400:224,1,100
400,160,3928,1,0,0:0:0:0:
400,80,4259,6,0,P|272:48|192:64,1,200
206,138,5254,2,0,P|334:170|414:154,1,200
400,240,6249,6,0,P|400:304|352:336,1,100
304,320,6912,1,0,0:0:0:0:
224,320,7243,2,0,P|144:336|96:304,1,100
64,272,7906,1,0,0:0:0:0:
64,192,8238,6,0,P|192:128|272:128,1,200
240,48,9233,2,0,P|320:128|272:192,1,200
240,128,10227,2,0,P|176:192|176:240,1,100
160,272,10891,1,0,0:0:0:0:
240,288,11222,2,0,P|304:304|352:256,1,100
368,224,11885,1,0,0:0:0:0:
368,144,12217,6,0,P|256:96|160:128,1,200
144,176,13212,2,0,P|241:190|328:145,1,200
400,96,14206,6,0,P|432:144|416:208,1,100
416,256,14869,1,0,0:0:0:0:
336,224,15201,6,0,P|298:267|232:270,1,100
176,272,15864,1,0,0:0:0:0:
112,224,16196,6,0,P|224:176|320:192,1,200
352,256,17190,2,0,P|240:304|144:288,1,200
112,224,18185,6,0,P|224:176|320:192,1,200
352,256,19179,2,0,P|240:304|144:288,1,200
96,256,20174,6,0,P|96:160|112:112,1,100
128,80,20838,1,0,0:0:0:0:
208,80,21169,2,0,P|288:48|336:64,1,100
384,64,21832,1,0,0:0:0:0:
464,64,22164,6,0,L|448:208,1,100
448,240,22827,1,0,0:0:0:0:
384,288,23158,5,0,0:0:0:0:
304,272,23490,1,0,0:0:0:0:
240,240,23822,1,0,0:0:0:0:
176,192,24153,6,0,P|192:112|208:80,2,100
176,272,25148,2,0,P|224:304|288:320,1,100
352,320,25811,1,0,0:0:0:0:
352,240,26143,6,0,P|352:160|336:128,1,100
288,80,26806,1,0,0:0:0:0:
304,160,27137,6,0,P|224:128|192:128,1,100
128,128,27800,1,0,0:0:0:0:
128,208,28132,6,0,P|144:288|160:320,2,100
128,128,29127,2,0,P|192:64|240:48,1,100
272,48,29790,1,0,0:0:0:0:
352,48,30121,6,0,L|336:176,1,100
336,224,30784,1,0,0:0:0:0:
416,224,31116,6,0,P|368:288|336:304,1,100
272,272,31779,1,0,0:0:0:0:
240,192,32111,6,0,P|288:128|320:112,2,100
160,192,33105,2,0,P|96:144|80:112,2,100
160,272,34100,2,0,P|112:336|80:352,2,100
240,272,35094,2,0,P|304:320|320:352,2,100
208,192,36090,6,0,P|192:96|192:48,1,100
256,48,36753,1,0,0:0:0:0:
336,48,37084,6,0,P|432:64|464:96,1,100
480,128,37747,1,0,0:0:0:0:
432,192,38079,5,0,0:0:0:0:
368,240,38410,1,0,0:0:0:0:
288,272,38742,1,0,0:0:0:0:
208,272,39074,2,0,P|128:272|96:240,1,100
96,192,39737,1,0,0:0:0:0:
160,192,40068,6,0,L|272:208,2,100
176,112,41063,2,0,L|288:128,2,100
192,32,42058,1,0,0:0:0:0:
