osu file format v14

[General]
AudioFilename: audio.mp3
AudioLeadIn: 0
PreviewTime: 115
Countdown: 0
SampleSet: Soft
StackLeniency: 0.5
Mode: 0
LetterboxInBreaks: 0
WidescreenStoryboard: 1

[Editor]
Bookmarks: 1938,38079
DistanceSpacing: 0.9
BeatDivisor: 1
GridSize: 4
TimelineZoom: 1.4

[Metadata]
Title:Granat
TitleUnicode:Granat
Artist:Drop
ArtistUnicode:Drop
Creator:Krfawy
Version:Normal
Source:
Tags:ryuu to honoo no monogatari dragon and flame 竜と炎の物語 清風明月 MrDorian tm1209 T-Mac Speechless EncoreW -Bakari- Bakari riffy Raikozen Styxwater raxey nhlx Bathory Witch XVoIR Lazer LazerGoesPew VenixPL Venix Polska Poland Polish Aistre Alphabet MeleeTonikZ [_Alphabet_] Venax Piggey Mortem pjecoo eiri- Ayyri AyannKazugaea Sukida Ahri Hlimak grenade
BeatmapID:1677763
BeatmapSetID:795609

[Difficulty]
HPDrainRate:3
CircleSize:4
OverallDifficulty:4
ApproachRate:4
SliderMultiplier:1.05
SliderTickRate:1

[Events]
//Background and Video events
0,0,"Ss05-15.png",0,0
//Break Periods
//Storyboard Layer 0 (Background)
//Storyboard Layer 1 (Fail)
//Storyboard Layer 2 (Pass)
//Storyboard Layer 3 (Foreground)
//Storyboard Layer 4 (Overlay)
//Storyboard Sound Samples

[TimingPoints]
281,331.5649867374,3,2,1,50,1,0
42058,-100,3,2,1,45,0,0
42389,-100,3,2,1,40,0,0
42721,-100,3,2,1,30,0,0
43052,-100,3,2,1,20,0,0
43384,-100,3,2,1,15,0,0
43716,-100,3,2,1,10,0,0
44047,-100,3,2,2,5,0,0

[Colours]
Combo1 : 174,85,187
Combo2 : 159,192,148
Combo3 : 46,149,199
Combo4 : 35,158,118
SliderBorder : 128,160,192
SliderTrackOverride : 64,80,96

[HitObjects]
7,72,281,6,0,B|39:68|39:68|79:76|79:76|111:72,1,105,4|2,0:0|0:0,0:0:0:0:
203,51,944,1,2,0:0:0:0:
283,101,1275,2,0,B|337:122|383:108|383:108|484:144,1,210,8|2,0:1|0:0,0:0:0:0:
484,239,2270,2,0,B|383:275|383:275|337:261|283:283,1,210,2|2,0:0|0:0,0:0:0:0:
201,331,3265,2,0,B|185:364|185:364|197:368|289:380|285:300|289:220|197:232|185:236|185:236|169:269,1,315,8|4,0:1|0:0,0:0:0:0:
87,316,4591,5,2,0:0:0:0:
87,221,4922,1,2,0:0:0:0:
87,126,5254,2,0,B|159:113|159:113|220:126|220:126|293:113,1,210,8|2,0:1|0:0,0:0:0:0:
287,208,6249,2,0,B|250:201|250:201|220:208|220:208|184:201,1,105,2|2,0:0|0:0,0:0:0:0:
87,221,6912,1,2,0:0:0:0:
87,316,7243,2,0,B|191:337|191:337|235:317|292:330,1,210,8|0,0:1|0:0,0:0:0:0:
385,350,8238,5,4,0:0:0:0:
404,257,8570,1,2,0:0:0:0:
423,164,8901,1,0,0:0:0:0:
404,71,9233,2,0,B|332:58|332:58|271:71|271:71|198:58,1,210,8|2,0:1|0:0,0:0:0:0:
105,34,10228,1,2,0:0:0:0:
130,126,10560,1,2,0:0:0:0:
223,150,10891,1,0,0:0:0:0:
316,174,11222,2,0,B|336:194|364:195|386:196|386:196|364:195|331:218|331:218|313:244|275:262,1,210,8|2,0:1|0:0,0:0:0:0:
188,303,12217,5,2,0:0:0:0:
94,312,12548,1,0,0:0:0:0:
112,219,12880,1,2,0:0:0:0:
130,126,13212,2,0,B|185:126|167:174|167:174|127:174|127:174|75:174|41:148,1,210,8|2,0:1|0:0,0:0:0:0:
17,55,14206,2,0,B|40:78|100:78|121:45|105:45|126:12|186:12|209:35,1,210,2|2,0:0|0:0,0:0:0:0:
303,35,15201,2,0,B|326:12|386:12|407:45|391:45|412:78|472:78|495:55,1,210,8|2,0:1|0:0,0:0:0:0:
509,149,16196,6,0,P|415:184|429:303,1,210,4|0,0:1|0:0,0:0:0:0:
445,369,17190,1,8,0:1:0:0:
487,236,17853,1,2,0:0:0:0:
412,282,18185,2,0,B|391:300|356:303|323:296|307:288|315:292|315:292|323:296|307:288|273:280|239:284|218:302,1,210,4|2,0:1|0:0,0:0:0:0:
137,352,19180,1,8,0:1:0:0:
70,176,19843,1,2,0:0:0:0:
36,88,20174,6,0,B|36:68|30:51|15:39|15:39|30:51|53:99|124:100|124:100|142:85,1,210,4|2,0:1|0:0,0:0:0:0:
209,17,21169,1,8,0:1:0:0:
303,17,21501,1,2,0:0:0:0:
369,84,21832,1,0,0:0:0:0:
401,172,22164,2,0,B|368:188|314:162|314:162|272:141|208:172|154:199|154:299|256:361|358:299|358:199|304:172|240:141|198:162|198:162|144:188|111:172,1,630,4|4,0:1|1:2,0:0:0:0:
23,137,24485,5,0,0:0:0:0:
35,231,24816,1,2,0:0:0:0:
47,324,25148,2,0,P|142:297|208:372,1,210,2|0,0:0|0:0,0:0:0:0:
303,372,26143,2,0,P|369:297|464:324,1,210,2|2,0:0|0:0,0:0:0:0:
477,231,27137,1,2,0:0:0:0:
489,137,27468,1,2,0:0:0:0:
413,79,27800,1,0,0:0:0:0:
325,114,28132,6,0,L|311:218,1,105,2|0,0:0|0:0,0:0:0:0:
401,172,28795,1,2,0:0:0:0:
413,79,29127,1,2,0:0:0:0:
413,79,29790,1,0,0:0:0:0:
339,21,30121,2,0,B|309:61|324:109|324:109|207:113,1,210,2|0,0:0|0:0,0:0:0:0:
113,118,31116,1,2,0:0:0:0:
37,176,31448,2,0,P|22:225|35:275,1,105,2|0,0:0|0:0,0:0:0:0:
111,327,32111,6,0,P|126:277|113:227,2,105,2|2|0,0:0|0:0|0:0,0:0:0:0:
28,366,33106,1,2,0:0:0:0:
35,275,33437,1,2,0:0:0:0:
113,227,33769,1,0,0:0:0:0:
197,267,34100,2,0,P|246:282|296:269,2,105,2|2|0,0:0|0:0|0:0,0:0:0:0:
113,227,35095,1,2,0:0:0:0:
37,176,35426,1,2,0:0:0:0:
44,84,35758,1,0,0:0:0:0:
126,44,36090,6,0,B|163:37|163:37|193:44|193:44|229:37,2,105,2|2|0,0:0|0:0|0:0,0:0:0:0:
120,136,37084,2,0,B|192:123|192:123|253:136|253:136|241:172|261:207,1,210,2|0,0:0|0:0,0:0:0:0:
307,290,38079,1,2,0:0:0:0:
397,315,38410,1,2,0:0:0:0:
479,269,38742,1,2,0:0:0:0:
504,178,39074,2,0,B|497:141|497:141|504:111|504:111|497:75,1,105,2|2,0:0|0:0,0:0:0:0:
439,0,39737,1,0,0:0:0:0:
363,57,40068,6,0,B|363:63|363:63|363:119|406:147,2,105,2|0|0,0:0|0:0|0:0,0:0:0:0:
439,0,41063,2,0,B|399:52|341:37|345:38|350:39|293:24|252:77,1,210,2|2,0:0|0:0,0:0:0:0:
256,192,42058,12,0,45042,0:0:0:0:
