osu file format v14

[General]
AudioFilename: audio.mp3
AudioLeadIn: 0
PreviewTime: 115
Countdown: 0
SampleSet: Soft
StackLeniency: 0
Mode: 0
LetterboxInBreaks: 0
WidescreenStoryboard: 1

[Editor]
Bookmarks: 38079
DistanceSpacing: 1.3
BeatDivisor: 4
GridSize: 4
TimelineZoom: 3.599998

[Metadata]
Title:Granat
TitleUnicode:Granat
Artist:Drop
ArtistUnicode:Drop
Creator:Krfawy
Version:Extreme Bleeding
Source:
Tags:ryuu to honoo no monogatari dragon and flame 竜と炎の物語 清風明月 MrDorian tm1209 T-Mac Speechless EncoreW -Bakari- Bakari riffy Raikozen Styxwater raxey nhlx Bathory Witch XVoIR Lazer LazerGoesPew VenixPL Venix Polska Poland Polish Aistre Alphabet MeleeTonikZ [_Alphabet_] Venax Piggey Mortem pjecoo eiri- Ayyri AyannKazugaea Sukida Ahri Hlimak grenade
BeatmapID:1670871
BeatmapSetID:795609

[Difficulty]
HPDrainRate:8.5
CircleSize:6.5
OverallDifficulty:9.5
ApproachRate:9.5
SliderMultiplier:2.26
SliderTickRate:2

[Events]
//Background and Video events
0,0,"Ss05-15.png",0,0
//Break Periods
//Storyboard Layer 0 (Background)
//Storyboard Layer 1 (Fail)
//Storyboard Layer 2 (Pass)
//Storyboard Layer 3 (Foreground)
//Storyboard Layer 4 (Overlay)
//Storyboard Sound Samples

[TimingPoints]
281,331.5649867374,3,2,1,50,1,0
40068,-125,3,2,1,50,0,0
41063,-166.666666666667,3,2,1,50,0,0
42058,-100,3,2,1,30,0,0
42078,-100,3,2,1,45,0,0
42389,-100,3,2,1,40,0,0
42721,-100,3,2,1,30,0,0
43052,-100,3,2,1,20,0,0
43384,-100,3,2,1,15,0,0
43716,-100,3,2,1,10,0,0
44047,-100,3,2,2,5,0,0

[Colours]
Combo1 : 174,85,187
Combo2 : 159,192,148
Combo3 : 46,149,199
Combo4 : 35,158,118
SliderBorder : 128,160,192
SliderTrackOverride : 64,80,96

[HitObjects]
291,160,281,5,4,0:0:0:0:
433,129,446,1,2,0:0:0:0:
319,222,612,1,2,0:0:0:0:
464,216,777,1,2,0:1:0:0:
335,287,944,1,2,0:0:0:0:
479,307,1109,1,0,0:0:0:0:
33,307,1275,5,8,0:1:0:0:
177,287,1440,1,2,0:0:0:0:
48,216,1607,1,2,0:1:0:0:
193,222,1772,1,2,0:0:0:0:
79,129,1938,1,2,0:0:0:0:
221,160,2103,1,2,0:0:0:0:
464,216,2270,5,2,0:1:0:0:
464,216,2436,1,0,0:0:0:0:
298,71,2601,1,2,0:1:0:0:
256,212,2767,1,2,0:0:0:0:
214,71,2933,1,2,0:0:0:0:
298,353,3099,1,2,0:0:0:0:
48,216,3265,1,8,0:1:0:0:
298,353,3596,2,0,P|334:361|372:360,2,75.3333333333333,2|0|2,0:0|0:0|0:0,0:0:0:0:
159,251,3928,2,0,B|161:278|161:278|130:359,1,113,2|0,0:1|0:0,0:0:0:0:
352,132,4259,6,0,B|351:106|351:106|381:24,1,113,4|0,0:0|0:0,0:0:0:0:
380,24,4591,1,2,0:0:0:0:
235,48,4757,1,2,0:1:0:0:
90,71,4922,1,2,0:0:0:0:
256,216,5088,1,2,0:0:0:0:
90,71,5254,1,8,0:1:0:0:
90,71,5420,1,0,0:0:0:0:
422,313,5586,1,2,0:0:0:0:
277,336,5751,1,2,0:0:0:0:
131,360,5917,1,2,0:1:0:0:
131,360,6083,1,0,0:0:0:0:
352,132,6249,6,0,B|379:108|379:108|405:102|405:102|457:58,1,113,2|0,0:0|0:0,0:0:0:0:
67,70,6580,2,0,B|106:102|106:102|132:108|132:108|160:132,1,113,2|2,0:0|0:0,0:0:0:0:
352,252,6912,2,0,B|379:275|379:275|405:281|405:281|457:325,1,113,2|0,0:0|0:0,0:0:0:0:
67,313,7243,2,0,B|106:281|106:281|132:275|132:275|160:252,1,113,8|0,0:1|0:0,0:0:0:0:
256,140,7575,1,2,0:0:0:0:
256,323,7741,1,2,0:0:0:0:
256,331,7824,1,0,0:0:0:0:
256,339,7907,1,2,0:1:0:0:
403,192,8072,1,2,0:1:0:0:
256,45,8238,5,4,0:0:0:0:
175,167,8404,1,0,0:0:0:0:
94,290,8570,1,2,0:0:0:0:
111,294,8653,1,0,0:0:0:0:
128,298,8735,1,2,0:0:0:0:
145,305,8818,1,0,0:0:0:0:
161,314,8901,1,2,0:1:0:0:
175,324,8984,1,0,0:0:0:0:
189,336,9067,1,2,0:0:0:0:
202,351,9150,1,0,0:0:0:0:
211,365,9233,2,0,B|234:388|299:388|323:354|304:354|328:319|393:319|417:343,2,226,10|4|2,0:1|0:1|0:0,0:0:0:0:
94,290,10062,1,4,0:0:0:0:
417,343,10227,5,2,0:0:0:0:
417,343,10393,1,0,0:0:0:0:
418,94,10559,1,2,0:0:0:0:
401,90,10642,1,0,0:0:0:0:
384,86,10724,1,2,0:0:0:0:
367,79,10807,1,0,0:0:0:0:
351,70,10890,1,2,0:1:0:0:
337,60,10973,1,0,0:0:0:0:
323,48,11056,1,2,0:0:0:0:
310,33,11139,1,0,0:0:0:0:
301,19,11222,2,0,B|277:-4|212:-4|188:30|207:30|183:64|118:64|95:41,1,226,10|4,0:1|0:1,0:0:0:0:
94,40,11719,1,4,0:0:0:0:
418,94,11885,1,2,0:0:0:0:
94,147,12051,1,0,0:0:0:0:
418,200,12217,5,2,0:0:0:0:
418,200,12383,1,0,0:0:0:0:
248,354,12548,1,2,0:1:0:0:
94,184,12714,1,2,0:0:0:0:
264,30,12880,2,0,P|319:24|370:47,1,113,2|2,0:0|0:1,0:0:0:0:
463,323,13212,2,0,B|430:312|402:326|402:326|371:314|334:318|334:318|326:294|334:318|334:318|298:321|267:310,1,226,8|2,0:1|0:0,0:0:0:0:
59,314,13709,1,0,0:0:0:0:
6,125,13875,1,2,0:0:0:0:
157,0,14040,1,4,0:0:0:0:
457,106,14206,5,2,0:0:0:0:
362,208,14372,1,0,0:0:0:0:
267,310,14538,1,2,0:0:0:0:
267,310,14704,1,2,0:0:0:0:
226,176,14869,1,2,0:0:0:0:
362,208,15035,1,4,0:0:0:0:
55,278,15201,1,10,0:1:0:0:
150,176,15367,1,0,0:0:0:0:
245,74,15532,1,2,0:0:0:0:
286,208,15698,1,2,0:0:0:0:
150,176,15864,1,2,0:0:0:0:
410,75,16030,1,4,0:0:0:0:
382,384,16196,5,6,0:1:0:0:
382,384,16361,1,0,0:0:0:0:
130,384,16527,1,2,0:0:0:0:
148,382,16610,1,0,0:0:0:0:
166,378,16693,1,2,0:0:0:0:
182,371,16776,1,0,0:0:0:0:
198,362,16859,1,0,0:0:0:0:
213,351,16942,1,0,0:0:0:0:
227,339,17025,1,2,0:0:0:0:
237,325,17107,1,0,0:0:0:0:
246,308,17190,2,0,B|265:245|210:210|210:210|212:154|212:154|174:112,1,226,10|4,0:1|0:1,0:0:0:0:
66,10,17688,1,4,0:0:0:0:
117,188,17853,1,2,0:1:0:0:
168,366,18019,1,2,0:0:0:0:
395,188,18185,5,6,0:1:0:0:
256,138,18351,1,0,0:0:0:0:
117,188,18517,1,2,0:0:0:0:
109,204,18600,1,0,0:0:0:0:
104,222,18683,1,0,0:0:0:0:
102,239,18766,1,0,0:0:0:0:
102,257,18849,1,2,0:0:0:0:
104,276,18932,1,0,0:0:0:0:
107,294,19015,1,2,0:0:0:0:
114,310,19097,1,0,0:0:0:0:
124,326,19180,2,0,B|157:372|237:345|221:261|164:257|164:257|153:236|153:236|130:237|130:237|118:216|118:216|34:209,1,339,10|4,0:1|0:0,0:0:0:0:
43,100,19843,2,0,P|28:154|35:210,1,113,2|0,0:1|0:0,0:0:0:0:
256,374,20174,5,6,0:1:0:0:
301,233,20340,1,0,0:0:0:0:
35,210,20506,1,2,0:0:0:0:
51,226,20589,1,0,0:0:0:0:
73,236,20672,1,2,0:0:0:0:
95,244,20755,1,0,0:0:0:0:
118,246,20838,1,2,0:0:0:0:
159,220,20920,1,0,0:0:0:0:
208,212,21003,1,4,0:0:0:0:
247,242,21086,1,0,0:0:0:0:
251,291,21169,2,0,P|306:300|362:290,1,113,10|0,0:1|0:0,0:0:0:0:
504,143,21501,2,0,P|469:187|449:239,1,113,2|4,0:0|0:0,0:0:0:0:
478,383,21832,1,0,0:0:0:0:
362,290,21998,1,2,0:0:0:0:
174,27,22163,5,6,0:1:0:0:
288,121,22329,1,8,0:1:0:0:
288,121,22495,1,2,0:0:0:0:
108,222,22661,1,2,0:0:0:0:
103,227,22744,1,0,0:0:0:0:
98,232,22827,2,0,P|43:218|5:177,1,113,10|2,0:1|0:0,0:0:0:0:
414,152,23158,2,0,P|468:165|506:206,1,113,10|8,0:1|0:1,0:0:0:0:
89,138,23490,2,0,P|102:83|143:45,1,113,2|0,0:0|0:0,0:0:0:0:
423,246,23822,2,0,P|409:300|368:338,1,113,2|0,0:0|0:0,0:0:0:0:
350,85,24153,6,0,B|328:123|267:143|267:143|259:147,1,113,4|0,1:2|0:0,0:0:0:0:
191,176,24485,1,0,0:0:0:0:
119,192,24651,1,2,0:0:0:0:
77,252,24816,1,2,0:0:0:0:
74,325,24982,1,0,0:0:0:0:
118,382,25148,2,0,B|159:401|219:379|219:379|339:335,1,226,2|0,0:0|0:0,0:0:0:0:
334,337,25811,1,0,0:0:0:0:
367,250,25977,1,2,0:0:0:0:
274,264,26143,6,0,B|254:299|234:299|214:299|174:299|158:291|166:295|174:299|182:303|190:307|174:299|134:299|114:299|94:299|74:334,1,226,2|0,0:0|0:0,0:0:0:0:
74,334,26640,1,0,0:0:0:0:
74,334,26806,1,2,0:0:0:0:
274,264,27137,1,2,0:0:0:0:
274,264,27469,2,0,P|283:227|283:189,2,75.3333333333333,2|0|2,0:0|0:0|0:0,0:0:0:0:
283,190,27800,2,0,P|272:135|285:68,1,113,0|2,0:0|0:0,0:0:0:0:
315,14,28132,5,2,0:0:0:0:
388,19,28298,1,0,0:0:0:0:
451,55,28464,1,0,0:0:0:0:
492,156,28629,1,0,0:0:0:0:
442,294,28795,1,2,0:0:0:0:
224,331,28961,1,2,0:0:0:0:
34,105,29127,2,0,B|70:119|101:155|93:260|-70:260|-70:96|34:88|70:119|84:155|84:155|107:167|127:158|158:138|152:138|147:138|169:116|192:105|212:113,1,452,2|0,0:0|0:0,0:0:0:0:
320,147,29955,1,2,0:0:0:0:
398,225,30121,6,0,B|386:257|342:273|254:265|342:265|254:257|210:273|198:305,1,226,2|0,0:0|0:0,0:0:0:0:
340,349,30619,1,2,0:0:0:0:
256,269,30784,1,0,0:0:0:0:
195,169,30950,1,2,0:0:0:0:
256,15,31117,1,2,0:0:0:0:
256,15,31448,2,0,B|275:10|275:10|356:9,2,75.3333333333333,2|0|2,0:0|0:0|0:0,0:0:0:0:
331,9,31779,2,0,B|386:23|386:23|442:24,1,113,0|2,0:0|0:0,0:0:0:0:
501,237,32111,5,2,0:0:0:0:
428,245,32277,1,0,0:0:0:0:
357,224,32442,1,2,0:0:0:0:
285,241,32608,1,0,0:0:0:0:
256,308,32774,1,2,0:0:0:0:
270,379,32940,1,0,0:0:0:0:
480,308,33105,1,2,0:0:0:0:
501,237,33271,1,0,0:0:0:0:
484,165,33437,1,2,0:0:0:0:
417,136,33603,1,2,0:0:0:0:
343,138,33769,1,2,0:0:0:0:
293,192,33934,1,0,0:0:0:0:
140,351,34100,5,2,0:0:0:0:
72,321,34266,1,0,0:0:0:0:
41,252,34432,1,2,0:0:0:0:
61,183,34597,1,0,0:0:0:0:
120,140,34763,1,2,0:0:0:0:
194,146,34929,1,0,0:0:0:0:
389,247,35096,1,2,0:0:0:0:
358,312,35261,1,0,0:0:0:0:
291,344,35427,2,0,P|221:326|196:297,1,113,2|2,0:0|0:0,0:0:0:0:
338,97,35758,2,0,P|337:153|305:198,1,113,2|0,0:0|0:0,0:0:0:0:
86,83,36090,5,2,0:0:0:0:
175,100,36255,1,0,0:0:0:0:
250,151,36421,1,2,0:0:0:0:
301,226,36587,1,2,0:0:0:0:
388,247,36753,1,2,0:0:0:0:
475,226,36918,1,0,0:0:0:0:
508,45,37084,2,0,P|451:39|395:43,1,113,2|0,0:0|0:0,0:0:0:0:
175,100,37416,2,0,P|226:123|273:155,1,113,2|0,0:0|0:0,0:0:0:0:
435,314,37748,2,0,P|378:308|322:312,1,113,2|0,0:0|0:0,0:0:0:0:
106,353,38080,5,2,0:0:0:0:
60,176,38245,1,2,0:0:0:0:
208,317,38410,1,2,0:0:0:0:
131,150,38575,1,2,0:0:0:0:
302,264,38742,1,2,0:0:0:0:
197,113,38907,1,2,0:0:0:0:
465,66,39074,1,2,0:0:0:0:
288,114,39239,1,2,0:0:0:0:
485,280,39405,1,2,0:0:0:0:
301,189,39571,1,2,0:0:0:0:
484,172,39737,1,0,0:0:0:0:
25,53,40068,5,2,0:0:0:0:
110,240,40400,5,0,0:0:0:0:
16,170,40731,5,0,0:0:0:0:
216,189,41063,6,0,B|232:197|240:217|240:217|256:229|256:241|256:241|256:229|272:217|272:217|280:197|296:189,3,135.599995861817,2|0|2|4,0:0|0:0|0:0|0:0,0:0:0:0:
256,192,42078,12,0,45042,0:0:0:0:
