osu file format v14

[General]
AudioFilename: audio.mp3
AudioLeadIn: 0
PreviewTime: 0
Countdown: 1
SampleSet: Soft
StackLeniency: 0.7
Mode: 0
LetterboxInBreaks: 0
WidescreenStoryboard: 0

[Editor]
Bookmarks: 8901
DistanceSpacing: 2
BeatDivisor: 4
GridSize: 4
TimelineZoom: 3.799999

[Metadata]
Title:Granat
TitleUnicode:Granat
Artist:Drop
ArtistUnicode:Drop
Creator:KorwiN
Version:Granat ?
Source:
Tags:Granat Korwin Drop granat?
BeatmapID:1081837
BeatmapSetID:508682

[Difficulty]
HPDrainRate:6
CircleSize:5
OverallDifficulty:8
ApproachRate:9.7
SliderMultiplier:1.4
SliderTickRate:1

[Events]
//Background and Video events
0,0,"maxresdefault.jpg",0,0
//Break Periods
//Storyboard Layer 0 (Background)
//Storyboard Layer 1 (Fail)
//Storyboard Layer 2 (Pass)
//Storyboard Layer 3 (Foreground)
//Storyboard Sound Samples

[TimingPoints]
281,331.5649867374,4,2,1,100,1,0
2269,-200,4,2,1,100,0,0
3595,-66.6666666666667,4,2,1,100,0,0
4341,-200,4,2,1,100,0,0
6247,-66.6666666666667,4,2,1,100,0,0
13965,-100,4,2,1,100,0,0
16109,-66.6666666666667,4,2,1,100,0,0
24065,-200,4,2,1,70,0,0
27380,-133.333333333333,4,2,1,20,0,0
28126,-66.6666666666667,4,2,1,100,0,0
31358,-100,4,2,1,20,0,0
32021,-100,4,2,1,100,0,0
37988,-55.5555555555556,4,2,1,100,0,0
39894,-200,4,2,1,50,0,0
41966,-200,4,2,1,5,0,0

[HitObjects]
316,216,281,5,0,0:0:0:0:
76,72,618,1,2,0:0:0:0:
212,44,784,1,0,0:0:0:0:
76,72,949,1,2,0:0:0:0:
272,280,1281,5,0,0:0:0:0:
464,76,1612,1,2,0:0:0:0:
324,60,1778,1,0,0:0:0:0:
464,76,1944,1,2,0:0:0:0:
420,236,2275,6,0,P|396:240|380:232,1,35
328,104,2607,2,0,P|304:100|292:104,1,35
208,256,2938,2,0,P|200:232|204:216,1,35
400,288,3270,1,0,0:0:0:0:
235,57,3596,1,0,0:0:0:0:
171,84,3706,1,0,0:0:0:0:
140,144,3817,1,0,0:0:0:0:
153,212,3927,1,0,0:0:0:0:
148,84,4264,5,0,0:0:0:0:
280,36,4596,1,2,0:0:0:0:
424,152,4762,1,0,0:0:0:0:
280,36,4927,1,2,0:0:0:0:
184,196,5259,5,0,0:0:0:0:
304,268,5590,1,2,0:0:0:0:
428,196,5756,1,0,0:0:0:0:
308,264,5922,1,2,0:0:0:0:
64,180,6253,6,0,B|104:108|148:116|148:116|164:168|224:176,1,210.000008010865
492,332,6916,2,0,B|440:292|456:248|456:248|384:220|408:160,1,210.000008010865
95,111,7579,1,2,0:0:0:0:
231,270,7745,1,0,0:0:0:0:
94,109,7911,1,2,0:0:0:0:
448,312,8242,6,0,P|484:264|384:136,1,210.000008010865
424,140,8740,1,0,0:0:0:0:
342,80,8905,1,0,0:0:0:0:
247,113,9071,1,0,0:0:0:0:
100,264,9237,6,0,P|152:228|280:288,1,210.000008010865,8|0,0:0|0:0,0:0:0:0:
276,279,9734,1,0,0:0:0:0:
365,308,9899,1,0,0:0:0:0:
391,217,10065,1,0,0:0:0:0:
212,96,10231,6,0,P|144:112|164:256,1,210.000008010865
133,234,10728,1,0,0:0:0:0:
169,317,10893,1,0,0:0:0:0:
79,325,11059,1,0,0:0:0:0:
192,136,11226,6,0,P|176:192|304:232,1,210.000008010865,8|0,0:0|0:0,0:0:0:0:
290,243,11723,1,0,0:0:0:0:
379,239,11888,1,0,0:0:0:0:
348,322,12054,1,0,0:0:0:0:
240,140,12220,6,0,P|152:196|160:308,1,210.000008010865
150,293,12717,1,0,0:0:0:0:
107,370,12882,1,0,0:0:0:0:
55,298,13048,1,0,0:0:0:0:
180,128,13215,6,0,P|188:196|304:176,1,210.000008010865,8|0,0:0|0:0,0:0:0:0:
301,181,13712,1,0,0:0:0:0:
252,96,13877,1,0,0:0:0:0:
368,88,14043,1,0,0:0:0:0:
309,195,14206,5,0,0:0:0:0:
173,274,14372,1,0,0:0:0:0:
173,116,14538,5,0,0:0:0:0:
336,196,14704,1,0,0:0:0:0:
160,304,14870,1,0,0:0:0:0:
160,88,15036,1,0,0:0:0:0:
368,200,15201,2,0,P|408:220|456:228,2,70
160,88,15698,1,0,0:0:0:0:
320,176,15864,1,0,0:0:0:0:
300,32,16030,1,0,0:0:0:0:
392,92,16198,6,0,P|436:164|336:268,1,210.000008010865
376,261,16695,1,0,0:0:0:0:
322,331,16860,1,0,0:0:0:0:
409,351,17026,1,0,0:0:0:0:
212,276,17193,6,0,P|224:200|92:152,1,210.000008010865,8|0,0:0|0:0,0:0:0:0:
121,139,17690,1,0,0:0:0:0:
29,133,17855,1,0,0:0:0:0:
51,43,18021,1,0,0:0:0:0:
256,84,18187,6,0,P|240:184|332:224,1,210.000008010865
325,225,18684,1,0,0:0:0:0:
390,289,18849,1,0,0:0:0:0:
312,337,19015,1,0,0:0:0:0:
160,188,19182,6,0,P|164:124|304:112,1,210.000008010865,8|0,0:0|0:0,0:0:0:0:
287,94,19679,1,0,0:0:0:0:
367,164,19844,1,0,0:0:0:0:
408,79,20010,1,0,0:0:0:0:
128,128,20176,6,0,P|212:168|180:284,1,210.000008010865
198,270,20673,1,0,0:0:0:0:
171,354,20838,1,0,0:0:0:0:
259,345,21004,1,0,0:0:0:0:
424,212,21170,6,0,P|368:220|348:92,1,210.000008010865,8|0,0:0|0:0,0:0:0:0:
339,98,21668,1,0,0:0:0:0:
317,9,21833,1,0,0:0:0:0:
233,46,21999,1,0,0:0:0:0:
156,240,22165,5,0,0:0:0:0:
356,300,22331,1,0,0:0:0:0:
444,84,22662,1,0,0:0:0:0:
444,84,22828,1,0,0:0:0:0:
60,248,23159,1,0,0:0:0:0:
114,331,23324,1,0,0:0:0:0:
214,323,23490,1,0,0:0:0:0:
252,192,23822,1,0,0:0:0:0:
168,80,24154,5,2,0:0:0:0:
124,136,24320,1,2,0:0:0:0:
260,252,24485,5,2,0:0:0:0:
316,208,24651,1,2,0:0:0:0:
124,256,24817,5,2,0:0:0:0:
176,304,24983,1,2,0:0:0:0:
272,124,25148,5,2,0:0:0:0:
472,320,25811,5,2,0:0:0:0:
468,252,25977,1,2,0:0:0:0:
467,179,26143,5,2,0:0:0:0:
208,160,26640,1,2,0:0:0:0:
252,112,26805,5,2,0:0:0:0:
392,236,27137,1,2,0:0:0:0:
68,336,27469,5,0,0:0:0:0:
101,295,27579,1,0,0:0:0:0:
129,265,27689,1,0,0:0:0:0:
159,230,27800,2,0,L|212:176,1,52.5000020027161
288,68,28132,5,0,0:0:0:0:
343,105,28298,1,2,0:0:0:0:
249,266,28463,5,2,0:0:0:0:
219,208,28629,1,2,0:0:0:0:
91,151,28795,5,2,0:0:0:0:
105,86,28961,1,2,0:0:0:0:
324,120,29126,5,2,0:0:0:0:
480,220,29790,5,2,0:0:0:0:
412,204,29956,1,0,0:0:0:0:
344,212,30122,1,2,0:0:0:0:
320,30,30619,1,0,0:0:0:0:
234,81,30784,1,0,0:0:0:0:
245,180,30950,1,0,0:0:0:0:
339,212,31116,1,0,0:0:0:0:
140,112,31448,5,0,0:0:0:0:
138,158,31558,1,0,0:0:0:0:
158,200,31668,1,0,0:0:0:0:
194,228,31779,1,0,0:0:0:0:
312,304,31945,1,0,0:0:0:0:
390,217,32111,5,0,0:0:0:0:
507,96,32277,1,0,0:0:0:0:
344,56,32442,1,0,0:0:0:0:
385,214,32608,5,0,0:0:0:0:
203,276,32774,1,0,0:0:0:0:
240,88,32940,1,0,0:0:0:0:
72,137,33105,5,0,0:0:0:0:
240,88,33271,1,0,0:0:0:0:
197,258,33437,1,0,0:0:0:0:
128,72,33603,5,0,0:0:0:0:
60,192,33769,1,0,0:0:0:0:
188,132,33935,1,0,0:0:0:0:
72,208,34101,5,0,0:0:0:0:
140,332,34266,1,0,0:0:0:0:
180,196,34432,1,0,0:0:0:0:
304,128,34598,5,0,0:0:0:0:
348,260,34764,1,0,0:0:0:0:
220,208,34929,1,0,0:0:0:0:
96,128,35095,5,0,0:0:0:0:
36,256,35261,1,0,0:0:0:0:
160,144,35427,1,0,0:0:0:0:
96,256,35592,5,0,0:0:0:0:
236,256,35758,1,0,0:0:0:0:
100,192,35924,1,0,0:0:0:0:
236,261,36090,5,0,0:0:0:0:
320,112,36255,1,0,0:0:0:0:
408,259,36421,1,0,0:0:0:0:
320,112,36587,5,0,0:0:0:0:
177,79,36753,1,0,0:0:0:0:
219,219,36918,1,0,0:0:0:0:
363,119,37084,5,0,0:0:0:0:
219,219,37250,1,0,0:0:0:0:
378,293,37416,1,0,0:0:0:0:
471,178,37582,5,0,0:0:0:0:
326,156,37747,1,0,0:0:0:0:
340,76,37913,5,0,0:0:0:0:
160,238,38079,1,0,0:0:0:0:
296,12,38244,1,0,0:0:0:0:
232,256,38410,1,0,0:0:0:0:
220,4,38576,5,0,0:0:0:0:
292,254,38742,1,0,0:0:0:0:
152,44,38907,1,0,0:0:0:0:
348,204,39073,1,0,0:0:0:0:
116,108,39239,1,0,0:0:0:0:
363,141,39405,1,0,0:0:0:0:
112,180,39570,1,0,0:0:0:0:
340,77,39736,1,0,0:0:0:0:
65,192,40068,6,0,P|65:111|65:111,1,70
448,111,40730,6,0,L|448:192,1,70
280,348,41393,6,0,B|291:349|211:348,1,70
256,192,42056,1,0,0:0:0:0:
256,192,42131,12,0,45373,0:0:0:0:
