osu file format v14

[General]
AudioFilename: audio.mp3
AudioLeadIn: 0
PreviewTime: -1
Countdown: 1
SampleSet: Normal
StackLeniency: 0.7
Mode: 0
LetterboxInBreaks: 0
WidescreenStoryboard: 1

[Editor]
Bookmarks: 22164,24153,38079
DistanceSpacing: 1.4
BeatDivisor: 4
GridSize: 4
TimelineZoom: 1.9

[Metadata]
Title:Granat
TitleUnicode:Granat
Artist:Drop
ArtistUnicode:Drop
Creator:Karp
Version:Normal
Source:
Tags:
BeatmapID:1523903
BeatmapSetID:721412

[Difficulty]
HPDrainRate:3
CircleSize:4
OverallDifficulty:3
ApproachRate:3
SliderMultiplier:0.800000005960464
SliderTickRate:1

[Events]
//Background and Video events
0,0,"IMG_191430.jpg",0,0
//Break Periods
//Storyboard Layer 0 (Background)
//Storyboard Layer 1 (Fail)
//Storyboard Layer 2 (Pass)
//Storyboard Layer 3 (Foreground)
//Storyboard Sound Samples

[TimingPoints]
281,331.5649867374,4,1,0,100,1,0
24153,-125,4,1,0,100,0,0
32111,-100,4,1,0,100,0,0

[HitObjects]
64,72,281,6,0,L|160:72,1,80.0000005960464
256,72,944,1,0,0:0:0:0:
256,184,1275,2,0,L|256:272,1,80.0000005960464
368,264,1938,1,0,0:0:0:0:
368,152,2270,2,0,L|272:152,1,80.0000005960464
176,152,2933,1,0,0:0:0:0:
176,264,3265,2,0,L|256:264,2,80.0000005960464
176,152,4259,2,0,L|176:60,1,80.0000005960464
288,72,4922,1,0,0:0:0:0:
288,184,5254,2,0,L|288:280,1,80.0000005960464
176,264,5917,1,0,0:0:0:0:
176,152,6249,2,0,L|256:152,2,80.0000005960464
176,252,7243,1,0,0:0:0:0:
288,252,7575,2,0,L|288:156,1,80.0000005960464
288,60,8238,1,0,0:0:0:0:
176,60,8570,2,0,L|176:152,1,80.0000005960464
176,252,9233,1,0,0:0:0:0:
288,252,9564,2,0,B|376:252|376:252|376:252,1,80.0000005960464
368,140,10227,1,0,0:0:0:0:
256,140,10559,2,0,L|256:48,1,80.0000005960464
144,60,11222,1,0,0:0:0:0:
144,172,11554,2,0,P|144:216|176:216,1,80.0000005960464
284,220,12217,1,0,0:0:0:0:
396,220,12548,2,0,L|396:312,1,80.0000005960464
284,300,13212,1,0,0:0:0:0:
172,300,13543,2,0,L|92:300,1,80.0000005960464
92,188,14206,1,0,0:0:0:0:
92,76,14538,1,0,0:0:0:0:
204,76,14869,1,0,0:0:0:0:
204,188,15201,1,0,0:0:0:0:
316,188,15532,2,0,L|316:96,1,80.0000005960464
204,108,16196,1,0,0:0:0:0:
204,220,16527,2,0,L|204:304,1,80.0000005960464
316,300,17190,1,0,0:0:0:0:
316,188,17522,1,0,0:0:0:0:
316,76,17853,1,0,0:0:0:0:
204,76,18185,2,0,L|204:164,1,80.0000005960464
204,268,18848,1,0,0:0:0:0:
92,268,19180,2,0,L|92:180,2,80.0000005960464
204,268,20174,2,0,L|300:268,2,80.0000005960464
204,156,21169,2,0,L|204:72,2,80.0000005960464
204,268,22164,2,0,L|256:268,1,40.0000002980232
244,156,22661,2,0,L|244:104,1,40.0000002980232
356,116,23158,2,0,L|356:208,2,80.0000005960464
268,116,24153,2,0,L|200:116,2,64.0000004768371
360,116,25148,1,0,0:0:0:0:
360,296,25811,2,0,L|288:296,1,64.0000004768371
156,296,26640,2,0,L|156:252,1,32.0000002384186
156,176,27137,1,0,0:0:0:0:
244,176,27469,2,0,L|320:176,1,64.0000004768371
396,176,28132,2,0,L|396:248,2,64.0000004768371
396,88,29127,1,0,0:0:0:0:
216,88,29790,2,0,L|176:88,2,32.0000002384186
216,176,30453,2,0,L|216:248,1,64.0000004768371
304,240,31116,1,0,0:0:0:0:
304,328,31448,2,0,L|232:328,1,64.0000004768371
128,328,32111,2,0,L|128:240,2,80.0000005960464
240,328,33105,2,0,L|336:328,2,80.0000005960464
240,216,34100,2,0,L|240:128,2,80.0000005960464
128,216,35095,2,0,L|128:120,2,80.0000005960464
240,216,36090,2,0,L|240:120,2,80.0000005960464
352,216,37084,2,0,L|352:124,2,80.0000005960464
240,216,38079,2,0,L|148:216,1,80.0000005960464
48,216,38742,1,0,0:0:0:0:
48,104,39074,2,0,L|144:104,1,80.0000005960464
240,104,39737,1,0,0:0:0:0:
240,216,40068,2,0,L|240:300,1,80.0000005960464
352,296,40731,1,0,0:0:0:0:
352,184,41063,1,0,0:0:0:0:
352,72,41395,1,0,0:0:0:0:
240,72,41726,1,0,0:0:0:0:
240,184,42058,1,0,0:0:0:0:
