osu file format v14

[General]
AudioFilename: audio.mp3
AudioLeadIn: 0
PreviewTime: -1
Countdown: 1
SampleSet: Normal
StackLeniency: 0.7
Mode: 0
LetterboxInBreaks: 0
WidescreenStoryboard: 1

[Editor]
Bookmarks: 22164,24153,38079
DistanceSpacing: 1.8
BeatDivisor: 4
GridSize: 4
TimelineZoom: 1.9

[Metadata]
Title:Granat
TitleUnicode:Granat
Artist:Drop
ArtistUnicode:Drop
Creator:Karp
Version:Insane
Source:
Tags:
BeatmapID:1523943
BeatmapSetID:721412

[Difficulty]
HPDrainRate:6
CircleSize:4.5
OverallDifficulty:8
ApproachRate:9
SliderMultiplier:1.8
SliderTickRate:1

[Events]
//Background and Video events
0,0,"IMG_191430.jpg",0,0
//Break Periods
//Storyboard Layer 0 (Background)
//Storyboard Layer 1 (Fail)
//Storyboard Layer 2 (Pass)
//Storyboard Layer 3 (Foreground)
//Storyboard Sound Samples

[TimingPoints]
281,331.5649867374,4,1,0,100,1,0
24153,-125,4,1,0,100,0,0
32111,-100,4,1,0,100,0,0

[HitObjects]
256,192,281,6,0,L|464:192,1,180
436,284,778,1,0,0:0:0:0:
344,284,944,2,0,L|156:284,1,180
168,104,1607,2,0,L|168:0,2,90
232,256,2270,2,0,L|311:295,1,90
312,296,2601,2,0,L|376:216,1,90
368,225,2933,2,0,L|272:168,1,90
291,179,3265,2,0,L|216:256,1,90
228,243,3596,2,0,L|228:136,3,90
228,153,4259,5,0,0:0:0:0:
336,156,4591,1,0,0:0:0:0:
336,156,4757,1,0,0:0:0:0:
336,244,4922,1,0,0:0:0:0:
156,244,5254,1,0,0:0:0:0:
160,64,5586,1,0,0:0:0:0:
248,64,5751,1,0,0:0:0:0:
204,144,5917,1,0,0:0:0:0:
384,148,6249,2,0,B|456:100|452:104|308:104,2,180
384,240,7078,1,0,0:0:0:0:
384,328,7243,2,0,L|200:328,1,180
204,328,7741,1,0,0:0:0:0:
208,240,7906,2,0,L|208:148,1,90
208,60,8238,1,0,0:0:0:0:
300,60,8404,1,0,0:0:0:0:
300,152,8570,6,0,L|300:256,1,90
208,240,8901,1,0,0:0:0:0:
160,316,9067,1,0,0:0:0:0:
116,240,9233,2,0,L|116:124,1,90
208,148,9564,1,0,0:0:0:0:
208,240,9730,1,0,0:0:0:0:
300,240,9896,1,0,0:0:0:0:
300,148,10062,1,0,0:0:0:0:
388,148,10227,1,0,0:0:0:0:
300,152,10393,1,0,0:0:0:0:
208,152,10559,2,0,L|104:152,1,90
116,244,10891,1,0,0:0:0:0:
116,332,11056,1,0,0:0:0:0:
116,244,11222,1,0,0:0:0:0:
116,332,11388,1,0,0:0:0:0:
232,332,11554,6,0,L|344:332,1,90
320,240,11885,1,0,0:0:0:0:
320,148,12051,1,0,0:0:0:0:
320,56,12217,1,0,0:0:0:0:
320,148,12383,1,0,0:0:0:0:
320,240,12548,1,0,0:0:0:0:
320,240,12714,6,0,L|196:240,1,90
140,240,13046,1,0,0:0:0:0:
140,240,13212,1,0,0:0:0:0:
140,328,13377,1,0,0:0:0:0:
140,240,13543,1,0,0:0:0:0:
140,148,13709,2,0,L|244:148,1,90
320,148,14040,1,0,0:0:0:0:
320,240,14206,1,0,0:0:0:0:
228,240,14372,1,0,0:0:0:0:
320,240,14538,1,0,0:0:0:0:
392,252,14704,1,0,0:0:0:0:
320,240,14869,6,0,L|320:128,1,90
320,240,15201,1,0,0:0:0:0:
320,332,15367,1,0,0:0:0:0:
320,240,15532,1,0,0:0:0:0:
228,240,15698,1,0,0:0:0:0:
228,332,15864,1,0,0:0:0:0:
136,332,16030,2,0,L|136:224,2,90
44,332,16527,5,0,0:0:0:0:
48,244,16693,1,0,0:0:0:0:
48,152,16859,1,0,0:0:0:0:
140,152,17025,1,0,0:0:0:0:
228,152,17190,1,0,0:0:0:0:
228,152,17356,1,0,0:0:0:0:
140,152,17522,1,0,0:0:0:0:
48,152,17688,1,0,0:0:0:0:
48,240,17853,1,0,0:0:0:0:
44,332,18019,1,0,0:0:0:0:
136,332,18185,6,0,P|136:220|136:216,1,90
136,152,18517,1,0,0:0:0:0:
136,64,18682,1,0,0:0:0:0:
212,112,18848,1,0,0:0:0:0:
212,204,19014,1,0,0:0:0:0:
304,204,19180,2,0,L|304:88,1,90
212,112,19511,1,0,0:0:0:0:
212,204,19677,1,0,0:0:0:0:
304,204,19843,1,0,0:0:0:0:
304,296,20009,1,0,0:0:0:0:
216,296,20174,6,0,B|152:216|156:220,1,90
160,132,20506,2,0,L|288:132,1,90
248,224,20838,2,0,P|368:224|364:224,1,90
338,224,21169,1,0,0:0:0:0:
340,316,21335,1,0,0:0:0:0:
248,316,21501,2,0,P|340:240|340:240,1,90
348,176,21832,2,0,L|240:176,1,90
258,176,22164,5,0,0:0:0:0:
192,116,22330,1,0,0:0:0:0:
192,204,22495,1,0,0:0:0:0:
300,136,22661,1,0,0:0:0:0:
192,68,22827,1,0,0:0:0:0:
192,196,22993,1,0,0:0:0:0:
316,124,23158,1,0,0:0:0:0:
196,40,23324,1,0,0:0:0:0:
192,184,23490,1,0,0:0:0:0:
336,112,23656,1,0,0:0:0:0:
196,28,23822,1,0,0:0:0:0:
192,184,23987,1,0,0:0:0:0:
188,312,24153,5,0,0:0:0:0:
272,256,24319,1,0,0:0:0:0:
352,316,24485,1,0,0:0:0:0:
424,244,24651,1,0,0:0:0:0:
324,240,24816,2,0,L|224:240,1,72
152,240,25148,1,0,0:0:0:0:
256,192,25811,1,0,0:0:0:0:
256,292,25977,1,0,0:0:0:0:
256,192,26143,1,0,0:0:0:0:
256,40,26640,2,0,L|256:136,1,72
256,312,27137,1,0,0:0:0:0:
256,112,27469,2,0,L|256:48,4,36
344,160,27966,5,0,0:0:0:0:
256,212,28132,1,0,0:0:0:0:
256,312,28298,2,0,L|172:312,1,72
84,312,28629,1,0,0:0:0:0:
168,256,28795,1,0,0:0:0:0:
252,312,28961,1,0,0:0:0:0:
168,256,29127,1,0,0:0:0:0:
256,48,29790,2,0,L|256:144,1,72
156,120,30121,1,0,0:0:0:0:
152,236,30619,2,0,L|152:332,2,72
252,236,31116,5,0,0:0:0:0:
256,36,31448,1,0,0:0:0:0:
256,36,31530,1,0,0:0:0:0:
256,36,31613,1,0,0:0:0:0:
80,76,31779,1,0,0:0:0:0:
256,136,31945,1,0,0:0:0:0:
420,136,32111,1,0,0:0:0:0:
420,300,32277,1,0,0:0:0:0:
260,300,32442,1,0,0:0:0:0:
96,300,32608,1,0,0:0:0:0:
96,136,32774,1,0,0:0:0:0:
256,136,32940,1,0,0:0:0:0:
416,136,33105,1,0,0:0:0:0:
312,260,33271,1,0,0:0:0:0:
148,260,33437,1,0,0:0:0:0:
256,136,33603,1,0,0:0:0:0:
416,136,33769,1,0,0:0:0:0:
416,296,33934,1,0,0:0:0:0:
252,296,34100,1,0,0:0:0:0:
256,136,34266,1,0,0:0:0:0:
92,136,34432,1,0,0:0:0:0:
92,296,34597,1,0,0:0:0:0:
256,296,34763,1,0,0:0:0:0:
256,132,34929,1,0,0:0:0:0:
420,132,35095,1,0,0:0:0:0:
256,136,35261,1,0,0:0:0:0:
92,136,35426,1,0,0:0:0:0:
256,132,35592,1,0,0:0:0:0:
256,296,35758,1,0,0:0:0:0:
92,296,35924,1,0,0:0:0:0:
92,136,36090,1,0,0:0:0:0:
252,136,36255,1,0,0:0:0:0:
416,136,36421,1,0,0:0:0:0:
416,300,36587,1,0,0:0:0:0:
416,136,36753,1,0,0:0:0:0:
252,136,36918,1,0,0:0:0:0:
252,300,37084,1,0,0:0:0:0:
88,300,37250,1,0,0:0:0:0:
200,184,37416,1,0,0:0:0:0:
36,184,37582,1,0,0:0:0:0:
36,24,37747,1,0,0:0:0:0:
200,24,37913,1,0,0:0:0:0:
320,132,38079,1,0,0:0:0:0:
180,280,38245,6,0,L|272:280,1,90
270,280,38576,1,0,0:0:0:0:
276,136,38742,2,0,L|376:136,1,90
366,136,39074,1,0,0:0:0:0:
368,280,39239,2,0,L|272:280,1,90
278,280,39571,1,0,0:0:0:0:
132,284,39737,2,0,L|132:164,1,90
136,48,40068,2,0,L|236:48,1,90
372,48,40400,2,0,L|372:164,1,90
372,284,40731,2,0,L|280:284,1,90
136,284,41063,2,0,L|136:168,1,90
280,192,41395,2,0,L|400:192,1,90
348,48,41726,2,0,L|248:48,1,90
256,192,42058,1,0,0:0:0:0:
