osu file format v14

[General]
AudioFilename: audio.mp3
AudioLeadIn: 0
PreviewTime: 115
Countdown: 0
SampleSet: Soft
StackLeniency: 0.7
Mode: 3
LetterboxInBreaks: 0
SpecialStyle: 0
WidescreenStoryboard: 1

[Editor]
Bookmarks: 38079
DistanceSpacing: 1.3
BeatDivisor: 4
GridSize: 4
TimelineZoom: 1.199999

[Metadata]
Title:Granat
TitleUnicode:Granat
Artist:Drop
ArtistUnicode:Drop
Creator:Hlimak
Version:Normal
Source:
Tags:
BeatmapID:0
BeatmapSetID:-1

[Difficulty]
HPDrainRate:8
CircleSize:4
OverallDifficulty:8
ApproachRate:9.5
SliderMultiplier:1.4
SliderTickRate:1

[Events]
//Background and Video events
0,0,"bg.png",0,0
//Break Periods
//Storyboard Layer 0 (Background)
//Storyboard Layer 1 (Fail)
//Storyboard Layer 2 (Pass)
//Storyboard Layer 3 (Foreground)
//Storyboard Sound Samples

[TimingPoints]
281,331.5649867374,3,2,1,40,1,0
24236,-100,3,2,2,40,0,0
40068,-100,3,2,2,40,0,0
41063,-100,3,2,2,40,0,0

[HitObjects]
320,192,281,5,0,0:0:0:0:
448,192,281,1,6,0:0:0:0:
64,192,612,1,0,0:0:0:0:
320,192,778,1,0,0:0:0:0:
64,192,944,1,0,0:0:0:0:
192,192,1275,1,8,0:0:0:0:
448,192,1607,1,0,0:0:0:0:
192,192,1773,1,0,0:0:0:0:
448,192,1938,1,0,0:0:0:0:
320,192,2270,128,2,2436:0:0:0:0:
192,192,2436,128,0,2601:0:0:0:0:
320,192,2601,128,0,2767:0:0:0:0:
448,192,2767,128,0,2933:0:0:0:0:
64,192,2933,128,0,3099:0:0:0:0:
192,192,3099,128,0,3265:0:0:0:0:
448,192,3265,128,8,3596:0:0:0:0:
64,192,3596,128,0,3928:0:0:0:0:
192,192,3928,128,0,4093:0:0:0:0:
320,192,4093,128,0,4259:0:0:0:0:
448,192,4259,1,2,0:0:0:0:
64,192,4259,128,0,5917:0:0:0:0:
320,192,4591,1,0,0:0:0:0:
192,192,4757,1,0,0:0:0:0:
320,192,4922,1,0,0:0:0:0:
192,192,5254,1,8,0:0:0:0:
448,192,5586,1,0,0:0:0:0:
192,192,5751,1,0,0:0:0:0:
448,192,5917,1,0,0:0:0:0:
64,192,6249,128,2,6580:0:0:0:0:
192,192,6580,128,0,6912:0:0:0:0:
448,192,6912,128,0,7243:0:0:0:0:
320,192,7243,128,8,7741:0:0:0:0:
64,192,7243,1,0,0:0:0:0:
192,192,7741,128,0,7906:0:0:0:0:
64,192,7906,128,0,8238:0:0:0:0:
320,192,8238,1,0,0:0:0:0:
448,192,8238,128,6,11056:0:0:0:0:
320,192,8570,1,0,0:0:0:0:
192,192,8901,1,0,0:0:0:0:
64,192,9233,1,0,0:0:0:0:
320,192,9233,1,8,0:0:0:0:
64,192,10227,1,2,0:0:0:0:
64,192,10559,1,0,0:0:0:0:
320,192,10891,1,0,0:0:0:0:
64,192,11222,1,0,0:0:0:0:
192,192,11222,128,8,11719:0:0:0:0:
448,192,11719,128,0,11885:0:0:0:0:
320,192,11885,128,0,12217:0:0:0:0:
64,192,12217,128,0,14206:0:0:0:0:
192,192,12217,1,2,0:0:0:0:
192,192,12548,1,0,0:0:0:0:
320,192,12880,1,0,0:0:0:0:
448,192,13212,1,8,0:0:0:0:
192,192,14206,128,0,15201:0:0:0:0:
448,192,14206,1,2,0:0:0:0:
320,192,14538,1,0,0:0:0:0:
64,192,14869,1,0,0:0:0:0:
320,192,15201,128,0,16196:0:0:0:0:
448,192,15201,1,8,0:0:0:0:
192,192,15532,1,0,0:0:0:0:
64,192,15864,1,0,0:0:0:0:
448,192,16196,128,6,18185:0:0:0:0:
192,192,16196,1,0,0:0:0:0:
64,192,16527,1,0,0:0:0:0:
192,192,16859,1,0,0:0:0:0:
320,192,17190,1,8,0:0:0:0:
320,192,18185,128,0,19180:0:0:0:0:
64,192,18185,1,6,0:0:0:0:
448,192,18517,1,0,0:0:0:0:
192,192,18848,1,0,0:0:0:0:
64,192,19180,1,8,0:0:0:0:
448,192,19180,128,0,19677:0:0:0:0:
320,192,19677,128,0,19843:0:0:0:0:
64,192,19843,128,0,20174:0:0:0:0:
448,192,20174,1,6,0:0:0:0:
320,192,20174,128,0,22164:0:0:0:0:
64,192,20506,1,0,0:0:0:0:
448,192,20838,1,0,0:0:0:0:
192,192,21169,1,8,0:0:0:0:
448,192,22164,128,0,24153:0:0:0:0:
64,192,22164,1,6,0:0:0:0:
192,192,22330,1,12,0:0:0:0:
64,192,22661,1,2,0:0:0:0:
192,192,22827,1,12,0:0:0:0:
64,192,23158,1,8,0:0:0:0:
192,192,23490,1,2,0:0:0:0:
320,192,23822,1,2,0:0:0:0:
64,192,24153,5,6,0:0:0:0:
320,192,24319,1,0,0:0:0:0:
192,192,24485,1,0,0:0:0:0:
64,192,24651,1,0,0:0:0:0:
320,192,24816,1,0,0:0:0:0:
448,192,24982,1,0,0:0:0:0:
64,192,25148,1,2,0:0:0:0:
64,192,25811,1,0,0:0:0:0:
192,192,25977,1,0,0:0:0:0:
448,192,26143,1,2,0:0:0:0:
192,192,26640,1,0,0:0:0:0:
320,192,26806,1,0,0:0:0:0:
448,192,27137,1,2,0:0:0:0:
320,192,27469,128,0,27800:0:0:0:0:
192,192,27800,1,0,0:0:0:0:
64,192,27966,1,0,0:0:0:0:
320,192,28132,1,2,0:0:0:0:
192,192,28298,1,0,0:0:0:0:
64,192,28464,1,0,0:0:0:0:
192,192,28629,1,0,0:0:0:0:
320,192,28795,1,0,0:0:0:0:
448,192,28961,1,0,0:0:0:0:
192,192,29127,1,2,0:0:0:0:
192,192,29790,1,0,0:0:0:0:
64,192,29956,1,0,0:0:0:0:
320,192,30121,1,2,0:0:0:0:
192,192,30619,1,0,0:0:0:0:
64,192,30784,1,0,0:0:0:0:
320,192,30950,1,0,0:0:0:0:
192,192,31116,1,2,0:0:0:0:
448,192,31448,128,0,31779:0:0:0:0:
192,192,31779,1,0,0:0:0:0:
448,192,32111,5,2,0:0:0:0:
320,192,32277,1,0,0:0:0:0:
192,192,32442,1,0,0:0:0:0:
448,192,32608,1,0,0:0:0:0:
320,192,32774,1,0,0:0:0:0:
192,192,32940,1,0,0:0:0:0:
64,192,33105,1,2,0:0:0:0:
192,192,33271,1,0,0:0:0:0:
320,192,33437,1,0,0:0:0:0:
64,192,33603,1,0,0:0:0:0:
192,192,33769,1,0,0:0:0:0:
320,192,33934,1,0,0:0:0:0:
448,192,34100,1,2,0:0:0:0:
192,192,34266,1,0,0:0:0:0:
64,192,34432,1,0,0:0:0:0:
448,192,34597,1,0,0:0:0:0:
192,192,34763,1,0,0:0:0:0:
64,192,34929,1,0,0:0:0:0:
448,192,35095,1,2,0:0:0:0:
320,192,35261,1,0,0:0:0:0:
64,192,35426,1,0,0:0:0:0:
448,192,35592,1,0,0:0:0:0:
320,192,35758,1,0,0:0:0:0:
64,192,35924,1,0,0:0:0:0:
192,192,36090,1,2,0:0:0:0:
320,192,36255,1,0,0:0:0:0:
448,192,36421,1,0,0:0:0:0:
192,192,36587,1,0,0:0:0:0:
320,192,36753,1,0,0:0:0:0:
448,192,36918,1,0,0:0:0:0:
64,192,37084,1,2,0:0:0:0:
320,192,37250,1,0,0:0:0:0:
192,192,37416,1,0,0:0:0:0:
64,192,37582,1,0,0:0:0:0:
320,192,37747,1,0,0:0:0:0:
192,192,37913,1,0,0:0:0:0:
448,192,38079,1,2,0:0:0:0:
64,192,38245,1,0,0:0:0:0:
192,192,38410,1,0,0:0:0:0:
448,192,38576,1,0,0:0:0:0:
320,192,38742,1,0,0:0:0:0:
192,192,38908,1,0,0:0:0:0:
64,192,39074,1,0,0:0:0:0:
192,192,39239,1,0,0:0:0:0:
320,192,39405,1,0,0:0:0:0:
448,192,39571,1,0,0:0:0:0:
192,192,39737,1,0,0:0:0:0:
64,192,40068,1,2,0:0:0:0:
320,192,40400,1,0,0:0:0:0:
448,192,40731,1,0,0:0:0:0:
64,192,41063,1,0,0:0:0:0:
192,192,41395,1,0,0:0:0:0:
320,192,41726,1,0,0:0:0:0:
448,192,42058,1,2,0:0:0:0:
