osu file format v14

[General]
AudioFilename: audio.mp3
AudioLeadIn: 0
PreviewTime: 115
Countdown: 0
SampleSet: Soft
StackLeniency: 0.7
Mode: 3
LetterboxInBreaks: 0
SpecialStyle: 0
WidescreenStoryboard: 1

[Editor]
Bookmarks: 38079
DistanceSpacing: 1.3
BeatDivisor: 4
GridSize: 4
TimelineZoom: 1.199999

[Metadata]
Title:Granat
TitleUnicode:Granat
Artist:Drop
ArtistUnicode:Drop
Creator:Hlimak
Version:Hard
Source:
Tags:
BeatmapID:0
BeatmapSetID:-1

[Difficulty]
HPDrainRate:8.5
CircleSize:4
OverallDifficulty:8.5
ApproachRate:9.5
SliderMultiplier:1.4
SliderTickRate:1

[Events]
//Background and Video events
0,0,"bg.png",0,0
//Break Periods
//Storyboard Layer 0 (Background)
//Storyboard Layer 1 (Fail)
//Storyboard Layer 2 (Pass)
//Storyboard Layer 3 (Foreground)
//Storyboard Sound Samples

[TimingPoints]
281,331.5649867374,3,2,1,40,1,0
1773,-100,3,2,1,30,0,0
1855,-100,3,2,1,40,0,0
2021,-100,3,2,1,30,0,0
2187,-100,3,2,1,40,0,0
5751,-100,3,2,1,30,0,0
5834,-100,3,2,1,40,0,0
6000,-100,3,2,1,30,0,0
6166,-100,3,2,1,40,0,0
9730,-100,3,2,1,30,0,0
9896,-100,3,2,1,40,0,0
10062,-100,3,2,1,30,0,0
10227,-100,3,2,1,40,0,0
13709,-100,3,2,1,30,0,0
13875,-100,3,2,1,40,0,0
14040,-100,3,2,1,30,0,0
14206,-100,3,2,1,40,0,0
17688,-100,3,2,1,30,0,0
17853,-100,3,2,1,40,0,0
18019,-100,3,2,1,30,0,0
18185,-100,3,2,1,40,0,0
21666,-100,3,2,1,30,0,0
21832,-100,3,2,1,40,0,0
21998,-100,3,2,1,30,0,0
22164,-100,3,2,1,40,0,0
24236,-100,3,2,2,40,0,0
40068,-100,4,2,2,40,0,0
40233.8333333333,-102.040816326531,4,2,2,40,0,0
40399.6666666667,-103.092783505155,4,2,2,40,0,0
40565.5,-105.263157894737,4,2,2,40,0,0
40731.3333333333,-107.52688172043,4,2,2,40,0,0
40897.1666666667,-108.695652173913,4,2,2,40,0,0
41063,-111.111111111111,4,2,2,40,0,0
41228.8333333333,-113.636363636364,4,2,2,40,0,0
41394.6666666667,-114.942528735632,4,2,2,40,0,0
41560.5,-117.647058823529,4,2,2,40,0,0
41726.3333333333,-120.481927710843,4,2,2,40,0,0
41892.1666666667,-121.951219512195,4,2,2,40,0,0
42058,-125,4,2,2,40,0,0

[HitObjects]
320,192,281,5,0,0:0:0:0:
448,192,281,1,6,0:0:0:0:
64,192,612,1,0,0:0:0:0:
192,192,778,1,2,0:0:0:0:
64,192,944,1,0,0:0:0:0:
448,192,1109,1,2,0:0:0:0:
192,192,1275,1,8,0:0:0:0:
64,192,1275,128,0,1773:0:0:0:0:
448,192,1607,1,0,0:0:0:0:
320,192,1773,1,8,0:0:0:0:
448,192,1938,1,0,0:0:0:0:
64,192,2104,1,8,0:0:0:0:
320,192,2270,128,0,2436:0:0:0:0:
448,192,2270,1,2,0:0:0:0:
192,192,2436,128,2,2601:0:0:0:0:
320,192,2601,128,0,2767:0:0:0:0:
448,192,2767,128,2,2933:0:0:0:0:
64,192,2933,128,0,3099:0:0:0:0:
192,192,3099,128,2,3265:0:0:0:0:
448,192,3265,128,8,3596:0:0:0:0:
320,192,3265,1,0,0:0:0:0:
320,192,3596,1,0,0:0:0:0:
192,192,3707,1,0,0:0:0:0:
64,192,3817,1,0,0:0:0:0:
320,192,3928,1,0,0:0:0:0:
192,192,4093,1,8,0:0:0:0:
448,192,4259,1,2,0:0:0:0:
64,192,4259,128,0,5917:0:0:0:0:
448,192,4591,1,0,0:0:0:0:
192,192,4757,1,2,0:0:0:0:
320,192,4922,1,0,0:0:0:0:
448,192,5088,1,2,0:0:0:0:
192,192,5254,1,0,0:0:0:0:
320,192,5254,1,8,0:0:0:0:
448,192,5586,1,0,0:0:0:0:
192,192,5751,1,8,0:0:0:0:
320,192,5917,1,0,0:0:0:0:
448,192,6083,1,8,0:0:0:0:
192,192,6249,1,0,0:0:0:0:
64,192,6249,128,0,6580:0:0:0:0:
448,192,6414,1,2,0:0:0:0:
192,192,6580,128,0,6912:0:0:0:0:
320,192,6746,1,2,0:0:0:0:
448,192,6912,128,0,7243:0:0:0:0:
64,192,7078,1,2,0:0:0:0:
320,192,7243,128,0,7741:0:0:0:0:
192,192,7243,1,8,0:0:0:0:
448,192,7575,1,0,0:0:0:0:
192,192,7741,128,8,7906:0:0:0:0:
64,192,7906,128,0,8238:0:0:0:0:
192,192,8072,1,8,0:0:0:0:
320,192,8238,1,6,0:0:0:0:
448,192,8238,128,0,11056:0:0:0:0:
320,192,8570,1,0,0:0:0:0:
192,192,8735,1,2,0:0:0:0:
64,192,8901,1,0,0:0:0:0:
192,192,9067,1,2,0:0:0:0:
64,192,9233,1,0,0:0:0:0:
320,192,9233,1,8,0:0:0:0:
64,192,9564,1,0,0:0:0:0:
192,192,9730,1,8,0:0:0:0:
320,192,9896,1,0,0:0:0:0:
192,192,10062,1,8,0:0:0:0:
64,192,10227,1,0,0:0:0:0:
320,192,10227,1,2,0:0:0:0:
320,192,10559,1,0,0:0:0:0:
192,192,10725,1,2,0:0:0:0:
64,192,10891,1,0,0:0:0:0:
320,192,11056,1,2,0:0:0:0:
64,192,11222,1,0,0:0:0:0:
192,192,11222,128,8,11719:0:0:0:0:
64,192,11554,1,0,0:0:0:0:
448,192,11719,128,8,11885:0:0:0:0:
320,192,11885,128,0,12217:0:0:0:0:
192,192,12051,1,8,0:0:0:0:
64,192,12217,128,0,14206:0:0:0:0:
448,192,12217,1,2,0:0:0:0:
192,192,12548,1,0,0:0:0:0:
320,192,12714,1,2,0:0:0:0:
448,192,12880,1,0,0:0:0:0:
320,192,13046,1,2,0:0:0:0:
192,192,13212,1,0,0:0:0:0:
448,192,13212,1,8,0:0:0:0:
448,192,13543,1,0,0:0:0:0:
320,192,13709,1,8,0:0:0:0:
192,192,13875,1,0,0:0:0:0:
320,192,14040,1,8,0:0:0:0:
192,192,14206,128,0,15201:0:0:0:0:
448,192,14206,1,2,0:0:0:0:
320,192,14372,1,0,0:0:0:0:
64,192,14538,1,0,0:0:0:0:
448,192,14704,1,2,0:0:0:0:
320,192,14869,1,0,0:0:0:0:
64,192,15035,1,2,0:0:0:0:
320,192,15201,128,0,16196:0:0:0:0:
448,192,15201,1,8,0:0:0:0:
192,192,15367,1,0,0:0:0:0:
64,192,15532,1,0,0:0:0:0:
448,192,15698,1,8,0:0:0:0:
192,192,15864,1,0,0:0:0:0:
64,192,16030,1,8,0:0:0:0:
192,192,16196,1,6,0:0:0:0:
448,192,16196,128,0,18185:0:0:0:0:
320,192,16527,1,0,0:0:0:0:
192,192,16693,1,2,0:0:0:0:
64,192,16859,1,0,0:0:0:0:
192,192,17025,1,2,0:0:0:0:
320,192,17190,1,8,0:0:0:0:
64,192,17190,1,0,0:0:0:0:
64,192,17522,1,0,0:0:0:0:
192,192,17688,1,8,0:0:0:0:
320,192,17853,1,0,0:0:0:0:
192,192,18019,1,8,0:0:0:0:
320,192,18185,128,0,19180:0:0:0:0:
64,192,18185,1,6,0:0:0:0:
64,192,18517,1,0,0:0:0:0:
448,192,18682,1,2,0:0:0:0:
192,192,18848,1,0,0:0:0:0:
448,192,19014,1,2,0:0:0:0:
448,192,19180,128,8,19677:0:0:0:0:
64,192,19180,1,0,0:0:0:0:
192,192,19511,1,0,0:0:0:0:
320,192,19677,128,8,19843:0:0:0:0:
64,192,19843,128,0,20174:0:0:0:0:
192,192,20009,1,8,0:0:0:0:
448,192,20174,1,6,0:0:0:0:
320,192,20174,128,0,22164:0:0:0:0:
64,192,20506,1,0,0:0:0:0:
192,192,20672,1,2,0:0:0:0:
448,192,20838,1,0,0:0:0:0:
192,192,21003,1,2,0:0:0:0:
64,192,21169,1,0,0:0:0:0:
448,192,21169,1,8,0:0:0:0:
192,192,21501,1,0,0:0:0:0:
64,192,21666,1,8,0:0:0:0:
192,192,21832,1,0,0:0:0:0:
64,192,21998,1,8,0:0:0:0:
448,192,22164,128,0,24153:0:0:0:0:
64,192,22164,1,6,0:0:0:0:
320,192,22330,1,12,0:0:0:0:
192,192,22330,1,0,0:0:0:0:
64,192,22661,1,2,0:0:0:0:
192,192,22827,1,0,0:0:0:0:
320,192,22827,1,12,0:0:0:0:
64,192,23158,1,0,0:0:0:0:
192,192,23158,1,8,0:0:0:0:
64,192,23324,1,0,0:0:0:0:
192,192,23324,1,8,0:0:0:0:
320,192,23490,1,2,0:0:0:0:
320,192,23656,1,2,0:0:0:0:
192,192,23822,1,2,0:0:0:0:
192,192,23987,1,2,0:0:0:0:
64,192,24153,5,6,0:0:0:0:
320,192,24153,1,0,0:0:0:0:
192,192,24319,1,0,0:0:0:0:
64,192,24485,1,0,0:0:0:0:
192,192,24651,1,0,0:0:0:0:
448,192,24816,1,0,0:0:0:0:
320,192,24982,1,0,0:0:0:0:
64,192,25148,1,0,0:0:0:0:
448,192,25148,1,2,0:0:0:0:
64,192,25811,1,0,0:0:0:0:
192,192,25977,1,0,0:0:0:0:
64,192,26143,1,0,0:0:0:0:
320,192,26143,1,2,0:0:0:0:
192,192,26640,1,0,0:0:0:0:
320,192,26806,1,0,0:0:0:0:
448,192,27137,1,2,0:0:0:0:
64,192,27137,1,0,0:0:0:0:
448,192,27469,1,0,0:0:0:0:
320,192,27579,1,0,0:0:0:0:
448,192,27690,1,0,0:0:0:0:
192,192,27800,1,0,0:0:0:0:
64,192,27966,1,0,0:0:0:0:
448,192,28132,1,0,0:0:0:0:
320,192,28132,1,2,0:0:0:0:
192,192,28298,1,0,0:0:0:0:
64,192,28464,1,0,0:0:0:0:
320,192,28629,1,0,0:0:0:0:
448,192,28795,1,0,0:0:0:0:
64,192,28961,1,0,0:0:0:0:
320,192,29127,1,2,0:0:0:0:
448,192,29127,1,0,0:0:0:0:
320,192,29790,1,0,0:0:0:0:
192,192,29956,1,0,0:0:0:0:
64,192,30121,1,0,0:0:0:0:
320,192,30121,1,2,0:0:0:0:
320,192,30619,1,0,0:0:0:0:
192,192,30784,1,0,0:0:0:0:
320,192,30950,1,0,0:0:0:0:
64,192,31116,1,0,0:0:0:0:
448,192,31116,1,2,0:0:0:0:
192,192,31448,1,0,0:0:0:0:
448,192,31558,1,0,0:0:0:0:
320,192,31669,5,0,0:0:0:0:
192,192,31779,1,0,0:0:0:0:
64,192,31945,1,0,0:0:0:0:
192,192,32111,5,2,0:0:0:0:
64,192,32111,1,0,0:0:0:0:
320,192,32277,1,0,0:0:0:0:
192,192,32442,1,0,0:0:0:0:
64,192,32608,1,0,0:0:0:0:
192,192,32774,1,0,0:0:0:0:
320,192,32940,1,0,0:0:0:0:
448,192,33105,1,2,0:0:0:0:
64,192,33105,1,0,0:0:0:0:
192,192,33271,1,0,0:0:0:0:
320,192,33437,1,0,0:0:0:0:
64,192,33603,1,0,0:0:0:0:
320,192,33769,1,0,0:0:0:0:
448,192,33934,1,0,0:0:0:0:
320,192,34100,1,2,0:0:0:0:
192,192,34100,1,0,0:0:0:0:
64,192,34266,1,0,0:0:0:0:
192,192,34432,1,0,0:0:0:0:
320,192,34597,1,0,0:0:0:0:
448,192,34763,1,0,0:0:0:0:
64,192,34929,1,0,0:0:0:0:
192,192,35095,1,2,0:0:0:0:
320,192,35095,1,0,0:0:0:0:
64,192,35261,1,0,0:0:0:0:
448,192,35426,1,0,0:0:0:0:
320,192,35592,1,0,0:0:0:0:
192,192,35758,1,0,0:0:0:0:
64,192,35924,1,0,0:0:0:0:
320,192,36090,1,2,0:0:0:0:
192,192,36090,1,0,0:0:0:0:
448,192,36255,1,0,0:0:0:0:
64,192,36421,1,0,0:0:0:0:
448,192,36587,1,0,0:0:0:0:
320,192,36753,1,0,0:0:0:0:
192,192,36918,1,0,0:0:0:0:
448,192,37084,1,0,0:0:0:0:
320,192,37084,1,2,0:0:0:0:
64,192,37250,1,0,0:0:0:0:
192,192,37416,1,0,0:0:0:0:
448,192,37582,1,0,0:0:0:0:
320,192,37747,1,0,0:0:0:0:
64,192,37913,1,0,0:0:0:0:
448,192,38079,1,2,0:0:0:0:
192,192,38079,1,0,0:0:0:0:
320,192,38245,1,0,0:0:0:0:
448,192,38245,1,0,0:0:0:0:
320,192,38410,1,0,0:0:0:0:
64,192,38410,1,0,0:0:0:0:
192,192,38576,1,0,0:0:0:0:
448,192,38576,1,0,0:0:0:0:
64,192,38742,1,0,0:0:0:0:
192,192,38742,1,0,0:0:0:0:
448,192,38908,1,0,0:0:0:0:
320,192,38908,1,0,0:0:0:0:
192,192,39074,1,0,0:0:0:0:
64,192,39074,1,0,0:0:0:0:
64,192,39239,1,0,0:0:0:0:
448,192,39239,1,0,0:0:0:0:
320,192,39405,1,0,0:0:0:0:
448,192,39405,1,0,0:0:0:0:
192,192,39571,1,0,0:0:0:0:
64,192,39571,1,0,0:0:0:0:
64,192,39737,1,0,0:0:0:0:
320,192,39737,1,0,0:0:0:0:
192,192,40068,5,0,0:0:0:0:
64,192,40068,128,0,44047:0:0:0:0:
448,192,40068,1,2,0:0:0:0:
192,192,40400,1,0,0:0:0:0:
448,192,40731,1,0,0:0:0:0:
192,192,41063,1,0,0:0:0:0:
320,192,41395,1,0,0:0:0:0:
448,192,41726,1,0,0:0:0:0:
448,192,42058,1,2,0:0:0:0:
