osu file format v14

[General]
AudioFilename: Drop - Granat.mp3
AudioLeadIn: 2000
PreviewTime: 281
Countdown: 0
SampleSet: Soft
StackLeniency: 0.2
Mode: 0
LetterboxInBreaks: 0
WidescreenStoryboard: 1

[Editor]
Bookmarks: 14704,19014,20009,37084
DistanceSpacing: 1
BeatDivisor: 1
GridSize: 32
TimelineZoom: 1.7

[Metadata]
Title:Granat
TitleUnicode:Granat
Artist:Drop
ArtistUnicode:Drop
Creator:FGSky
Version:Normal
Source:
Tags:dragon and flame 竜と炎の物語 ryuu to honou no monogatari 清風明月 seifuu meigetsu c85
BeatmapID:1282223
BeatmapSetID:234139

[Difficulty]
HPDrainRate:3
CircleSize:3.7
OverallDifficulty:3
ApproachRate:4
SliderMultiplier:1.92
SliderTickRate:1

[Events]
//Background and Video events
0,0,"bg.jpg",0,0
//Break Periods
//Storyboard Layer 0 (Background)
//Storyboard Layer 1 (Fail)
//Storyboard Layer 2 (Pass)
//Storyboard Layer 3 (Foreground)
//Storyboard Sound Samples

[TimingPoints]
281,331.5649867374,3,2,2,50,1,0
281,-200,3,2,2,50,0,0

[Colours]
Combo1 : 0,234,0
Combo2 : 128,128,255
Combo3 : 0,128,192
Combo4 : 0,213,106

[HitObjects]
94,139,281,5,4,0:0:0:0:
169,79,612,2,4,B|192:50|192:50|276:42,1,96,0|0,0:0|0:0,0:0:0:0:
346,43,1275,1,8,0:0:0:0:
418,106,1607,1,0,0:0:0:0:
451,195,1938,2,0,P|441:246|418:294,1,96
328,305,2601,1,0,0:0:0:0:
247,252,2933,2,0,P|194:246|136:254,1,96,0|8,0:0|0:0,0:0:0:0:
79,313,3596,2,0,P|60:268|66:199,1,96
91,130,4259,5,0,0:0:0:0:
161,65,4591,2,0,P|203:57|276:72,1,96
341,20,5254,2,0,P|356:69|350:120,1,96,8|0,0:0|0:0,0:0:0:0:
417,180,5917,2,0,P|391:210|323:240,1,96
268,287,6580,1,0,0:0:0:0:
191,249,6912,1,0,0:0:0:0:
118,295,7243,2,8,P|96:252|96:196,1,96,8|0,0:0|0:0,0:0:0:0:
130,126,7906,1,0,0:0:0:0:
194,68,8238,6,0,B|257:23|257:23|382:28,1,192,4|0,0:0|0:0,0:0:0:0:
434,87,9233,1,8,0:0:0:0:
454,170,9564,1,0,0:0:0:0:
417,248,9896,1,0,0:0:0:0:
343,292,10227,6,8,P|292:299|228:287,1,96,4|0,0:0|0:0,0:0:0:0:
176,244,10891,1,0,0:0:0:0:
105,293,11222,2,4,P|89:243|101:193,1,96,8|0,0:0|0:0,0:0:0:0:
141,126,11885,1,0,0:0:0:0:
206,69,12217,6,0,P|255:50|304:49,1,96,4|0,0:0|0:0,0:0:0:0:
381,71,12880,1,0,0:0:0:0:
430,141,13212,2,8,P|442:183|429:252,1,96,8|0,0:0|0:0,0:0:0:0:
384,303,13875,1,0,0:0:0:0:
234,321,14206,6,4,L|22:302,1,192,4|0,0:0|0:0,0:0:0:0:
50,217,15201,2,0,L|289:239,1,192,8|0,0:0|0:0,0:0:0:0:
315,190,16196,5,4,0:0:0:0:
394,223,16527,2,0,P|424:165|424:116,1,96
386,58,17190,1,8,0:0:0:0:
300,45,17522,2,0,P|246:30|196:36,1,96
128,69,18185,6,0,P|108:116|122:175,1,96,4|0,0:0|0:0,0:0:0:0:
148,238,18848,1,0,0:0:0:0:
103,312,19180,2,8,P|135:321|208:315,1,96,8|0,0:0|0:0,0:0:0:0:
280,340,19843,1,0,0:0:0:0:
366,333,20174,6,4,L|389:234,1,96,4|0,0:0|0:0,0:0:0:0:
431,164,20838,1,0,0:0:0:0:
420,78,21169,2,8,L|313:62,1,96,8|0,0:0|0:0,0:0:0:0:
242,88,21832,1,0,0:0:0:0:
161,56,22164,1,0,0:0:0:0:
256,192,22495,12,2,24153,0:0:0:0:
254,189,25148,5,2,0:0:0:0:
254,189,26143,5,2,0:0:0:0:
254,189,27137,5,2,0:0:0:0:
348,149,28132,6,0,P|315:266|147:194,1,288,0|2,0:0|0:0,0:0:0:0:
254,189,30121,5,2,0:0:0:0:
254,189,31116,5,2,0:0:0:0:
59,347,32111,6,0,L|28:136,1,192,4|0,0:0|0:0,0:0:0:0:
109,72,33105,6,0,L|140:283,1,192,8|0,0:0|0:0,0:0:0:0:
238,317,34100,6,0,L|210:127,1,192,4|0,0:0|0:0,0:0:0:0:
287,41,35095,6,0,L|314:230,1,192,8|0,0:0|0:0,0:0:0:0:
409,296,36090,6,0,L|381:106,1,192,4|0,0:0|0:0,0:0:0:0:
460,23,37084,6,0,L|487:212,1,192,8|0,0:0|0:0,0:0:0:0:
256,192,38079,12,0,39737,0:0:0:0:
288,292,40068,5,0,0:0:0:0:
170,254,40400,1,0,0:0:0:0:
170,129,40731,1,0,0:0:0:0:
288,91,41063,1,0,0:0:0:0:
362,192,41395,1,0,0:0:0:0:
256,192,41726,1,0,0:0:0:0:
256,192,42058,5,2,0:0:0:0:
