osu file format v14

[General]
AudioFilename: audio.mp3
AudioLeadIn: 0
PreviewTime: 281
Countdown: 0
SampleSet: Soft
StackLeniency: 0.7
Mode: 2
LetterboxInBreaks: 0
WidescreenStoryboard: 1

[Editor]
Bookmarks: 6249,10227,24153,32111
DistanceSpacing: 1
BeatDivisor: 2
GridSize: 8
TimelineZoom: 2.5

[Metadata]
Title:Granat
TitleUnicode:Granat
Artist:Drop
ArtistUnicode:Drop
Creator:Cyanus
Version:Platter
Source:
Tags:竜と炎の物語 清風明月 Ryuu to Honoo no Monogatari Dragon and Flame Seifuu Meigetsu c85 instrumental chill
BeatmapID:3509965
BeatmapSetID:1717564

[Difficulty]
HPDrainRate:5
CircleSize:3.5
OverallDifficulty:8
ApproachRate:8
SliderMultiplier:1.6
SliderTickRate:1

[Events]
//Background and Video events
0,0,"bg.jpg",0,0
//Break Periods
//Storyboard Layer 0 (Background)
//Storyboard Layer 1 (Fail)
//Storyboard Layer 2 (Pass)
//Storyboard Layer 3 (Foreground)
//Storyboard Layer 4 (Overlay)
//Storyboard Sound Samples

[TimingPoints]
281,331.5649867374,3,2,1,65,1,0
22164,-100,3,2,1,70,0,0
24153,-100,3,2,1,55,0,0
32111,-100,3,2,1,60,0,1
40068,-100,3,2,1,50,0,0
42058,-100,3,2,1,50,0,0

[Colours]
Combo1 : 203,112,237
Combo2 : 131,235,243
Combo3 : 125,255,125
Combo4 : 247,214,100

[HitObjects]
293,194,281,5,4,0:0:0:0:
133,188,612,2,0,L|120:110,1,80
204,98,944,1,0,0:0:0:0:
443,164,1275,1,2,0:0:0:0:
283,219,1607,1,0,0:0:0:0:
362,223,1773,1,0,0:0:0:0:
442,224,1938,1,0,0:0:0:0:
42,128,2270,6,0,L|21:212,1,80,8|0,0:0|0:0,0:0:0:0:
107,164,2601,2,0,L|208:165,1,80
272,177,2933,2,0,L|248:96,1,80
72,96,3265,1,2,0:0:0:0:
232,93,3596,1,0,0:0:0:0:
312,171,3762,1,0,0:0:0:0:
230,194,3928,1,0,0:0:0:0:
148,218,4093,1,0,0:0:0:0:
324,291,4259,5,8,0:0:0:0:
163,158,4591,2,0,L|79:159,2,80
404,136,5254,1,2,0:0:0:0:
246,227,5586,1,0,0:0:0:0:
166,229,5751,1,0,0:0:0:0:
86,227,5917,1,0,0:0:0:0:
488,194,6249,6,0,L|488:109,1,80,8|0,0:0|0:0,0:0:0:0:
408,201,6580,1,0,0:0:0:0:
327,207,6746,1,0,0:0:0:0:
327,207,6912,1,0,0:0:0:0:
408,201,7078,1,0,0:0:0:0:
233,135,7243,2,0,P|165:143|150:230,1,160,2|0,0:0|0:0,0:0:0:0:
228,243,7741,1,0,0:0:0:0:
308,319,7906,2,0,L|228:318,1,80
478,96,8238,6,0,P|501:239|356:270,1,320,4|0,0:0|0:0,0:0:0:0:
118,127,9233,1,2,0:0:0:0:
278,186,9564,1,0,0:0:0:0:
443,269,9896,1,0,0:0:0:0:
205,264,10227,6,0,L|369:265,2,160,8|0|0,0:0|0:0|0:0,0:0:0:0:
446,98,11222,2,0,P|329:153|222:184,1,240,2|0,0:0|0:0,0:0:0:0:
143,178,11885,1,0,0:0:0:0:
384,169,12217,6,0,L|509:69,2,160,8|0|0,0:0|0:0|0:0,0:0:0:0:
145,130,13212,2,0,L|306:129,2,160,2|0|0,0:0|0:0|0:0,0:0:0:0:
385,197,14206,6,0,P|308:161|234:157,1,160,8|0,0:0|0:0,0:0:0:0:
153,158,14704,1,0,0:0:0:0:
72,232,14869,1,0,0:0:0:0:
153,231,15035,1,0,0:0:0:0:
329,178,15201,1,2,0:0:0:0:
409,182,15367,1,0,0:0:0:0:
329,178,15532,1,0,0:0:0:0:
249,192,15698,1,0,0:0:0:0:
329,178,15864,1,0,0:0:0:0:
409,182,16030,1,0,0:0:0:0:
161,98,16196,6,0,L|1:98,2,160,4|0|0,0:0|0:0|0:0,0:0:0:0:
400,176,17190,1,2,0:0:0:0:
240,182,17522,1,0,0:0:0:0:
81,177,17853,1,0,0:0:0:0:
481,96,18185,6,0,P|498:195|314:259,1,320,4|0,0:0|0:0,0:0:0:0:
85,144,19180,2,0,L|243:81,1,160,2|0,0:0|0:0,0:0:0:0:
152,205,19677,1,0,0:0:0:0:
71,210,19843,1,0,0:0:0:0:
470,153,20174,6,0,L|483:71,1,80,4|0,0:0|0:0,0:0:0:0:
402,156,20506,2,0,L|389:76,1,80
307,113,20838,2,0,L|207:113,1,80
51,226,21169,2,0,L|234:225,2,160,2|0|0,0:0|0:0|0:0,0:0:0:0:
467,110,22164,5,8,0:0:0:0:
467,110,22330,1,2,0:0:0:0:
195,163,22661,1,0,0:0:0:0:
195,163,22827,1,8,0:0:0:0:
435,86,23158,5,2,0:0:0:0:
436,179,23324,1,2,0:0:0:0:
359,244,23490,1,2,0:0:0:0:
268,251,23656,1,0,0:0:0:0:
359,244,23822,1,8,0:0:0:0:
119,100,24153,5,4,0:0:0:0:
199,101,24319,1,0,0:0:0:0:
263,148,24485,1,0,0:0:0:0:
263,226,24651,1,0,0:0:0:0:
181,230,24816,1,0,0:0:0:0:
263,226,24982,1,0,0:0:0:0:
439,230,25148,5,2,0:0:0:0:
184,90,25811,1,0,0:0:0:0:
184,90,25977,1,0,0:0:0:0:
360,73,26143,6,0,L|197:74,1,160,8|0,0:0|0:0,0:0:0:0:
280,186,26640,1,0,0:0:0:0:
360,178,26806,1,0,0:0:0:0:
121,198,27137,1,2,0:0:0:0:
281,84,27469,1,0,0:0:0:0:
342,117,27579,1,0,0:0:0:0:
342,117,27690,1,0,0:0:0:0:
281,84,27800,1,0,0:0:0:0:
201,211,27966,1,0,0:0:0:0:
441,208,28132,6,0,L|508:155,3,80,8|0|0|0,0:0|0:0|0:0|0:0,0:0:0:0:
420,125,28795,1,0,0:0:0:0:
340,139,28961,1,0,0:0:0:0:
165,193,29127,1,2,0:0:0:0:
164,109,29790,1,0,0:0:0:0:
245,116,29956,1,0,0:0:0:0:
422,122,30121,5,8,0:0:0:0:
417,233,30619,1,0,0:0:0:0:
497,270,30784,1,0,0:0:0:0:
417,302,30950,1,0,0:0:0:0:
242,246,31116,1,2,0:0:0:0:
80,149,31448,1,0,0:0:0:0:
19,180,31558,1,0,0:0:0:0:
19,231,31669,1,0,0:0:0:0:
80,251,31779,1,0,0:0:0:0:
175,186,31945,1,0,0:0:0:0:
415,146,32111,5,8,0:0:0:0:
497,143,32277,1,0,0:0:0:0:
418,227,32442,1,0,0:0:0:0:
338,227,32608,1,0,0:0:0:0:
258,230,32774,1,0,0:0:0:0:
338,227,32940,1,0,0:0:0:0:
162,111,33105,5,2,0:0:0:0:
81,194,33271,1,0,0:0:0:0:
160,194,33436,2,0,L|63:193,1,80
2,192,33768,2,0,L|100:195,1,80
322,112,34100,5,8,0:0:0:0:
404,108,34266,1,0,0:0:0:0:
323,178,34431,2,0,L|236:179,1,80
160,184,34763,2,0,L|67:185,1,80
257,85,35095,5,2,0:0:0:0:
337,89,35261,1,0,0:0:0:0:
257,257,35426,2,0,L|355:260,1,80
416,257,35758,2,0,L|318:260,1,80
92,76,36090,5,8,0:0:0:0:
10,130,36255,1,0,0:0:0:0:
9,220,36421,1,0,0:0:0:0:
89,236,36587,1,0,0:0:0:0:
170,177,36753,1,0,0:0:0:0:
89,236,36918,1,0,0:0:0:0:
265,146,37084,6,0,L|176:145,1,80,2|0,0:0|0:0,0:0:0:0:
105,146,37416,2,0,L|187:145,1,80
266,239,37747,1,0,0:0:0:0:
184,239,37913,1,0,0:0:0:0:
424,102,38079,5,8,0:0:0:0:
503,153,38245,1,0,0:0:0:0:
425,199,38410,1,0,0:0:0:0:
345,204,38576,1,0,0:0:0:0:
169,123,38742,2,0,L|263:124,1,80
328,124,39074,2,0,L|245:123,1,80
72,254,39405,5,0,0:0:0:0:
152,256,39571,1,0,0:0:0:0:
233,265,39737,1,0,0:0:0:0:
472,207,40068,5,8,0:0:0:0:
256,192,40400,12,2,42058,0:0:0:0:
