osu file format v14

[General]
AudioFilename: granat.mp3
AudioLeadIn: 0
PreviewTime: 6207
Countdown: 0
SampleSet: None
StackLeniency: 0.3
Mode: 0
LetterboxInBreaks: 0
WidescreenStoryboard: 0

[Editor]
Bookmarks: 281,8238,16196,24153,32111,40068
DistanceSpacing: 1
BeatDivisor: 8
GridSize: 8
TimelineZoom: 1.6

[Metadata]
Title:Granat
TitleUnicode:Granat
Artist:Drop
ArtistUnicode:Drop
Creator:Axarious
Version:an
Source:
Tags:dragon and flame 竜と炎の物語 ryuu to honou no monogatari 清風明月 seifuu meigetsu c85
BeatmapID:1453654
BeatmapSetID:686882

[Difficulty]
HPDrainRate:4
CircleSize:4
OverallDifficulty:8
ApproachRate:9
SliderMultiplier:3.2
SliderTickRate:1

[Events]
//Background and Video events
0,0,"granat.png",0,0
//Break Periods
//Storyboard Layer 0 (Background)
//Storyboard Layer 1 (Fail)
//Storyboard Layer 2 (Pass)
//Storyboard Layer 3 (Foreground)
//Storyboard Sound Samples

[TimingPoints]
281,331.5649867374,3,2,1,50,1,0
1275,-400,3,2,1,50,0,0
1441,-400,3,2,1,50,0,0
1607,-66.6666666666667,3,2,1,50,0,0
2270,-100,3,2,1,50,0,0
2601,-133.333333333333,3,2,1,50,0,0
2933,-200,3,2,1,50,0,0
3265,-400,3,2,1,50,0,0
3513,-400,3,2,0,5,0,0
3596,-66.6666666666667,3,2,1,50,0,0
3928,-400,3,2,1,50,0,0
4259,-100,3,2,1,50,0,0
5254,-400,3,2,1,50,0,0
5420,-400,3,2,1,50,0,0
5586,-66.6666666666667,3,2,1,50,0,0
6249,-100,3,2,1,50,0,0
6580,-133.333333333333,3,2,1,50,0,0
6912,-200,3,2,1,50,0,0
7243,-400,3,2,1,50,0,0
7906,-100,3,2,1,50,0,0
8155,-100,3,2,0,5,0,0
8238,-66.6666666666667,3,2,1,50,0,0
8404,-66.6666666666667,3,2,1,50,0,0
8570,-80,3,2,1,50,0,0
8735,-80,3,2,1,50,0,0
8901,-100,3,2,1,50,0,0
9067,-100,3,2,1,50,0,0
9233,-400,3,2,1,50,0,0
9896,-133.333333333333,3,2,1,50,0,0
10145,-133.333333333333,3,2,0,5,0,0
10227,-66.6666666666667,3,2,1,50,0,0
10393,-66.6666666666667,3,2,1,50,0,0
10559,-80,3,2,1,50,0,0
10725,-80,3,2,1,50,0,0
10891,-100,3,2,1,50,0,0
11056,-100,3,2,1,50,0,0
11222,-100,3,2,1,50,0,0
11512,-100,3,2,1,50,0,0
11595,-100,3,2,1,50,0,0
12134,-100,3,2,0,5,0,0
12217,-133.333333333333,3,2,1,50,0,0
12507,-133.333333333333,3,2,1,20,0,0
12590,-133.333333333333,3,2,1,30,0,0
12839,-133.333333333333,3,2,1,25,0,0
12921,-133.333333333333,3,2,1,35,0,0
13170,-133.333333333333,3,2,1,30,0,0
13253,-133.333333333333,3,2,1,40,0,0
13502,-133.333333333333,3,2,1,25,0,0
13585,-133.333333333333,3,2,1,35,0,0
13833,-133.333333333333,3,2,1,30,0,0
13916,-133.333333333333,3,2,1,40,0,0
14206,-200,3,2,1,50,0,0
14372,-200,3,2,1,50,0,0
14538,-133.333333333333,3,2,1,50,0,0
14704,-133.333333333333,3,2,1,50,0,0
14869,-100,3,2,1,50,0,0
15035,-100,3,2,1,50,0,0
15201,-80,3,2,1,50,0,0
15367,-80,3,2,1,50,0,0
15532,-66.6666666666667,3,2,1,50,0,0
15698,-66.6666666666667,3,2,1,50,0,0
15864,-57.1428571428571,3,2,1,50,0,0
16030,-57.1428571428571,3,2,1,50,0,0
16196,-133.333333333333,3,2,1,50,0,0
16859,-100,3,2,1,50,0,0
17190,-200,3,2,1,50,0,0
18185,-133.333333333333,3,2,1,50,0,0
19180,-100,3,2,1,50,0,0
19843,-66.6666666666667,3,2,1,50,0,0
20092,-66.6666666666667,3,2,0,5,0,0
20174,-100,3,2,1,50,0,0
20506,-100,3,2,1,50,0,0
20672,-80,3,2,1,50,0,0
21003,-80,3,2,1,50,0,0
21169,-133.333333333333,3,2,1,50,0,0
22164,-133.333333333333,3,2,1,50,0,0
22661,-200,3,2,1,50,0,0
23490,-400,3,2,1,50,0,0
24151,-200,3,2,1,50,0,0
25148,-400,3,2,1,50,0,0
25811,-200,3,2,1,50,0,0
26143,-200,3,2,1,50,0,0
27137,-133.333333333333,3,2,1,50,0,0
27469,-200,3,2,1,50,0,0
27800,-100,3,2,1,50,0,0
28132,-133.333333333333,3,2,1,50,0,0
29127,-400,3,2,1,50,0,0
29790,-200,3,2,1,50,0,0
30121,-200,3,2,1,50,0,0
31116,-133.333333333333,3,2,1,50,0,0
31779,-100,3,2,1,50,0,0
32111,-133.333333333333,3,2,1,50,0,0
40068,-400,3,2,1,50,0,0
40400,-400,3,2,1,30,0,0
40731,-400,3,2,1,40,0,0
41063,-400,3,2,1,30,0,0
41395,-400,3,2,1,35,0,0
41726,-400,3,2,1,30,0,0
42058,-400,3,2,1,35,0,0

[Colours]
Combo1 : 145,229,103
Combo2 : 255,213,128
Combo3 : 242,121,97
Combo4 : 255,140,179
Combo5 : 187,103,229
Combo6 : 140,236,255

[HitObjects]
83,114,281,5,4,0:0:0:0:
87,118,612,6,0,B|110:149|103:187|103:187|95:193|95:193|134:209|166:180,2,160,2|2|0,0:0|0:0|0:0,0:0:0:0:
185,280,1109,1,2,3:0:0:0:
328,198,1275,6,0,P|336:179|339:160,1,40,8|0,0:0|0:0,0:0:0:0:
174,81,1607,6,0,B|187:118|187:118|192:120|192:120|188:124|188:124|170:169|197:212|197:212|192:214|192:214|197:217|197:217|195:253|168:277|168:277|177:276|185:280,2,240.000009155274,0|2|2,0:0|0:0|3:0,0:0:0:0:
67,272,2104,1,0,0:0:0:0:
257,162,2270,6,0,B|209:169|165:153|200:129|157:114|109:121,1,160,8|0,0:3|0:0,0:0:0:0:
453,92,2601,6,0,B|424:114|390:120|404:92|370:98|342:120,1,120.000004577637,0|2,3:0|0:0,0:0:0:0:
42,78,2933,6,0,B|50:56|67:41|69:62|87:47|95:25,1,80,2|2,0:0|3:0,0:0:0:0:
118,314,3265,6,0,B|132:304|141:289|125:291|134:276|148:266,1,60,8|0,0:0|0:0,0:0:0:0:
41,305,3596,6,0,B|128:302|99:356|188:353,2,160.000006103516,0|0|0,0:0|0:0|0:0,0:0:0:0:
354,294,3928,6,0,P|334:293|315:297,1,40,0|2,0:0|3:0,0:0:0:0:
114,318,4259,5,2,0:0:0:0:
118,313,4591,6,0,B|146:310|166:298|166:298|169:305|169:305|203:313|237:319|237:319|233:302|235:288,2,160,0|0|2,3:0|0:0|0:0,0:0:0:0:
329,350,5088,1,2,3:0:0:0:
248,137,5254,6,0,P|229:129|210:126,1,40,8|0,0:0|0:0,0:0:0:0:
85,232,5586,6,0,B|137:190|202:213|202:213|206:209|206:209|204:215|204:215|239:255|297:247,2,240.000009155274,0|2|2,0:0|0:0|3:0,0:0:0:0:
276,150,6083,1,0,0:0:0:0:
128,23,6249,6,0,B|121:9|110:0|110:0|74:26|65:81|92:117,1,160,8|0,0:3|0:0,0:0:0:0:
353,85,6580,6,0,B|362:76|366:66|366:66|339:47|298:53|278:81,1,120.000004577637,0|0,0:0|0:0,0:0:0:0:
381,284,6912,6,0,B|388:287|395:287|395:287|402:267|390:242|369:235,1,80,2|2,0:0|3:0,0:0:0:0:
232,374,7243,6,0,B|232:379|233:383|233:383|254:377|269:358|277:333|277:333|285:352|284:373,1,120,8|0,0:0|0:0,0:0:0:0:
381,284,7906,6,0,B|349:300|338:331|338:331|311:258|257:245|257:245|274:266|276:292,1,240,0|0,0:0|0:0,0:0:0:0:
193,299,8238,6,0,B|257:291|320:306|289:354|352:370|415:362,1,240.000009155274,4|0,0:0|0:0,0:0:0:0:
186,106,8570,6,0,B|209:154|213:208|167:195|171:249|193:298,1,200,0|0,3:0|0:0,0:0:0:0:
331,53,8901,6,0,B|300:82|260:98|258:60|218:76|187:105,1,160,0|2,0:0|3:0,0:0:0:0:
402,144,9233,6,0,B|375:128|354:103|381:93|360:68|332:53,1,120,8|0,0:0|0:0,0:0:0:0:
225,129,9896,6,0,P|152:78|64:71,1,180.000006866455,0|0,0:0|0:0,0:0:0:0:
26,0,10227,6,0,B|37:108|37:108|24:129|24:129|35:235,1,240.000009155274,8|0,0:3|0:0,0:0:0:0:
37,248,10559,6,0,B|44:311|44:311|103:302|103:302|115:294|115:294|176:286,1,200,0|0,0:0|0:0,0:0:0:0:
204,214,10891,6,0,B|196:289|196:289|202:300|202:300|195:371,1,160,0|2,0:0|3:0,0:0:0:0:
50,384,11222,6,0,P|263:277|501:264,1,480,8|0,0:0|0:0,0:0:0:0:
214,90,11885,6,0,P|194:208|150:319,1,240,0|0,0:0|0:0,0:0:0:0:
381,260,12217,6,0,B|281:195|207:102|169:-1|169:-1|342:9|463:173|420:353|420:353|540:208|501:24|501:24|479:89|441:138,1,1320.00005035401,8|0,0:3|3:0,0:0:0:0:
329,327,14206,6,0,P|303:356|266:368,1,80,6|0,0:1|3:0,0:0:0:0:
175,309,14538,6,0,P|164:252|192:201,1,120.000004577637,0|6,0:0|0:1,0:0:0:0:
329,146,14869,6,0,P|390:193|399:271,1,160,0|2,0:0|3:0,0:0:0:0:
265,368,15201,6,0,P|168:352|111:273,1,200,8|2,0:0|0:0,0:0:0:0:
134,77,15532,6,0,P|225:7|332:48,1,240.000009155274,0|2,0:0|3:0,0:0:0:0:
436,205,15864,6,0,P|394:332|264:368,1,280.000002670288,0|2,0:0|0:0,0:0:0:0:
237,170,16196,6,0,B|332:217|337:322|337:322|323:301|300:293,1,240.000009155274,4|0,0:0|3:0,0:0:0:0:
363,158,16693,1,0,0:0:0:0:
265,368,16859,6,0,P|339:340|418:333,1,160,0|2,0:0|3:0,0:0:0:0:
148,222,17190,6,0,B|174:320|80:342|80:342|41:212|150:241|116:114,1,400,8|0,0:0|3:0,0:0:0:0:
116,117,18185,6,0,B|110:155|80:180|80:180|239:160|239:160|246:151|246:151|368:140|368:140|407:137|446:151|465:182,1,480.000018310548,4|0,0:0|0:0,0:0:0:0:
470,322,19014,1,2,3:0:0:0:
346,376,19180,6,0,B|216:368|272:104|272:104|249:211|194:240,1,480,8|0,0:0|0:0,0:0:0:0:
196,238,19843,6,0,B|210:262|216:290|216:290|237:151|178:47|178:47|239:53|271:103,1,420.000016021729,2|0,3:0|0:0,0:0:0:0:
271,103,20174,6,0,B|143:84|175:173|46:156,1,240.000009155274,4|0,0:0|0:0,0:0:0:0:
45,1,20506,2,0,P|83:-6|122:3,1,80,2|0,0:0|0:0,0:0:0:0:
271,103,20672,6,0,P|375:201|326:333,1,300,2|0,3:0|0:0,0:0:0:0:
169,326,21003,2,0,P|133:292|118:244,1,100,2|0,3:0|0:0,0:0:0:0:
271,103,21169,6,0,B|265:184|265:184|256:195|256:195|249:279,1,180.000006866455,8|0,0:0|0:0,0:0:0:0:
369,304,21501,5,2,0:0:0:0:
313,17,21666,5,2,0:0:0:0:
84,61,21832,5,2,0:0:0:0:
119,245,21998,5,2,3:0:0:0:
266,217,22164,6,0,L|244:98,1,120,4|8,0:0|0:1,0:0:0:0:
244,98,22661,6,0,L|165:112,1,80,8|12,0:3|0:0,0:0:0:0:
165,112,23158,5,14,0:1:0:0:
176,175,23324,5,8,0:0:0:0:
226,166,23490,6,0,L|304:151,1,80,8|8,0:3|0:3,0:0:0:0:
382,135,24153,5,2,1:2:0:0:
409,180,24319,1,0,0:2:0:0:
403,267,24485,1,2,0:0:0:0:
318,337,24651,1,0,0:2:0:0:
197,313,24816,1,2,0:0:0:0:
90,316,24982,1,2,0:2:0:0:
0,344,25148,6,0,P|0:287|21:226,1,120,2|0,3:0|0:0,0:0:0:0:
157,148,25811,6,0,P|121:165|82:175,1,80,2|2,0:0|0:0,0:0:0:0:
357,223,26143,6,0,B|282:266|252:176|128:261,1,240,6|2,0:1|0:0,0:0:0:0:
21,13,26806,2,0,P|8:50|15:89,1,80,2|0,0:0|0:0,0:0:0:0:
345,137,27137,6,0,P|286:139|237:105,1,120.000004577637,10|0,0:3|0:0,0:0:0:0:
93,154,27469,5,2,0:0:0:0:
128,189,27579,5,2,0:0:0:0:
141,141,27690,5,0,0:0:0:0:
120,161,27800,6,0,P|159:229|167:308,1,160,2|0,0:0|0:0,0:0:0:0:
459,303,28132,5,6,0:1:0:0:
415,326,28298,1,0,0:0:0:0:
327,326,28464,1,2,0:0:0:0:
245,256,28629,1,2,0:0:0:0:
226,130,28795,1,0,0:0:0:0:
178,44,28961,1,2,0:0:0:0:
96,22,29127,6,0,P|73:76|86:133,1,120,2|0,3:2|0:0,0:0:0:0:
245,222,29790,6,0,P|205:220|168:204,1,80,2|2,0:0|0:0,0:0:0:0:
286,294,30121,6,0,P|384:226|499:195,1,240,6|2,0:1|0:0,0:0:0:0:
336,41,30784,2,0,P|343:80|365:112,1,80,2|0,0:0|0:0,0:0:0:0:
434,376,31116,6,0,P|455:320|446:262,1,120.000004577637,6|0,0:1|0:0,0:0:0:0:
251,211,31448,5,2,0:0:0:0:
234,288,31558,5,2,0:0:0:0:
310,265,31669,5,0,0:0:0:0:
264,253,31779,6,0,P|190:281|111:290,1,160,2|0,0:0|0:0,0:0:0:0:
155,117,32111,5,6,0:1:0:0:
272,80,32277,1,0,0:0:0:0:
382,130,32442,1,0,0:0:0:0:
425,225,32608,1,2,0:0:0:0:
401,316,32774,1,2,0:0:0:0:
365,354,32940,1,0,0:0:0:0:
330,369,33105,5,2,3:2:0:0:
369,243,33271,1,0,0:0:0:0:
323,121,33437,1,0,3:0:0:0:
231,49,33603,1,2,0:0:0:0:
116,40,33769,1,2,3:2:0:0:
54,51,33934,1,0,0:0:0:0:
11,80,34100,5,8,3:0:0:0:
137,61,34266,1,0,0:0:0:0:
223,129,34432,1,0,0:0:0:0:
242,227,34597,1,2,0:0:0:0:
201,302,34763,1,2,0:0:0:0:
125,328,34929,1,0,0:0:0:0:
63,309,35095,5,2,3:2:0:0:
188,379,35261,1,0,0:0:0:0:
334,351,35426,1,0,3:0:0:0:
408,267,35592,1,2,0:0:0:0:
427,156,35758,1,2,3:2:0:0:
392,67,35924,1,0,0:0:0:0:
317,24,36090,5,6,0:1:0:0:
368,178,36255,1,0,0:0:0:0:
314,313,36421,1,0,0:0:0:0:
183,357,36587,1,2,0:0:0:0:
66,320,36753,1,2,0:0:0:0:
3,219,36918,1,0,0:0:0:0:
11,124,37084,5,2,3:2:0:0:
140,282,37250,1,0,0:0:0:0:
314,313,37416,1,2,3:0:0:0:
470,241,37582,1,0,0:0:0:0:
512,135,37747,1,0,3:0:0:0:
487,45,37913,1,0,0:0:0:0:
414,8,38079,5,6,0:1:0:0:
418,156,38245,5,2,0:0:0:0:
354,272,38410,5,0,0:0:0:0:
222,309,38576,5,2,0:0:0:0:
96,258,38742,5,2,0:3:0:0:
54,139,38908,5,0,0:0:0:0:
93,38,39074,5,2,0:0:0:0:
187,2,39239,5,0,0:0:0:0:
271,41,39405,5,2,0:0:0:0:
296,123,39571,5,0,0:0:0:0:
256,192,39737,5,0,0:0:0:0:
256,192,40068,6,0,B|225:253|273:300|341:308|391:249|418:155|343:58|237:53|168:128,1,480,2|2,3:0|0:0,0:0:0:0:
