osu file format v14

[General]
AudioFilename: audio.mp3
AudioLeadIn: 0
PreviewTime: 281
Countdown: 1
SampleSet: Normal
StackLeniency: 0.7
Mode: 1
LetterboxInBreaks: 0
WidescreenStoryboard: 0

[Editor]
DistanceSpacing: 1
BeatDivisor: 4
GridSize: 4
TimelineZoom: 0.6000001

[Metadata]
Title:Granat
TitleUnicode:Granat
Artist:Drop
ArtistUnicode:Drop
Creator:-Leafeon
Version:Oni
Source:
Tags:seifuu meigetsu ryuu to honoo no monogatari dragon and flame 竜と炎の物語清風明月
BeatmapID:1771428
BeatmapSetID:846995

[Difficulty]
HPDrainRate:7
CircleSize:5
OverallDifficulty:5
ApproachRate:5
SliderMultiplier:1.4
SliderTickRate:1

[Events]
//Background and Video events
0,0,"anime_bg.png",0,0
//Break Periods
//Storyboard Layer 0 (Background)
//Storyboard Layer 1 (Fail)
//Storyboard Layer 2 (Pass)
//Storyboard Layer 3 (Foreground)
//Storyboard Sound Samples

[TimingPoints]
281,331.5649867374,3,1,0,80,1,0

[HitObjects]
255,191,281,5,12,0:0:0:0:
255,191,613,1,0,0:0:0:0:
255,191,778,1,8,0:0:0:0:
255,191,944,1,0,0:0:0:0:
255,191,1275,1,8,0:0:0:0:
260,189,1607,1,0,0:0:0:0:
255,191,1773,1,8,0:0:0:0:
255,191,1938,1,0,0:0:0:0:
255,191,2270,1,0,0:0:0:0:
254,189,2436,1,8,0:0:0:0:
254,189,2601,1,0,0:0:0:0:
255,191,2767,1,8,0:0:0:0:
249,189,2933,1,0,0:0:0:0:
249,189,3016,1,0,0:0:0:0:
255,191,3099,1,8,0:0:0:0:
249,189,3265,1,8,0:0:0:0:
254,189,3596,1,8,0:0:0:0:
255,191,3707,1,0,0:0:0:0:
255,191,3817,1,0,0:0:0:0:
249,189,3928,1,8,0:0:0:0:
249,190,4093,1,0,0:0:0:0:
249,189,4259,1,12,0:0:0:0:
249,191,4591,1,0,0:0:0:0:
248,192,4757,1,8,0:0:0:0:
249,189,4922,1,0,0:0:0:0:
249,189,5254,1,8,0:0:0:0:
249,191,5586,1,0,0:0:0:0:
248,192,5751,1,8,0:0:0:0:
249,189,5917,1,0,0:0:0:0:
249,189,6249,1,0,0:0:0:0:
249,191,6580,1,0,0:0:0:0:
248,192,6746,1,0,0:0:0:0:
249,189,6912,1,8,0:0:0:0:
249,189,7078,1,0,0:0:0:0:
249,189,7160,1,0,0:0:0:0:
249,189,7243,1,8,0:0:0:0:
249,191,7575,1,8,0:0:0:0:
237,187,7741,1,0,0:0:0:0:
249,189,7906,1,8,0:0:0:0:
249,189,8238,1,4,0:0:0:0:
249,191,8570,1,0,0:0:0:0:
249,189,8735,1,0,0:0:0:0:
249,189,8901,1,0,0:0:0:0:
249,189,9067,1,0,0:0:0:0:
254,189,9233,1,8,0:0:0:0:
251,184,9564,1,8,0:0:0:0:
251,184,9896,1,8,0:0:0:0:
254,189,10227,1,0,0:0:0:0:
257,187,10559,1,0,0:0:0:0:
257,188,10725,1,0,0:0:0:0:
259,189,10891,1,8,0:0:0:0:
257,187,11056,1,0,0:0:0:0:
254,189,11222,1,8,0:0:0:0:
257,187,11554,1,8,0:0:0:0:
259,189,11719,1,8,0:0:0:0:
257,188,11885,1,0,0:0:0:0:
259,187,12217,1,4,0:0:0:0:
257,187,12548,1,8,0:0:0:0:
259,189,12714,1,0,0:0:0:0:
257,188,12880,1,8,0:0:0:0:
259,187,13046,1,0,0:0:0:0:
259,187,13212,1,8,0:0:0:0:
257,187,13543,1,8,0:0:0:0:
257,188,13875,1,8,0:0:0:0:
257,191,14206,1,8,0:0:0:0:
257,187,14372,1,8,0:0:0:0:
257,187,14538,1,0,0:0:0:0:
257,188,14704,1,8,0:0:0:0:
257,188,14869,1,0,0:0:0:0:
254,190,15035,1,0,0:0:0:0:
253,187,15201,1,8,0:0:0:0:
257,187,15367,1,8,0:0:0:0:
257,187,15532,1,0,0:0:0:0:
257,188,15698,1,8,0:0:0:0:
257,188,15864,1,8,0:0:0:0:
254,190,16030,1,0,0:0:0:0:
257,189,16196,1,4,0:0:0:0:
257,187,16527,1,0,0:0:0:0:
257,188,16693,1,0,0:0:0:0:
257,188,16859,1,0,0:0:0:0:
257,189,17025,1,0,0:0:0:0:
257,189,17190,1,8,0:0:0:0:
257,187,17522,1,8,0:0:0:0:
257,188,17853,1,8,0:0:0:0:
257,189,18185,1,4,0:0:0:0:
251,189,18517,1,0,0:0:0:0:
251,190,18682,1,0,0:0:0:0:
257,188,18848,1,8,0:0:0:0:
257,189,19014,1,0,0:0:0:0:
257,189,19180,1,8,0:0:0:0:
258,190,19511,1,8,0:0:0:0:
251,190,19677,1,8,0:0:0:0:
257,188,19843,1,0,0:0:0:0:
257,189,20174,1,4,0:0:0:0:
251,190,20506,1,8,0:0:0:0:
258,190,20672,1,0,0:0:0:0:
257,188,20838,1,8,0:0:0:0:
258,190,21003,1,0,0:0:0:0:
257,189,21169,1,8,0:0:0:0:
257,190,21501,1,8,0:0:0:0:
257,188,21832,1,8,0:0:0:0:
251,186,22164,1,0,0:0:0:0:
252,186,22330,1,12,0:0:0:0:
257,188,22661,1,0,0:0:0:0:
260,190,22827,1,12,0:0:0:0:
254,192,23158,1,12,0:0:0:0:
256,189,23324,1,12,0:0:0:0:
257,188,23490,1,0,0:0:0:0:
256,185,23822,1,0,0:0:0:0:
254,192,24153,1,0,0:0:0:0:
256,189,24319,1,8,0:0:0:0:
257,188,24485,1,0,0:0:0:0:
256,185,24651,1,8,0:0:0:0:
256,185,24816,1,0,0:0:0:0:
261,187,24982,1,0,0:0:0:0:
258,181,25148,1,8,0:0:0:0:
256,185,25811,1,0,0:0:0:0:
257,187,25977,1,0,0:0:0:0:
254,185,26143,1,8,0:0:0:0:
256,185,26640,1,8,0:0:0:0:
256,185,26806,1,8,0:0:0:0:
254,185,27137,1,0,0:0:0:0:
256,185,27469,1,0,0:0:0:0:
256,185,27579,1,0,0:0:0:0:
256,185,27690,1,0,0:0:0:0:
256,185,27800,1,8,0:0:0:0:
254,185,27966,1,8,0:0:0:0:
254,185,28132,1,0,0:0:0:0:
256,185,28298,1,0,0:0:0:0:
256,185,28464,1,8,0:0:0:0:
250,185,28629,1,0,0:0:0:0:
256,185,28795,1,8,0:0:0:0:
254,185,28961,1,8,0:0:0:0:
254,185,29127,1,8,0:0:0:0:
248,187,29790,1,0,0:0:0:0:
254,185,29956,1,8,0:0:0:0:
242,185,30121,1,8,0:0:0:0:
252,186,30619,1,0,0:0:0:0:
248,187,30784,1,0,0:0:0:0:
254,185,30950,1,8,0:0:0:0:
257,191,31116,1,8,0:0:0:0:
253,191,31448,1,8,0:0:0:0:
253,191,31558,1,8,0:0:0:0:
253,191,31669,1,8,0:0:0:0:
260,191,31779,1,8,0:0:0:0:
259,185,31945,1,0,0:0:0:0:
257,191,32111,1,8,0:0:0:0:
253,185,32277,1,0,0:0:0:0:
253,191,32442,1,0,0:0:0:0:
253,191,32608,1,8,0:0:0:0:
254,190,32774,1,8,0:0:0:0:
253,189,32940,1,0,0:0:0:0:
257,191,33105,1,8,0:0:0:0:
256,189,33271,1,8,0:0:0:0:
253,191,33437,1,0,0:0:0:0:
257,187,33603,1,8,0:0:0:0:
250,196,33769,1,0,0:0:0:0:
253,189,33934,1,0,0:0:0:0:
257,191,34100,1,8,0:0:0:0:
254,194,34266,1,0,0:0:0:0:
256,198,34432,1,0,0:0:0:0:
250,196,34597,1,8,0:0:0:0:
255,196,34763,1,8,0:0:0:0:
253,196,34929,1,0,0:0:0:0:
256,197,35095,1,8,0:0:0:0:
255,196,35261,1,8,0:0:0:0:
256,198,35426,1,0,0:0:0:0:
258,193,35592,1,8,0:0:0:0:
253,196,35758,1,0,0:0:0:0:
254,194,35924,1,0,0:0:0:0:
255,190,36090,1,8,0:0:0:0:
250,193,36255,1,0,0:0:0:0:
248,190,36421,1,0,0:0:0:0:
249,190,36587,1,8,0:0:0:0:
249,193,36753,1,8,0:0:0:0:
247,193,36918,1,0,0:0:0:0:
247,192,37084,1,8,0:0:0:0:
250,193,37250,1,8,0:0:0:0:
252,195,37416,1,0,0:0:0:0:
251,194,37582,1,8,0:0:0:0:
249,193,37747,1,0,0:0:0:0:
247,193,37913,1,0,0:0:0:0:
247,192,38079,1,8,0:0:0:0:
249,193,38245,1,0,0:0:0:0:
246,192,38410,1,8,0:0:0:0:
257,189,38576,1,8,0:0:0:0:
247,197,38742,1,8,0:0:0:0:
247,193,38908,1,0,0:0:0:0:
252,189,39074,1,8,0:0:0:0:
252,189,39239,1,0,0:0:0:0:
256,188,39405,1,8,0:0:0:0:
257,189,39571,1,0,0:0:0:0:
252,189,39737,1,0,0:0:0:0:
253,195,40068,1,0,0:0:0:0:
253,195,40400,1,0,0:0:0:0:
253,195,40731,1,0,0:0:0:0:
253,195,41063,1,0,0:0:0:0:
258,193,41395,1,8,0:0:0:0:
258,194,41726,1,0,0:0:0:0:
254,186,42058,1,8,0:0:0:0:
