osu file format v14

[General]
AudioFilename: audio.mp3
AudioLeadIn: 0
PreviewTime: 281
Countdown: 1
SampleSet: Normal
StackLeniency: 0.7
Mode: 1
LetterboxInBreaks: 0
WidescreenStoryboard: 1

[Editor]
DistanceSpacing: 1
BeatDivisor: 2
GridSize: 4
TimelineZoom: 1.6

[Metadata]
Title:Granat
TitleUnicode:Granat
Artist:Drop
ArtistUnicode:Drop
Creator:-Leafeon
Version:Futsuu
Source:
Tags:seifuu meigetsu ryuu to honoo no monogatari dragon and flame 竜と炎の物語清風明月
BeatmapID:1771426
BeatmapSetID:846995

[Difficulty]
HPDrainRate:8
CircleSize:5
OverallDifficulty:4
ApproachRate:5
SliderMultiplier:1.4
SliderTickRate:1

[Events]
//Background and Video events
0,0,"anime_bg.png",0,0
//Break Periods
//Storyboard Layer 0 (Background)
//Storyboard Layer 1 (Fail)
//Storyboard Layer 2 (Pass)
//Storyboard Layer 3 (Foreground)
//Storyboard Sound Samples

[TimingPoints]
281,331.5649867374,3,1,0,80,1,0

[HitObjects]
255,191,281,5,12,0:0:0:0:
255,191,778,1,8,0:0:0:0:
255,191,944,1,0,0:0:0:0:
260,193,1275,1,8,0:0:0:0:
255,191,1773,1,8,0:0:0:0:
255,191,1938,1,0,0:0:0:0:
255,191,2270,1,0,0:0:0:0:
249,189,2933,1,0,0:0:0:0:
249,189,3265,1,8,0:0:0:0:
254,189,3596,1,8,0:0:0:0:
249,189,3928,1,0,0:0:0:0:
249,189,4259,1,12,0:0:0:0:
248,192,4757,1,8,0:0:0:0:
249,189,4922,1,0,0:0:0:0:
249,189,5254,1,8,0:0:0:0:
248,192,5751,1,8,0:0:0:0:
249,189,5917,1,0,0:0:0:0:
249,191,6249,1,0,0:0:0:0:
249,189,6912,1,8,0:0:0:0:
249,189,7243,1,8,0:0:0:0:
249,191,7741,1,8,0:0:0:0:
249,189,7906,1,0,0:0:0:0:
249,189,8238,1,4,0:0:0:0:
249,189,8901,1,0,0:0:0:0:
254,189,9233,1,8,0:0:0:0:
261,134,10227,1,0,0:0:0:0:
257,187,10559,1,0,0:0:0:0:
259,189,10891,1,0,0:0:0:0:
254,189,11222,1,8,0:0:0:0:
259,189,11719,1,8,0:0:0:0:
257,188,11885,1,0,0:0:0:0:
259,187,12217,1,4,0:0:0:0:
257,188,12880,1,0,0:0:0:0:
259,187,13212,1,8,0:0:0:0:
257,187,13543,1,8,0:0:0:0:
257,191,14206,1,8,0:0:0:0:
257,187,14372,1,0,0:0:0:0:
257,187,14538,1,8,0:0:0:0:
257,188,14869,1,0,0:0:0:0:
253,187,15201,1,8,0:0:0:0:
257,187,15532,1,0,0:0:0:0:
230,195,15698,1,8,0:0:0:0:
257,188,15864,1,0,0:0:0:0:
257,189,16196,1,4,0:0:0:0:
257,188,16859,1,0,0:0:0:0:
257,189,17190,1,8,0:0:0:0:
257,189,18185,1,4,0:0:0:0:
251,189,18517,1,0,0:0:0:0:
257,188,18848,1,0,0:0:0:0:
257,189,19180,1,8,0:0:0:0:
191,124,19677,1,8,0:0:0:0:
257,188,19843,1,0,0:0:0:0:
257,189,20174,1,4,0:0:0:0:
55,53,20838,1,0,0:0:0:0:
257,190,21169,1,8,0:0:0:0:
257,188,21501,1,8,0:0:0:0:
249,188,22164,1,0,0:0:0:0:
252,186,22330,1,8,0:0:0:0:
249,188,22661,1,0,0:0:0:0:
260,190,22827,1,8,0:0:0:0:
254,192,23158,1,8,0:0:0:0:
256,189,23324,1,8,0:0:0:0:
257,188,23490,1,0,0:0:0:0:
256,185,23822,1,0,0:0:0:0:
254,192,24153,1,0,0:0:0:0:
256,185,24816,1,8,0:0:0:0:
258,181,25148,1,0,0:0:0:0:
256,185,25811,1,0,0:0:0:0:
254,185,26143,1,8,0:0:0:0:
256,185,26640,1,8,0:0:0:0:
256,185,26806,1,8,0:0:0:0:
254,185,27137,1,0,0:0:0:0:
256,185,27469,1,0,0:0:0:0:
256,185,27800,1,8,0:0:0:0:
254,185,28132,1,0,0:0:0:0:
256,185,28795,1,8,0:0:0:0:
254,185,29127,1,8,0:0:0:0:
248,187,29790,1,0,0:0:0:0:
242,185,30121,1,8,0:0:0:0:
248,187,30784,1,0,0:0:0:0:
257,191,31116,1,8,0:0:0:0:
253,191,31448,1,8,0:0:0:0:
260,191,31779,1,0,0:0:0:0:
257,191,32111,1,8,0:0:0:0:
259,184,32608,1,8,0:0:0:0:
187,103,32774,1,0,0:0:0:0:
257,191,33105,1,8,0:0:0:0:
256,195,33437,1,0,0:0:0:0:
253,191,33603,1,8,0:0:0:0:
256,189,33769,1,0,0:0:0:0:
257,191,34100,1,8,0:0:0:0:
255,196,34597,1,8,0:0:0:0:
257,191,34763,1,0,0:0:0:0:
133,7,35095,1,8,0:0:0:0:
253,191,36089,1,8,0:0:0:0:
256,195,36421,1,0,0:0:0:0:
257,191,36587,1,8,0:0:0:0:
256,189,36753,1,0,0:0:0:0:
255,196,37084,1,8,0:0:0:0:
257,191,37582,1,8,0:0:0:0:
253,191,37747,1,0,0:0:0:0:
254,190,38079,1,8,0:0:0:0:
257,191,38410,1,8,0:0:0:0:
253,191,38742,1,0,0:0:0:0:
256,189,39074,1,8,0:0:0:0:
257,191,39405,1,0,0:0:0:0:
256,198,39571,1,8,0:0:0:0:
255,196,39737,1,0,0:0:0:0:
255,194,40068,1,0,0:0:0:0:
253,195,40731,1,0,0:0:0:0:
258,193,41395,1,8,0:0:0:0:
258,194,41726,1,0,0:0:0:0:
254,186,42058,1,8,0:0:0:0:
