osu file format v14

[General]
AudioFilename: audio.mp3
AudioLeadIn: 0
PreviewTime: 111920
Countdown: 0
SampleSet: Normal
StackLeniency: 0
Mode: 0
LetterboxInBreaks: 0
WidescreenStoryboard: 0

[Editor]
Bookmarks: 30800,37040,38480,44240,46160,52880,53840,56720,57680,59600,60080,61520,64400,65360,68240,69200,71120,72080,73040,74960,76880,80720,83600,84560,87920,88400,92240,98720,100640,102560,104480,106400,107360,108320,109520,110000,111920,113840,124400,125360,127280,129200,134960,136880,140720,144560,146480,148400,149360,150320,155600,156080,158000,159920,167600,168560,169520,170480,171440,172400,173360,175280,179120,181040,182000,182960,184880,186800,188720,189680,193520,194480,198320,201200,202160,204080,206000,209840,217520,219920,221360,229040,232880,236720
DistanceSpacing: 0.8
BeatDivisor: 4
GridSize: 16
TimelineZoom: 1.400001

[Metadata]
Title:Lessons from Grandpa
TitleUnicode:Lessons from Grandpa
Artist:Drokz
ArtistUnicode:Drokz
Creator:Daxxel
Version:|)1St0rT10N
Source:
Tags:
BeatmapID:1554676
BeatmapSetID:736670

[Difficulty]
HPDrainRate:6.5
CircleSize:4
OverallDifficulty:8
ApproachRate:9.8
SliderMultiplier:2.1
SliderTickRate:1

[Events]
//Background and Video events
0,0,"maxresdefault.jpg",0,0
//Break Periods
//Storyboard Layer 0 (Background)
//Storyboard Layer 1 (Fail)
//Storyboard Layer 2 (Pass)
//Storyboard Layer 3 (Foreground)
//Storyboard Sound Samples

[TimingPoints]
15440,240,4,1,1,40,1,0
15440,-200,4,1,1,40,0,0
30800,-125,4,1,1,70,0,0
30920,-125,4,1,1,5,0,0
31040,-125,4,1,1,70,0,0
31160,-125,4,1,1,5,0,0
31280,-125,4,1,1,70,0,0
31400,-125,4,1,1,5,0,0
31520,-125,4,1,1,70,0,0
31640,-125,4,1,1,5,0,0
31760,-125,4,1,1,70,0,0
31880,-125,4,1,1,5,0,0
32000,-125,4,1,1,70,0,0
32120,-125,4,1,1,5,0,0
32240,-125,4,1,1,70,0,0
32360,-125,4,1,1,5,0,0
32480,-125,4,1,1,70,0,0
32600,-125,4,1,1,5,0,0
32720,-125,4,1,1,70,0,0
32840,-125,4,1,1,5,0,0
32960,-125,4,1,1,70,0,0
33080,-125,4,1,1,5,0,0
33200,-125,4,1,1,70,0,0
33320,-125,4,1,1,5,0,0
33440,-125,4,1,1,70,0,0
33560,-125,4,1,1,5,0,0
33680,-125,4,1,1,70,0,0
33800,-125,4,1,1,5,0,0
33920,-125,4,1,1,70,0,0
34040,-125,4,1,1,5,0,0
34160,-125,4,1,1,70,0,0
34280,-125,4,1,1,5,0,0
34400,-125,4,1,1,70,0,0
34520,-125,4,1,1,5,0,0
34640,-125,4,1,1,70,0,0
34760,-125,4,1,1,5,0,0
34880,-125,4,1,1,70,0,0
35000,-125,4,1,1,5,0,0
35120,-125,4,1,1,70,0,0
35240,-125,4,1,1,5,0,0
35360,-125,4,1,1,70,0,0
35480,-125,4,1,1,5,0,0
35600,-125,4,1,1,70,0,0
35720,-125,4,1,1,5,0,0
35840,-125,4,1,1,70,0,0
35960,-125,4,1,1,5,0,0
36080,-125,4,1,1,70,0,0
36200,-125,4,1,1,5,0,0
36320,-125,4,1,1,70,0,0
36440,-125,4,1,1,5,0,0
36560,-125,4,1,1,70,0,0
36680,-125,4,1,1,5,0,0
36800,-125,4,1,1,70,0,0
36920,-125,4,1,1,5,0,0
38480,-100,4,1,1,70,0,0
38600,-100,4,1,1,5,0,0
38720,-100,4,1,1,70,0,0
38840,-100,4,1,1,5,0,0
38960,-100,4,1,1,70,0,0
39080,-100,4,1,1,5,0,0
39200,-100,4,1,1,70,0,0
39320,-100,4,1,1,5,0,0
39440,-100,4,1,1,70,0,0
39560,-100,4,1,1,5,0,0
39680,-100,4,1,1,70,0,0
39800,-100,4,1,1,5,0,0
39920,-100,4,1,1,70,0,0
40040,-100,4,1,1,5,0,0
40160,-100,4,1,1,70,0,0
40280,-100,4,1,1,5,0,0
40400,-100,4,1,1,50,0,0
40520,-100,4,1,1,40,0,0
40640,-100,4,1,1,50,0,0
40760,-100,4,1,1,40,0,0
40880,-100,4,1,1,70,0,0
41000,-100,4,1,1,5,0,0
41120,-100,4,1,1,50,0,0
41240,-100,4,1,1,5,0,0
41360,-100,4,1,1,50,0,0
41480,-100,4,1,1,5,0,0
41600,-100,4,1,1,70,0,0
41720,-100,4,1,1,5,0,0
41840,-100,4,1,1,70,0,0
41960,-100,4,1,1,5,0,0
42080,-100,4,1,1,70,0,0
42320,-100,4,1,1,70,0,0
42440,-100,4,1,1,5,0,0
42560,-100,4,1,1,70,0,0
42680,-100,4,1,1,5,0,0
42800,-100,4,1,1,70,0,0
42920,-100,4,1,1,5,0,0
43040,-100,4,1,1,70,0,0
43160,-100,4,1,1,5,0,0
43280,-100,4,1,1,70,0,0
43400,-100,4,1,1,5,0,0
43520,-100,4,1,1,70,0,0
43640,-100,4,1,1,5,0,0
43760,-100,4,1,1,70,0,0
43880,-100,4,1,1,5,0,0
44000,-100,4,1,1,70,0,0
44120,-100,4,1,1,5,0,0
46160,-83.3333333333333,4,1,1,70,0,0
46280,-83.3333333333333,4,1,1,5,0,0
46400,-83.3333333333333,4,1,1,70,0,0
46520,-83.3333333333333,4,1,1,5,0,0
46640,-83.3333333333333,4,1,1,70,0,0
46760,-83.3333333333333,4,1,1,5,0,0
46880,-83.3333333333333,4,1,1,70,0,0
47000,-83.3333333333333,4,1,1,5,0,0
47120,-83.3333333333333,4,1,1,70,0,0
47240,-83.3333333333333,4,1,1,5,0,0
47360,-83.3333333333333,4,1,1,70,0,0
47480,-83.3333333333333,4,1,1,5,0,0
47600,-83.3333333333333,4,1,1,70,0,0
47720,-83.3333333333333,4,1,1,5,0,0
47840,-71.4285714285714,4,1,1,70,0,0
47900,-71.4285714285714,4,1,1,5,0,0
47960,-71.4285714285714,4,1,1,70,0,0
48020,-71.4285714285714,4,1,1,5,0,0
48080,-83.3333333333333,4,1,1,70,0,0
48200,-83.3333333333333,4,1,1,5,0,0
48320,-83.3333333333333,4,1,1,70,0,0
48440,-83.3333333333333,4,1,1,5,0,0
48560,-83.3333333333333,4,1,1,70,0,0
48680,-83.3333333333333,4,1,1,5,0,0
48800,-83.3333333333333,4,1,1,70,0,0
48920,-83.3333333333333,4,1,1,5,0,0
49040,-83.3333333333333,4,1,1,70,0,0
49160,-83.3333333333333,4,1,1,5,0,0
49280,-83.3333333333333,4,1,1,70,0,0
49400,-83.3333333333333,4,1,1,5,0,0
49520,-83.3333333333333,4,1,1,70,0,0
50000,-83.3333333333333,4,1,1,70,0,0
50120,-83.3333333333333,4,1,1,5,0,0
50240,-83.3333333333333,4,1,1,70,0,0
50360,-83.3333333333333,4,1,1,5,0,0
50480,-83.3333333333333,4,1,1,70,0,0
50600,-83.3333333333333,4,1,1,5,0,0
50720,-83.3333333333333,4,1,1,70,0,0
50840,-83.3333333333333,4,1,1,5,0,0
50960,-83.3333333333333,4,1,1,70,0,0
51080,-83.3333333333333,4,1,1,5,0,0
51200,-83.3333333333333,4,1,1,70,0,0
51320,-83.3333333333333,4,1,1,5,0,0
51440,-83.3333333333333,4,1,1,70,0,0
51560,-83.3333333333333,4,1,1,5,0,0
51680,-83.3333333333333,4,1,1,70,0,0
51800,-83.3333333333333,4,1,1,5,0,0
51920,-83.3333333333333,4,1,1,70,0,0
52040,-83.3333333333333,4,1,1,5,0,0
52160,-83.3333333333333,4,1,1,70,0,0
52280,-83.3333333333333,4,1,1,5,0,0
52400,-83.3333333333333,4,1,1,70,0,0
52520,-83.3333333333333,4,1,1,5,0,0
52640,-83.3333333333333,4,1,1,70,0,0
52760,-83.3333333333333,4,1,1,5,0,0
53840,-76.9230769230769,4,1,1,70,0,0
53960,-76.9230769230769,4,1,1,5,0,0
54080,-76.9230769230769,4,1,1,70,0,0
54200,-76.9230769230769,4,1,1,5,0,0
54320,-76.9230769230769,4,1,1,70,0,0
54440,-76.9230769230769,4,1,1,5,0,0
54560,-76.9230769230769,4,1,1,70,0,0
54680,-76.9230769230769,4,1,1,5,0,0
54800,-76.9230769230769,4,1,1,70,0,0
54920,-76.9230769230769,4,1,1,5,0,0
55040,-76.9230769230769,4,1,1,70,0,0
55160,-76.9230769230769,4,1,1,5,0,0
55280,-76.9230769230769,4,1,1,70,0,0
55400,-76.9230769230769,4,1,1,5,0,0
55520,-76.9230769230769,4,1,1,70,0,0
55640,-76.9230769230769,4,1,1,5,0,0
55760,-76.9230769230769,4,1,1,70,0,0
55880,-76.9230769230769,4,1,1,5,0,0
56000,-76.9230769230769,4,1,1,70,0,0
56120,-76.9230769230769,4,1,1,5,0,0
56240,-76.9230769230769,4,1,1,70,0,0
56360,-76.9230769230769,4,1,1,5,0,0
56480,-76.9230769230769,4,1,1,70,0,0
56600,-76.9230769230769,4,1,1,5,0,0
56720,-55.5555555555556,4,1,1,70,0,0
56840,-55.5555555555556,4,1,1,5,0,0
56960,-55.5555555555556,4,1,1,70,0,0
57080,-55.5555555555556,4,1,1,5,0,0
57200,-55.5555555555556,4,1,1,70,0,0
57260,-55.5555555555556,4,1,1,5,0,0
57320,-55.5555555555556,4,1,1,70,0,0
57380,-55.5555555555556,4,1,1,5,0,0
57440,-55.5555555555556,4,1,1,70,0,0
57500,-55.5555555555556,4,1,1,5,0,0
57560,-55.5555555555556,4,1,1,70,0,0
57620,-55.5555555555556,4,1,1,5,0,0
57680,-76.9230769230769,4,1,1,70,0,0
57800,-76.9230769230769,4,1,1,5,0,0
57920,-76.9230769230769,4,1,1,70,0,0
58040,-76.9230769230769,4,1,1,5,0,0
58160,-76.9230769230769,4,1,1,70,0,0
58280,-76.9230769230769,4,1,1,5,0,0
58400,-76.9230769230769,4,1,1,70,0,0
58520,-76.9230769230769,4,1,1,5,0,0
58640,-76.9230769230769,4,1,1,70,0,0
58760,-76.9230769230769,4,1,1,50,0,0
58880,-76.9230769230769,4,1,1,70,0,0
59000,-76.9230769230769,4,1,1,50,0,0
59120,-76.9230769230769,4,1,1,70,0,0
59240,-76.9230769230769,4,1,1,5,0,0
59360,-76.9230769230769,4,1,1,70,0,0
59480,-76.9230769230769,4,1,1,5,0,0
59600,-50,4,1,1,70,0,0
59720,-50,4,1,1,5,0,0
59840,-50,4,1,1,70,0,0
59960,-50,4,1,1,5,0,0
60080,-100,4,1,1,70,0,0
65360,-100,4,1,1,70,0,0
68240,-100,4,1,1,70,0,0
68360,-100,4,1,1,50,0,0
68480,-100,4,1,1,30,0,0
68600,-100,4,1,1,10,0,0
68720,-100,4,1,1,70,0,0
68840,-100,4,1,1,50,0,0
68960,-100,4,1,1,30,0,0
69080,-100,4,1,1,10,0,0
69200,-100,4,1,1,70,0,0
71120,-111.111111111111,4,1,1,70,0,0
72080,-66.6666666666667,4,1,1,50,0,0
72260,-66.6666666666667,4,1,1,5,0,0
72320,-66.6666666666667,4,1,1,50,0,0
72500,-66.6666666666667,4,1,1,5,0,0
72560,-66.6666666666667,4,1,1,50,0,0
72740,-66.6666666666667,4,1,1,5,0,0
72800,-66.6666666666667,4,1,1,50,0,0
72980,-66.6666666666667,4,1,1,5,0,0
73040,-100,4,1,1,70,0,0
74960,-100,4,1,1,70,0,0
76880,-100,4,1,1,70,0,0
77060,-100,4,1,1,5,0,0
77120,-100,4,1,1,70,0,0
77300,-100,4,1,1,5,0,0
77360,-100,4,1,1,70,0,0
77540,-100,4,1,1,5,0,0
77600,-100,4,1,1,70,0,0
77780,-100,4,1,1,5,0,0
77840,-76.9230769230769,4,1,1,70,0,0
78020,-76.9230769230769,4,1,1,5,0,0
78080,-76.9230769230769,4,1,1,70,0,0
78260,-76.9230769230769,4,1,1,5,0,0
78320,-76.9230769230769,4,1,1,70,0,0
78500,-76.9230769230769,4,1,1,5,0,0
78560,-66.6666666666667,4,1,1,70,0,0
78740,-76.9230769230769,4,1,1,5,0,0
78800,-100,4,1,1,70,0,0
78980,-100,4,1,1,5,0,0
79040,-100,4,1,1,70,0,0
79220,-100,4,1,1,5,0,0
79280,-100,4,1,1,70,0,0
79460,-100,4,1,1,5,0,0
79520,-83.3333333333333,4,1,1,70,0,0
79580,-100,4,1,1,5,0,0
79640,-100,4,1,1,70,0,0
79700,-100,4,1,1,5,0,0
79760,-100,4,1,1,70,0,0
79940,-100,4,1,1,5,0,0
80000,-100,4,1,1,70,0,0
80060,-100,4,1,1,5,0,0
80120,-100,4,1,1,70,0,0
80180,-100,4,1,1,5,0,0
80240,-100,4,1,1,70,0,0
80420,-100,4,1,1,5,0,0
80480,-66.6666666666667,4,1,1,70,0,0
80660,-100,4,1,1,5,0,0
80720,-100,4,1,1,70,0,0
83600,-100,4,1,1,70,0,0
84560,-100,4,1,1,70,0,0
84740,-100,4,1,1,5,0,0
84800,-100,4,1,1,70,0,0
84980,-100,4,1,1,5,0,0
85040,-100,4,1,1,70,0,0
85220,-100,4,1,1,5,0,0
85280,-100,4,1,1,70,0,0
85460,-100,4,1,1,5,0,0
85520,-100,4,1,1,70,0,0
85700,-100,4,1,1,5,0,0
85760,-100,4,1,1,70,0,0
85940,-100,4,1,1,5,0,0
86000,-100,4,1,1,70,0,0
86180,-100,4,1,1,5,0,0
86240,-66.6666666666667,4,1,1,70,0,0
86420,-66.6666666666667,4,1,1,5,0,0
86480,-100,4,1,1,70,0,0
86660,-100,4,1,1,5,0,0
86720,-100,4,1,1,70,0,0
86900,-100,4,1,1,5,0,0
86960,-100,4,1,1,70,0,0
87140,-100,4,1,1,5,0,0
87200,-100,4,1,1,70,0,0
87440,-50,4,1,1,70,0,0
87620,-52.6315789473684,4,1,1,5,0,0
87680,-100,4,1,1,70,0,0
87920,-100,4,1,1,70,0,0
88400,-100,4,1,1,70,0,0
88940,-100,4,1,1,20,0,0
89360,-100,4,1,1,70,0,0
89900,-100,4,1,1,20,0,0
90320,-100,4,1,1,70,0,0
90860,-100,4,1,1,20,0,0
91280,-100,4,1,1,70,0,0
91640,-100,4,1,1,5,0,0
91760,-100,4,1,1,70,0,0
92120,-100,4,1,1,5,0,0
92240,-100,4,1,1,50,0,0
93200,-100,4,1,1,40,0,0
94160,-100,4,1,1,30,0,0
95120,-100,4,1,1,20,0,0
96080,-100,4,1,1,5,0,0
98720,240,4,1,1,70,1,0
98960,-100,4,1,1,5,0,0
99200,-100,4,1,1,70,0,0
99440,-100,4,1,1,5,0,0
99560,-100,4,1,1,70,0,0
99680,-100,4,1,1,70,0,0
99800,-100,4,1,1,5,0,0
99920,-100,4,1,1,70,0,0
100040,-100,4,1,1,5,0,0
100160,-100,4,1,1,70,0,0
100400,-100,4,1,1,5,0,0
100640,-90.9090909090909,4,1,1,70,0,0
100880,-90.9090909090909,4,1,1,5,0,0
101120,-90.9090909090909,4,1,1,70,0,0
101360,-90.9090909090909,4,1,1,5,0,0
101480,-90.9090909090909,4,1,1,70,0,0
101600,-90.9090909090909,4,1,1,70,0,0
101720,-90.9090909090909,4,1,1,5,0,0
101840,-90.9090909090909,4,1,1,70,0,0
101960,-90.9090909090909,4,1,1,5,0,0
102080,-90.9090909090909,4,1,1,70,0,0
102320,-90.9090909090909,4,1,1,5,0,0
102560,-83.3333333333333,4,1,1,70,0,0
102800,-83.3333333333333,4,1,1,5,0,0
103040,-83.3333333333333,4,1,1,70,0,0
103280,-83.3333333333333,4,1,1,5,0,0
103400,-83.3333333333333,4,1,1,70,0,0
103520,-83.3333333333333,4,1,1,70,0,0
103640,-83.3333333333333,4,1,1,5,0,0
103760,-83.3333333333333,4,1,1,70,0,0
103880,-83.3333333333333,4,1,1,5,0,0
104000,-83.3333333333333,4,1,1,70,0,0
104240,-83.3333333333333,4,1,1,5,0,0
104480,-83.3333333333333,4,1,1,70,0,0
104720,-83.3333333333333,4,1,1,5,0,0
104960,-83.3333333333333,4,1,1,70,0,0
105200,-83.3333333333333,4,1,1,5,0,0
105320,-83.3333333333333,4,1,1,70,0,0
105440,-83.3333333333333,4,1,1,70,0,0
105560,-83.3333333333333,4,1,1,5,0,0
105680,-83.3333333333333,4,1,1,70,0,0
105800,-83.3333333333333,4,1,1,5,0,0
105920,-83.3333333333333,4,1,1,70,0,0
106100,-83.3333333333333,4,1,1,5,0,0
106160,-83.3333333333333,4,1,1,70,0,0
106340,-83.3333333333333,4,1,1,5,0,0
106400,-83.3333333333333,4,1,1,70,0,0
106520,-83.3333333333333,4,1,1,5,0,0
106640,-83.3333333333333,4,1,1,70,0,0
106760,-83.3333333333333,4,1,1,5,0,0
106880,-83.3333333333333,4,1,1,70,0,0
107000,-83.3333333333333,4,1,1,5,0,0
107120,-83.3333333333333,4,1,1,70,0,0
107240,-83.3333333333333,4,1,1,5,0,0
107360,-76.9230769230769,4,1,1,70,0,0
107480,-76.9230769230769,4,1,1,5,0,0
107600,-76.9230769230769,4,1,1,70,0,0
107840,-76.9230769230769,4,1,1,70,0,0
107960,-76.9230769230769,4,1,1,30,0,0
108080,-76.9230769230769,4,1,1,70,0,0
108200,-76.9230769230769,4,1,1,5,0,0
108320,-71.4285714285714,4,1,1,70,0,0
108440,-71.4285714285714,4,1,1,5,0,0
108560,-71.4285714285714,4,1,1,70,0,0
108680,-71.4285714285714,4,1,1,5,0,0
108800,-71.4285714285714,4,1,1,70,0,0
108920,-71.4285714285714,4,1,1,5,0,0
109040,-71.4285714285714,4,1,1,70,0,0
109160,-71.4285714285714,4,1,1,5,0,0
109280,-66.6666666666667,4,1,1,70,0,0
109400,-66.6666666666667,4,1,1,5,0,0
109520,240,4,1,1,70,1,0
109520,-66.6666666666667,4,1,1,70,0,0
110000,-100,4,1,1,70,0,0
110480,-100,4,1,1,60,0,0
110720,-100,4,1,1,50,0,0
110960,-100,4,1,1,40,0,0
111200,-100,4,1,1,30,0,0
111440,-100,4,1,1,20,0,0
111680,-100,4,1,1,10,0,0
111920,240,4,1,1,5,1,0
113840,-100,4,1,1,70,0,1
116840,-142.857142857143,4,1,1,70,0,1
116900,-142.857142857143,4,1,1,50,0,1
116960,-100,4,1,1,70,0,1
120560,-100,4,1,1,70,0,0
121400,-100,4,1,1,5,0,0
121520,-100,4,1,1,70,0,1
124400,-52.6315789473684,4,1,1,40,0,0
124760,-33.3333333333333,4,1,1,40,0,0
125120,-66.6666666666667,4,1,1,40,0,0
125360,-100,4,1,1,70,0,1
127280,-100,4,1,1,70,0,0
129200,-100,4,1,1,70,0,1
133040,-111.111111111111,4,1,1,70,0,1
134960,-76.9230769230769,4,1,1,70,0,0
136880,-100,4,1,1,70,0,1
140720,-85.6327364360529,4,1,1,70,0,0
141140,-85.6327364360529,4,1,1,5,0,0
141200,-100,4,1,1,70,0,0
141620,-100,4,1,1,5,0,0
141680,-117.647058823529,4,1,1,70,0,0
142100,-117.647058823529,4,1,1,5,0,0
142160,-117.647058823529,4,1,1,70,0,0
142580,-117.647058823529,4,1,1,5,0,0
142640,-100,4,1,1,70,0,0
143060,-100,4,1,1,5,0,0
143120,-111.111111111111,4,1,1,70,0,0
143600,-100,4,1,1,5,0,0
144560,-100,4,1,1,70,0,0
144680,-100,4,1,1,20,0,0
144800,-100,4,1,1,70,0,0
144920,-100,4,1,1,20,0,0
145040,-100,4,1,1,70,0,0
145160,-100,4,1,1,20,0,0
145280,-100,4,1,1,70,0,0
145400,-100,4,1,1,20,0,0
145520,-100,4,1,1,70,0,0
145640,-100,4,1,1,20,0,0
145760,-100,4,1,1,70,0,0
145880,-100,4,1,1,20,0,0
146000,-100,4,1,1,70,0,0
146120,-100,4,1,1,20,0,0
146240,-100,4,1,1,70,0,0
146360,-100,4,1,1,20,0,0
146480,-76.9230769230769,4,1,1,70,0,0
146660,-76.9230769230769,4,1,1,5,0,0
146720,-76.9230769230769,4,1,1,70,0,0
146900,-76.9230769230769,4,1,1,5,0,0
146960,-76.9230769230769,4,1,1,70,0,0
147140,-76.9230769230769,4,1,1,5,0,0
147200,-76.9230769230769,4,1,1,70,0,0
147380,-76.9230769230769,4,1,1,5,0,0
147440,-76.9230769230769,4,1,1,50,0,0
147920,-66.6666666666667,4,1,1,70,0,0
148100,-66.6666666666667,4,1,1,5,0,0
148160,-66.6666666666667,4,1,1,70,0,0
148340,-66.6666666666667,4,1,1,5,0,0
148400,-100,4,1,1,70,0,0
148520,-100,4,1,1,20,0,0
148640,-100,4,1,1,70,0,0
148760,-100,4,1,1,20,0,0
148880,-100,4,1,1,70,0,0
149000,-100,4,1,1,20,0,0
149120,-100,4,1,1,70,0,0
149240,-100,4,1,1,20,0,0
149360,-100,4,1,1,50,0,0
149600,-100,4,1,1,40,0,0
149780,-100,4,1,1,30,0,0
149900,-100,4,1,1,20,0,0
149960,-100,4,1,1,10,0,0
150080,-100,4,1,1,40,0,0
150200,-100,4,1,1,20,0,0
150260,-100,4,1,1,10,0,0
150320,-100,4,1,1,70,0,0
150500,-100,4,1,1,5,0,0
150560,-100,4,1,1,70,0,0
150740,-100,4,1,1,5,0,0
150800,-100,4,1,1,70,0,0
150980,-100,4,1,1,5,0,0
151040,-100,4,1,1,70,0,0
151220,-100,4,1,1,5,0,0
151280,-100,4,1,1,70,0,0
151460,-100,4,1,1,5,0,0
151520,-100,4,1,1,70,0,0
151700,-100,4,1,1,5,0,0
151760,-100,4,1,1,50,0,0
152000,-100,4,1,1,70,0,0
152180,-100,4,1,1,5,0,0
152240,-100,4,1,1,70,0,0
152420,-100,4,1,1,5,0,0
152480,-100,4,1,1,70,0,0
152660,-100,4,1,1,5,0,0
152720,-100,4,1,1,70,0,0
152900,-100,4,1,1,5,0,0
152960,-100,4,1,1,70,0,0
153140,-100,4,1,1,5,0,0
153200,-100,4,1,1,70,0,0
153380,-100,4,1,1,5,0,0
153440,-100,4,1,1,70,0,0
153620,-100,4,1,1,5,0,0
153680,-62.5,4,1,1,70,0,0
153860,-62.5,4,1,1,5,0,0
153920,-62.5,4,1,1,70,0,0
154100,-62.5,4,1,1,5,0,0
154160,-83.3333333333333,4,1,1,70,0,0
154340,-83.3333333333333,4,1,1,5,0,0
154400,-83.3333333333333,4,1,1,70,0,0
154580,-83.3333333333333,4,1,1,5,0,0
154640,-83.3333333333333,4,1,1,70,0,0
154820,-83.3333333333333,4,1,1,5,0,0
154880,-83.3333333333333,4,1,1,70,0,0
155060,-83.3333333333333,4,1,1,5,0,0
155120,-83.3333333333333,4,1,1,70,0,0
155600,-100,4,1,1,70,0,0
156080,-100,4,1,1,70,0,0
156260,-100,4,1,1,5,0,0
156320,-100,4,1,1,70,0,0
156500,-100,4,1,1,5,0,0
156560,-100,4,1,1,70,0,0
156740,-100,4,1,1,5,0,0
156800,-100,4,1,1,70,0,0
156980,-100,4,1,1,5,0,0
157040,-100,4,1,1,70,0,0
158000,-100,4,1,1,70,0,0
159920,-71.4285714285714,4,1,1,50,0,0
161120,-66.6666666666667,4,1,1,50,0,0
161840,-76.9230769230769,4,1,1,50,0,0
161960,-76.9230769230769,4,1,1,5,0,0
162080,-76.9230769230769,4,1,1,50,0,0
162140,-76.9230769230769,4,1,1,5,0,0
162200,-76.9230769230769,4,1,1,50,0,0
162320,-76.9230769230769,4,1,1,5,0,0
162440,-76.9230769230769,4,1,1,50,0,0
162740,-76.9230769230769,4,1,1,5,0,0
162800,-50,4,1,1,50,0,0
162980,-50,4,1,1,5,0,0
163040,-75.0001875004688,4,1,1,50,0,0
163220,-75.0001875004688,4,1,1,5,0,0
163280,-75.0001875004688,4,1,1,50,0,0
163640,-75.0001875004688,4,1,1,5,0,0
163760,-72.463768115942,4,1,1,50,0,0
164660,-72.463768115942,4,1,1,5,0,0
164720,-45,4,1,1,50,0,0
165200,-45,4,1,1,20,0,0
165320,-55.5555555555556,4,1,1,50,0,0
165620,-55.5555555555556,4,1,1,5,0,0
165680,-83.3333333333333,4,1,1,50,0,0
166580,-83.3333333333333,4,1,1,5,0,0
166640,-58.8235294117647,4,1,1,50,0,0
166760,-58.8235294117647,4,1,1,5,0,0
166880,-58.8235294117647,4,1,1,50,0,0
167000,-58.8235294117647,4,1,1,50,0,0
167120,-58.8235294117647,4,1,1,5,0,0
167240,-50,4,1,1,50,0,0
167600,-100,4,1,1,70,0,0
168620,-100,4,1,1,50,0,0
169460,-100,4,1,1,5,0,0
169520,-100,4,1,1,70,0,0
170480,-58.8235294117647,4,1,1,70,0,0
170540,-100,4,1,1,50,0,0
170900,-100,4,1,1,5,0,0
170960,-100,4,1,1,50,0,0
171380,-100,4,1,1,50,0,0
171440,-100,4,1,1,70,0,0
172400,-100,4,1,1,50,0,0
172520,-100,4,1,1,5,0,0
172640,-100,4,1,1,50,0,0
172760,-100,4,1,1,5,0,0
172880,-117.647058823529,4,1,1,50,0,0
173360,-100,4,1,1,5,0,0
175280,-76.9230769230769,4,1,1,70,0,1
175460,-76.9230769230769,4,1,1,5,0,1
175520,-76.9230769230769,4,1,1,70,0,1
175940,-76.9230769230769,4,1,1,5,0,1
176000,-76.9230769230769,4,1,1,70,0,1
176420,-76.9230769230769,4,1,1,5,0,1
176480,-76.9230769230769,4,1,1,70,0,1
176900,-76.9230769230769,4,1,1,5,0,1
176960,-76.9230769230769,4,1,1,70,0,1
177380,-76.9230769230769,4,1,1,5,0,1
177440,-76.9230769230769,4,1,1,70,0,1
177860,-76.9230769230769,4,1,1,5,0,1
177920,-76.9230769230769,4,1,1,70,0,1
178340,-76.9230769230769,4,1,1,5,0,1
178400,-76.9230769230769,4,1,1,70,0,1
178820,-76.9230769230769,4,1,1,5,0,1
178880,-76.9230769230769,4,1,1,70,0,1
179120,-66.6666666666667,4,1,1,70,0,1
179300,-66.6666666666667,4,1,1,5,0,1
179360,-66.6666666666667,4,1,1,70,0,1
179540,-66.6666666666667,4,1,1,5,0,1
179600,-66.6666666666667,4,1,1,70,0,1
179780,-66.6666666666667,4,1,1,5,0,1
179840,-66.6666666666667,4,1,1,70,0,1
180020,-66.6666666666667,4,1,1,5,0,1
180080,-66.6666666666667,4,1,1,70,0,1
180260,-66.6666666666667,4,1,1,5,0,1
180320,-66.6666666666667,4,1,1,70,0,1
180500,-66.6666666666667,4,1,1,5,0,1
180560,-66.6666666666667,4,1,1,70,0,1
180740,-66.6666666666667,4,1,1,5,0,1
180800,-66.6666666666667,4,1,1,70,0,1
180980,-66.6666666666667,4,1,1,5,0,1
181040,-100,4,1,1,70,0,1
182000,-71.4285714285714,4,1,1,50,0,0
182120,-71.4285714285714,4,1,1,5,0,0
182240,-71.4285714285714,4,1,1,50,0,0
182360,-71.4285714285714,4,1,1,5,0,0
182480,-71.4285714285714,4,1,1,50,0,0
182600,-71.4285714285714,4,1,1,5,0,0
182720,-71.4285714285714,4,1,1,50,0,0
182840,-71.4285714285714,4,1,1,5,0,0
182960,-100,4,1,1,70,0,1
184640,-100,4,1,1,50,0,1
184700,-100,4,1,1,40,0,1
184760,-100,4,1,1,30,0,1
184820,-100,4,1,1,20,0,1
184880,-100,4,1,1,70,0,1
186560,-100,4,1,1,50,0,1
186620,-100,4,1,1,40,0,1
186680,-100,4,1,1,30,0,1
186740,-100,4,1,1,20,0,1
186800,-100,4,1,1,70,0,1
188720,-100,4,1,1,50,0,0
189680,-100,4,1,1,70,0,1
190640,-100,4,1,1,70,0,0
193520,-100,4,1,1,70,0,1
194480,-100,4,1,1,70,0,0
196880,-100,4,1,1,70,0,1
198320,-100,4,1,1,70,0,1
201200,-100,4,1,1,50,0,0
202160,-100,4,1,1,70,0,1
204080,-100,4,1,1,50,0,0
206000,-100,4,1,2,50,0,0
209840,-100,4,1,1,70,0,1
217520,-100,4,1,1,70,0,1
219920,-100,4,1,1,70,0,0
221360,-100,4,1,1,70,0,0
224420,-100,4,1,1,5,0,0
224480,-100,4,1,1,70,0,0
224660,-100,4,1,1,5,0,0
224720,-100,4,1,1,70,0,0
224900,-100,4,1,1,5,0,0
224960,-100,4,1,1,70,0,0
225140,-100,4,1,1,5,0,0
225200,-100,4,1,1,70,0,0
226760,-100,4,1,1,5,0,0
226880,-76.9230769230769,4,1,1,70,0,0
227000,-76.9230769230769,4,1,1,5,0,0
227120,-100,4,1,1,70,0,0
228080,-200,4,1,1,70,0,0
228200,-200,4,1,1,20,0,0
228320,-76.9230769230769,4,1,1,70,0,0
228980,-76.9230769230769,4,1,1,5,0,0
229040,-100,4,1,1,50,0,0
232880,-100,4,1,1,50,0,0
236480,-100,4,1,1,5,0,0
236720,-100,4,1,1,50,0,0

[HitObjects]
99,48,15440,5,4,0:0:0:0:
208,179,15680,5,2,0:0:0:0:
218,179,15920,1,2,0:0:0:0:
228,179,16160,1,2,0:0:0:0:
238,179,16400,1,2,0:0:0:0:
248,179,16640,1,2,0:0:0:0:
258,179,16880,1,2,0:0:0:0:
268,179,17120,1,2,0:0:0:0:
278,179,17360,1,2,0:0:0:0:
288,179,17600,1,2,0:0:0:0:
298,179,17840,1,2,0:0:0:0:
308,179,18080,1,2,0:0:0:0:
318,180,18320,1,2,0:0:0:0:
328,181,18560,1,2,0:0:0:0:
338,181,18800,1,2,0:0:0:0:
348,181,19040,1,2,0:0:0:0:
365,232,19280,5,2,0:0:0:0:
355,232,19520,1,2,0:0:0:0:
345,232,19760,1,2,0:0:0:0:
335,232,20000,1,2,0:0:0:0:
325,232,20240,1,2,0:0:0:0:
315,232,20480,1,2,0:0:0:0:
305,232,20720,1,2,0:0:0:0:
295,232,20960,1,2,0:0:0:0:
285,232,21200,1,2,0:0:0:0:
275,232,21440,1,2,0:0:0:0:
265,232,21680,1,2,0:0:0:0:
255,231,21920,1,2,0:0:0:0:
245,230,22160,1,2,0:0:0:0:
235,230,22400,1,2,0:0:0:0:
225,230,22640,1,2,0:0:0:0:
190,301,22880,1,2,0:0:0:0:
190,77,23120,5,4,0:0:0:0:
312,95,23360,5,2,0:0:0:0:
312,105,23600,1,2,0:0:0:0:
312,115,23840,1,2,0:0:0:0:
312,125,24080,1,2,0:0:0:0:
312,135,24320,1,2,0:0:0:0:
312,145,24560,1,2,0:0:0:0:
312,155,24800,1,2,0:0:0:0:
312,165,25040,1,2,0:0:0:0:
312,175,25280,1,2,0:0:0:0:
312,185,25520,1,2,0:0:0:0:
312,195,25760,1,2,0:0:0:0:
311,205,26000,1,2,0:0:0:0:
310,215,26240,1,2,0:0:0:0:
310,225,26480,1,2,0:0:0:0:
310,235,26720,1,2,0:0:0:0:
258,252,26960,5,2,0:0:0:0:
259,242,27200,1,2,0:0:0:0:
259,232,27440,1,2,0:0:0:0:
259,222,27680,1,2,0:0:0:0:
259,212,27920,1,2,0:0:0:0:
259,202,28160,1,2,0:0:0:0:
259,192,28400,1,2,0:0:0:0:
259,182,28640,1,2,0:0:0:0:
259,172,28880,1,2,0:0:0:0:
259,162,29120,1,2,0:0:0:0:
259,152,29360,1,2,0:0:0:0:
260,142,29600,1,2,0:0:0:0:
261,132,29840,1,2,0:0:0:0:
261,122,30080,1,2,0:0:0:0:
261,112,30320,1,2,0:0:0:0:
190,77,30560,1,2,0:0:0:0:
316,32,30800,6,0,P|372:45|393:87,1,84,2|0,0:0|0:0,0:0:0:0:
324,102,31040,2,0,P|315:142|334:182,1,84,2|0,0:0|0:0,0:0:0:0:
405,192,31280,2,0,P|394:251|399:283,1,84,2|0,0:0|0:0,0:0:0:0:
478,178,31520,2,0,P|457:136|399:126,1,84,2|0,0:0|0:0,0:0:0:0:
251,144,31760,6,0,B|181:174|181:174|183:152,1,84,2|0,0:0|0:0,0:0:0:0:
88,110,32000,2,0,B|158:80|158:80|156:102,1,84,2|0,0:0|0:0,0:0:0:0:
164,240,32240,2,0,P|185:276|203:246,1,84,2|0,0:0|0:0,0:0:0:0:
282,85,32480,2,0,P|261:49|243:79,1,84,2|0,0:0|0:2,0:2:0:0:
235,187,32720,6,0,L|323:227,1,84,2|0,0:0|0:0,0:0:0:0:
351,292,32960,2,0,P|388:254|385:205,1,84,2|0,0:0|0:0,0:0:0:0:
370,85,33200,2,0,P|335:134|355:181,1,84,2|0,0:0|0:0,0:0:0:0:
462,276,33440,2,0,P|469:196|465:178,1,84,2|0,0:0|0:0,0:0:0:0:
464,52,33680,6,0,B|451:97|451:97|477:127,1,84,2|0,0:0|0:0,0:0:0:0:
400,12,33920,2,0,B|353:6|353:6|292:35,1,84,2|0,0:0|0:0,0:0:0:0:
271,183,34160,2,0,B|301:142|301:142|283:99,1,84,2|0,0:0|0:0,0:0:0:0:
152,57,34400,2,0,B|192:80|192:80|236:60,1,84,2|0,0:0|0:0,0:0:0:0:
306,18,34640,6,0,B|328:79|328:79|317:105,1,84,2|0,0:0|0:0,0:0:0:0:
238,251,34880,2,0,B|216:190|216:190|223:172,1,84,2|0,0:0|0:0,0:0:0:0:
388,168,35120,2,0,B|327:190|327:190|301:179,1,84,2|0,0:0|0:0,0:0:0:0:
155,100,35360,2,0,B|216:78|216:78|234:85,1,84,2|0,0:0|0:0,0:0:0:0:
384,246,35600,6,0,B|315:261|315:261|328:273,1,84,2|0,0:0|0:0,0:0:0:0:
449,177,35840,2,0,B|464:246|464:246|476:233,1,84,2|0,0:0|0:0,0:0:0:0:
278,135,36080,2,0,B|347:120|347:120|334:108,1,84,2|0,0:0|0:0,0:0:0:0:
213,204,36320,2,0,B|198:135|198:135|186:148,1,84,2|0,0:0|0:0,0:0:0:0:
116,187,36560,6,0,P|71:165|38:184,1,84,2|0,0:0|0:0,0:0:0:0:
347,256,36800,2,0,P|392:278|425:259,1,84,2|0,0:0|0:0,0:0:0:0:
171,61,38480,6,0,B|146:109|146:109|150:159,1,105,2|0,0:0|0:0,0:0:0:0:
341,61,38720,2,0,B|366:109|366:109|361:159,1,105,2|0,0:0|0:0,0:0:0:0:
77,168,38960,2,0,B|88:220|88:220|125:256,1,105,2|0,0:0|0:0,0:0:0:0:
435,168,39200,2,0,B|423:220|423:220|386:256,1,105,2|0,0:0|0:0,0:0:0:0:
215,358,39440,6,0,L|197:237,1,105,2|0,0:0|0:0,0:0:0:0:
294,294,39680,2,0,L|312:173,1,105,2|0,0:0|0:0,0:0:0:0:
207,142,39920,2,0,P|173:99|104:94,1,105,2|0,0:0|0:0,0:0:0:0:
306,102,40160,2,0,P|340:59|409:54,1,105,2|0,0:0|0:0,0:0:0:0:
376,156,40400,5,0,0:0:0:0:
219,229,40520,1,0,0:0:0:0:
380,167,40640,1,0,0:0:0:0:
214,217,40760,1,0,0:0:0:0:
403,201,40880,6,0,B|354:254|354:254|313:264,1,105
98,196,41120,2,0,B|120:172|120:172|191:156,1,105
329,170,41360,6,0,P|388:151|375:120,1,105,2|0,0:0|0:0,0:0:0:0:
151,118,41600,2,0,P|137:178|171:182,1,105,2|0,0:0|0:0,0:0:0:0:
303,36,41840,2,0,P|257:-5|236:21,1,105,2|0,0:0|0:0,0:0:0:0:
236,100,42080,5,10,0:0:0:0:
237,114,42140,1,8,0:0:0:0:
238,129,42200,1,8,0:0:0:0:
240,144,42260,1,8,0:0:0:0:
242,158,42320,6,0,P|236:218|199:258,1,105,2|0,0:0|0:0,0:0:0:0:
83,312,42560,2,0,P|88:251|125:211,1,105,2|0,0:0|0:0,0:0:0:0:
253,343,42800,2,0,P|192:337|152:300,1,105,2|0,0:0|0:0,0:0:0:0:
84,136,43040,2,0,P|144:141|184:178,1,105,2|0,0:0|0:0,0:0:0:0:
156,320,43280,6,0,B|121:271|121:271|131:217,1,105,2|0,0:0|0:0,0:0:0:0:
215,78,43520,2,0,B|250:127|250:127|240:181,1,105,2|0,0:0|0:0,0:0:0:0:
58,161,43760,2,0,B|107:126|107:126|161:136,1,105,2|0,0:0|0:0,0:0:0:0:
300,220,44000,2,0,B|251:254|251:254|197:245,1,105,2|0,0:0|0:0,0:0:0:0:
129,59,46160,6,0,B|100:152|100:152|113:183,1,125.999996154785,2|0,0:0|0:0,0:0:0:0:
123,297,46400,2,0,B|146:248|146:248|190:224|190:224|187:177,1,125.999996154785,2|0,0:0|0:0,0:0:0:0:
277,76,46640,2,0,B|210:92|210:92|200:127|200:127|163:140,1,125.999996154785,2|0,0:0|0:0,0:0:0:0:
30,125,46880,2,0,B|27:168|27:168|36:250,1,125.999996154785,2|0,0:0|0:0,0:0:0:0:
176,363,47120,6,0,B|243:339|243:339|199:296,1,125.999996154785,2|0,0:0|0:0,0:0:0:0:
114,155,47360,2,0,B|106:244|106:244|138:297,1,125.999996154785,2|0,0:0|0:0,0:0:0:0:
296,249,47600,2,0,B|409:216|409:216|382:214,1,125.999996154785,2|0,0:0|0:0,0:0:0:0:
189,162,47840,2,0,B|245:179|245:179|263:175,1,73.4999977569581,2|0,0:0|0:0,0:0:0:0:
319,119,47960,2,0,B|262:101|262:101|244:105,1,73.4999977569581,2|0,0:0|0:0,0:0:0:0:
107,123,48080,6,0,P|96:204|159:258,1,125.999996154785,2|0,0:0|0:0,0:0:0:0:
224,336,48320,2,0,P|253:271|237:191,1,125.999996154785,2|0,0:0|0:0,0:0:0:0:
213,43,48560,2,0,P|184:108|200:188,1,125.999996154785,2|0,0:0|0:0,0:0:0:0:
241,245,48800,2,0,P|309:221|346:141,1,125.999996154785,2|0,0:0|0:0,0:0:0:0:
280,8,49040,6,0,L|260:181,1,125.999996154785,2|0,0:0|0:0,0:0:0:0:
318,287,49280,2,0,L|338:114,1,125.999996154785,2|0,0:0|0:0,0:0:0:0:
350,42,49520,5,2,0:0:0:0:
194,126,49640,1,2,0:0:0:0:
345,219,49760,1,8,0:0:0:0:
377,210,49820,1,8,0:0:0:0:
402,188,49880,1,8,0:0:0:0:
418,157,49940,1,8,0:0:0:0:
424,123,50000,6,0,P|401:63|340:43,1,125.999996154785,2|0,0:0|0:0,0:0:0:0:
194,126,50240,2,0,P|217:186|278:206,1,125.999996154785,2|0,0:0|0:0,0:0:0:0:
277,62,50480,2,0,L|147:37,1,125.999996154785,2|0,0:0|0:0,0:0:0:0:
316,202,50720,2,0,L|446:227,1,125.999996154785,2|0,0:0|0:0,0:0:0:0:
171,117,50960,6,0,P|189:210|168:256,1,125.999996154785,2|0,0:0|0:0,0:0:0:0:
320,180,51200,2,0,P|302:87|323:41,1,125.999996154785,2|0,0:0|0:0,0:0:0:0:
419,189,51440,2,0,P|419:266|375:300,1,125.999996154785,2|0,0:0|0:0,0:0:0:0:
179,236,51680,2,0,P|179:159|223:125,1,125.999996154785,2|0,0:0|0:0,0:0:0:0:
346,78,51920,6,0,B|350:184|350:184|328:210,1,125.999996154785,2|0,0:0|0:0,0:0:0:0:
273,245,52160,2,0,B|265:202|265:202|240:162|240:162|305:158,1,125.999996154785,2|0,0:0|0:0,0:0:0:0:
425,181,52400,2,0,B|432:257|432:257|391:250|391:250|363:274,1,125.999996154785,2|0,0:0|0:0,0:0:0:0:
208,345,52640,2,0,B|208:275|208:275|186:208,1,125.999996154785,2|0,0:0|0:0,0:0:0:0:
171,47,53840,6,0,P|128:118|186:167,1,136.499993751526,2|0,0:0|0:0,0:0:0:0:
232,106,54080,2,0,L|218:258,1,136.499993751526,8|0,0:0|0:0,0:0:0:0:
153,331,54320,2,0,P|224:375|287:319,1,136.499993751526,2|0,0:0|0:0,0:0:0:0:
405,188,54560,2,0,B|292:228|292:228|326:245,1,136.499993751526,8|0,0:0|0:0,0:0:0:0:
423,365,54800,6,0,B|467:288|467:288|454:235,1,136.499993751526,2|0,0:0|0:0,0:0:0:0:
290,91,55040,2,0,L|292:251,1,136.499993751526,8|0,0:0|0:0,0:0:0:0:
438,260,55280,2,0,P|420:189|361:170,1,136.499993751526,2|0,0:0|0:0,0:0:0:0:
139,347,55520,2,0,L|310:328,1,136.499993751526,8|0,0:0|0:0,0:0:0:0:
374,298,55760,6,0,P|320:235|216:226,1,136.499993751526,2|0,0:0|0:0,0:0:0:0:
97,268,56000,2,0,L|129:108,1,136.499993751526,8|0,0:0|0:0,0:0:0:0:
201,12,56240,2,0,P|281:17|287:90,1,136.499993751526,2|0,0:0|0:0,0:0:0:0:
213,331,56480,2,0,L|181:171,1,136.499993751526,8|0,0:0|0:0,0:0:0:0:
97,36,56720,6,0,B|111:42|111:42|130:41|130:41|145:53|145:53|168:52|168:52|186:63|186:63|208:65|208:65|220:81|220:81|236:80|236:80|251:88|251:88|264:88|264:88|272:93,1,188.999994232178,2|0,0:0|0:0,0:0:0:0:
413,86,56960,2,0,B|422:98|422:98|415:112|415:112|428:138|428:138|413:155|413:155|409:184|409:184|385:197|385:197|374:219|374:219|353:229,1,188.999994232178,8|0,0:0|0:0,0:0:0:0:
151,321,57200,6,0,B|148:283|148:283|168:245|168:245|168:204,1,94.499997116089,4|2,0:2|0:0,0:0:0:0:
128,104,57320,2,0,B|131:142|131:142|111:180|111:180|111:221,1,94.499997116089,4|2,0:2|0:0,0:0:0:0:
70,297,57440,2,0,B|95:268|95:268|136:255|136:255|165:226,1,94.499997116089,0|2,0:2|0:0,0:0:0:0:
207,127,57560,2,0,B|182:156|182:156|141:168|141:168|112:197,1,94.499997116089,4|2,0:2|0:0,0:0:0:0:
40,222,57680,6,0,P|82:142|171:110,1,136.499993751526,2|0,0:0|0:0,0:0:0:0:
316,168,57920,2,0,P|239:216|146:199,1,136.499993751526,8|0,0:0|0:0,0:0:0:0:
85,88,58160,2,0,P|175:85|248:146,1,136.499993751526,2|0,0:0|0:0,0:0:0:0:
270,301,58400,2,0,P|190:259|158:170,1,136.499993751526,8|0,0:0|0:0,0:0:0:0:
211,34,58640,5,2,0:0:0:0:
125,173,58760,1,0,0:0:0:0:
225,34,58880,1,8,0:0:0:0:
110,172,59000,1,0,0:0:0:0:
239,38,59120,6,0,P|258:106|209:160,1,136.499993751526,2|0,0:0|0:0,0:0:0:0:
88,171,59360,2,0,P|105:102|174:80,1,136.499993751526,8|0,0:0|0:0,0:0:0:0:
400,117,59600,6,4,B|325:205|325:205|209:260,1,210,2|6,0:0|0:0,0:0:0:0:
103,257,59840,2,4,B|178:169|178:169|294:114,1,210,10|6,0:0|0:0,0:0:0:0:
178,29,61520,5,2,0:0:0:0:
243,286,61640,1,0,0:0:0:0:
246,43,61760,1,8,0:0:0:0:
181,299,61880,1,0,0:0:0:0:
277,107,62000,5,2,0:0:0:0:
124,253,62120,1,0,0:0:0:0:
294,158,62240,1,8,0:0:0:0:
91,215,62360,1,0,0:0:0:0:
271,205,62480,5,2,0:0:0:0:
108,157,62600,1,0,0:0:0:0:
241,236,62720,1,8,0:0:0:0:
121,118,62840,1,0,0:0:0:0:
197,231,62960,5,2,0:0:0:0:
173,132,63080,1,0,0:0:0:0:
172,225,63200,1,8,0:0:0:0:
198,127,63320,1,0,0:0:0:0:
137,224,63440,5,2,0:0:0:0:
226,139,63560,1,0,0:0:0:0:
115,197,63680,1,8,0:0:0:0:
262,156,63800,1,0,0:0:0:0:
108,155,63920,5,2,0:0:0:0:
252,198,64040,1,0,0:0:0:0:
115,107,64160,1,8,0:0:0:0:
266,256,64280,1,0,0:0:0:0:
181,157,64400,6,0,L|179:119,4,26.25,2|0|0|0|0,0:0|0:0|0:0|0:0|0:0,0:0:0:0:
270,178,64640,6,0,L|304:177,1,26.25,2|0,0:0|0:0,0:0:0:0:
300,211,64700,2,0,L|264:216,1,26.25
231,266,64880,6,0,L|204:262,1,26.25,2|0,0:0|0:0,0:0:0:0:
212,307,64941,2,0,L|238:307,1,26.25
297,357,65120,6,0,L|299:396,1,26.25,2|0,0:0|0:0,0:0:0:0:
333,341,65180,2,0,L|331:303,1,26.25
150,183,65360,5,2,0:0:0:0:
365,204,65480,1,0,0:0:0:0:
150,211,65600,1,8,0:0:0:0:
364,175,65720,1,0,0:0:0:0:
149,242,65840,5,2,0:0:0:0:
365,144,65960,1,0,0:0:0:0:
165,268,66080,1,8,0:0:0:0:
349,118,66200,1,0,0:0:0:0:
182,298,66320,5,2,0:0:0:0:
332,88,66440,1,0,0:0:0:0:
211,314,66560,1,8,0:0:0:0:
303,72,66680,1,0,0:0:0:0:
243,335,66800,5,2,0:0:0:0:
271,51,66920,1,0,0:0:0:0:
280,334,67040,1,8,0:0:0:0:
234,52,67160,1,0,0:0:0:0:
321,333,67280,5,2,0:0:0:0:
192,52,67400,1,0,0:0:0:0:
355,313,67520,1,8,0:0:0:0:
158,72,67640,1,0,0:0:0:0:
396,292,67760,5,2,0:0:0:0:
117,93,67880,1,0,0:0:0:0:
417,253,68000,1,8,0:0:0:0:
96,132,68120,1,0,0:0:0:0:
260,178,68240,6,0,L|248:188,30,13.125,2|0|0|0|0|0|0|0|2|0|0|0|0|0|0|0|2|0|0|0|0|0|0|0|2|0|0|0|0|0|0,0:0|0:0|0:0|0:0|0:0|0:0|0:0|0:0|0:0|0:0|0:0|0:0|0:0|0:0|0:0|0:0|0:0|0:0|0:0|0:0|0:0|0:0|0:0|0:0|0:0|0:0|0:0|0:0|0:0|0:0|0:0,0:0:0:0:
274,183,68720,2,0,L|286:193,30,13.125,2|0|0|0|0|0|0|0|2|0|0|0|0|0|0|0|2|0|0|0|0|0|0|0|2|0|0|0|0|0|0,0:0|0:0|0:0|0:0|0:0|0:0|0:0|0:0|0:0|0:0|0:0|0:0|0:0|0:0|0:0|0:0|0:0|0:0|0:0|0:0|0:0|0:0|0:0|0:0|0:0|0:0|0:0|0:0|0:0|0:0|0:0,0:0:0:0:
266,146,69200,5,2,0:0:0:0:
393,112,69320,1,0,0:0:0:0:
276,135,69440,5,8,0:0:0:0:
432,160,69560,1,0,0:0:0:0:
291,122,69680,5,2,0:0:0:0:
450,225,69800,1,0,0:0:0:0:
307,110,69920,5,8,0:0:0:0:
431,300,70040,1,0,0:0:0:0:
325,91,70160,5,2,0:0:0:0:
368,356,70280,1,0,0:0:0:0:
342,74,70400,5,8,0:0:0:0:
262,378,70520,1,0,0:0:0:0:
361,57,70640,5,2,0:0:0:0:
125,351,70760,1,0,0:0:0:0:
383,38,70880,5,8,0:0:0:0:
5,258,71000,1,0,0:0:0:0:
405,24,71120,6,0,L|430:6,6,23.6249992790222,2|0|0|0|0|0|0,0:0|0:0|0:0|0:0|0:0|0:0|0:0,0:0:0:0:
417,88,71360,2,0,L|419:118,6,23.6249992790222,8|0|0|0|0|0|0,0:0|0:0|0:0|0:0|0:0|0:0|0:0,0:0:0:0:
367,129,71600,5,10,0:0:0:0:
414,268,71720,1,8,0:0:0:0:
330,124,71840,1,8,0:0:0:0:
450,272,71960,1,8,0:0:0:0:
304,166,72080,6,0,B|238:161|238:161|194:185|194:185|157:146|157:146|109:176|109:176|71:146,1,236.250009012223,2|0,0:0|0:0,0:0:0:0:
56,109,72320,2,0,P|10:184|147:228,1,236.250009012223,8|0,0:0|0:0,0:0:0:0:
195,282,72560,6,0,B|218:180|218:180|174:174|174:174|186:124|186:124|231:102,1,236.250009012223,2|0,0:0|0:0,0:0:0:0:
296,61,72800,2,0,L|303:325,1,236.250009012223,8|0,0:0|0:0,0:0:0:0:
322,333,73040,5,2,0:0:0:0:
350,180,73160,1,0,0:0:0:0:
338,351,73280,1,8,0:0:0:0:
332,161,73400,1,0,0:0:0:0:
361,369,73520,5,2,0:2:0:0:
301,140,73640,1,0,0:0:0:0:
394,382,73760,1,8,0:2:0:0:
265,125,73880,1,0,0:0:0:0:
457,344,74000,5,6,0:2:0:0:
203,145,74120,1,0,0:0:0:0:
467,300,74240,1,12,0:2:0:0:
192,188,74360,1,0,0:0:0:0:
473,274,74480,5,6,0:2:0:0:
193,219,74600,1,0,0:0:0:0:
463,230,74720,1,12,0:2:0:0:
201,262,74840,1,0,0:0:0:0:
438,20,76880,6,0,L|415:197,1,157.5,8|0,0:0|0:0,0:0:0:0:
364,40,77120,2,0,L|341:217,1,157.5,8|0,0:0|0:0,0:0:0:0:
290,60,77360,2,0,L|267:237,1,157.5,8|0,0:0|0:0,0:0:0:0:
216,80,77600,2,0,L|193:257,1,157.5,8|0,0:0|0:0,0:0:0:0:
109,213,77840,6,0,P|118:298|246:303,1,204.749990627289,8|0,0:0|0:0,0:0:0:0:
313,356,78080,2,0,P|306:250|203:236,1,204.749990627289,8|0,0:0|0:0,0:0:0:0:
28,127,78320,2,0,L|9:342,1,204.749990627289,8|0,0:0|0:0,0:0:0:0:
403,372,78560,6,0,B|402:361|402:361|398:351|398:351|401:338|401:338|408:330|408:330|408:315|408:315|401:305|401:305|406:294|406:294|416:279|416:279|411:269|411:269|413:258|413:258|407:251|407:251|414:240|414:240|410:233|410:233|413:222|413:222|420:212|420:212|418:198|418:198|424:184|424:184|421:170|421:170|422:157,1,236.250009012223,8|0,0:0|0:0,0:0:0:0:
49,103,78800,6,0,L|226:126,1,157.5,8|0,0:0|0:0,0:0:0:0:
415,364,79040,2,0,L|238:341,1,157.5,8|0,0:0|0:0,0:0:0:0:
89,251,79280,2,0,L|266:274,1,157.5,8|0,0:0|0:0,0:0:0:0:
375,216,79520,2,0,L|251:199,1,62.9999980773926,8|0,0:0|0:0,0:0:0:0:
205,123,79640,2,0,L|302:135,1,52.5,8|0,0:0|0:0,0:0:0:0:
436,151,79760,6,0,P|443:250|392:315,1,157.5,8|0,0:0|0:0,0:0:0:0:
291,305,80000,2,0,L|299:242,1,52.5,8|0,0:0|0:0,0:0:0:0:
363,109,80121,2,0,L|354:171,1,52.5,8|0,0:0|0:0,0:0:0:0:
348,377,80240,2,0,P|279:384|188:305,1,157.5,8|0,0:0|0:0,0:0:0:0:
139,203,80480,6,0,B|159:188|159:188|186:186|186:186|213:195|213:195|232:222|232:222|238:245|238:245|262:267|262:267|290:274|290:274|314:268|314:268|331:258,1,236.250009012223,8|0,0:0|0:0,0:0:0:0:
499,124,80720,5,8,0:0:0:0:
5,231,80960,1,8,0:0:0:0:
482,73,81200,5,8,0:0:0:0:
21,281,81440,1,8,0:0:0:0:
455,28,81680,5,8,0:0:0:0:
48,326,81920,1,8,0:0:0:0:
420,0,82160,5,8,0:0:0:0:
83,365,82400,1,8,0:0:0:0:
295,8,82640,5,8,0:0:0:0:
199,364,82880,1,8,0:0:0:0:
214,80,83120,5,8,0:0:0:0:
298,293,83360,5,8,0:0:0:0:
281,174,83480,1,8,0:0:0:0:
195,230,83600,5,8,0:0:0:0:
181,238,83660,1,8,0:0:0:0:
167,246,83720,1,8,0:0:0:0:
153,254,83780,1,8,0:0:0:0:
140,262,83840,1,8,0:0:0:0:
127,270,83900,1,8,0:0:0:0:
114,279,83960,1,8,0:0:0:0:
101,288,84020,1,8,0:0:0:0:
87,296,84080,6,0,L|51:323,14,26.25,8|8|8|8|8|8|8|8|8|8|8|8|8|8|8,0:0|0:0|0:0|0:0|0:0|0:0|0:0|0:0|0:0|0:0|0:0|0:0|0:0|0:0|0:0,0:0:0:0:
111,329,84560,6,0,L|276:306,1,157.5,8|0,0:0|0:0,0:0:0:0:
386,31,84800,2,0,L|220:53,1,157.5,8|0,0:0|0:0,0:0:0:0:
183,371,85040,6,0,L|325:283,1,157.5,8|0,0:0|0:0,0:0:0:0:
313,7,85280,2,0,L|170:75,1,157.5,8|0,0:0|0:0,0:0:0:0:
263,383,85520,6,0,L|357:245,1,157.5,8|0,0:0|0:0,0:0:0:0:
226,0,85760,2,0,L|132:117,1,157.5,8|0,0:0|0:0,0:0:0:0:
343,357,86000,6,0,L|373:193,1,157.5,8|0,0:0|0:0,0:0:0:0:
131,0,86240,6,0,B|116:20|116:20|114:47|114:47|123:74|123:74|150:93|150:93|173:99|173:99|195:123|195:123|202:151|202:151|196:175|196:175|186:192,1,236.250009012223,8|0,2:0|2:0,2:0:0:0:
57,159,86480,6,0,L|159:291,1,157.5,8|0,0:0|0:0,0:0:0:0:
452,248,86720,2,0,L|349:115,1,157.5,8|0,0:0|0:0,0:0:0:0:
56,242,86960,6,0,L|202:321,1,157.5,8|0,0:0|0:0,0:0:0:0:
436,172,87200,1,8,0:0:0:0:
252,55,87440,6,0,B|232:81|232:81|229:116|229:116|241:151|241:151|276:176|276:176|306:183|306:183|335:215|335:215|344:251|344:251|336:282|336:282|323:304,1,315,8|0,2:0|2:0,2:0:0:0:
283,358,87680,1,8,0:0:0:0:
161,42,88400,5,8,0:0:0:0:
162,59,88460,1,8,0:0:0:0:
163,76,88520,1,8,0:0:0:0:
164,94,88580,1,8,0:0:0:0:
165,111,88640,1,8,0:0:0:0:
167,129,88700,1,8,0:0:0:0:
168,146,88760,1,8,0:0:0:0:
169,164,88820,1,8,0:0:0:0:
170,181,88880,1,8,0:0:0:0:
172,199,88940,1,0,0:0:0:0:
173,220,89000,2,0,P|274:244|248:178,1,210
364,42,89360,5,8,0:0:0:0:
363,59,89420,1,8,0:0:0:0:
362,76,89480,1,8,0:0:0:0:
361,94,89540,1,8,0:0:0:0:
360,111,89600,1,8,0:0:0:0:
358,129,89660,1,8,0:0:0:0:
357,146,89720,1,8,0:0:0:0:
356,164,89780,1,8,0:0:0:0:
355,181,89840,1,8,0:0:0:0:
353,199,89900,1,0,0:0:0:0:
352,220,89960,2,0,P|251:244|277:178,1,210
97,153,90320,5,8,0:0:0:0:
126,155,90380,1,8,0:0:0:0:
155,158,90440,1,8,0:0:0:0:
184,160,90500,1,8,0:0:0:0:
213,163,90560,1,8,0:0:0:0:
242,165,90620,1,8,0:0:0:0:
271,168,90680,1,8,0:0:0:0:
300,170,90740,1,8,0:0:0:0:
329,173,90800,1,8,0:0:0:0:
358,175,90860,1,0,0:0:0:0:
389,180,90920,2,0,P|464:146|364:108,1,210
138,41,91280,6,0,B|96:190|96:190|135:356,1,315,12|0,0:0|0:0,0:0:0:0:
374,41,91760,2,0,B|416:190|416:190|377:356,1,315,12|0,0:0|0:0,0:0:0:0:
256,192,92240,12,0,96080,0:0:0:0:
119,61,98720,6,0,L|144:313,1,210,2|0,0:0|0:0,0:0:0:0:
393,61,99200,2,0,L|368:313,1,210,2|0,0:0|0:0,0:0:0:0:
301,54,99560,5,0,0:0:0:0:
249,118,99680,2,0,L|145:146,1,105,2|0,0:0|0:0,0:0:0:0:
60,205,99920,2,0,L|164:233,1,105,2|0,0:0|0:0,0:0:0:0:
314,345,100160,2,0,L|334:136,1,210,2|0,0:0|0:0,0:0:0:0:
413,62,100640,6,0,L|385:334,1,231.000007049561,2|0,0:0|0:0,0:0:0:0:
117,62,101120,2,0,L|144:334,1,231.000007049561,2|0,0:0|0:0,0:0:0:0:
216,54,101480,5,0,0:0:0:0:
273,124,101600,2,0,L|385:154,1,115.50000352478,2|0,0:0|0:0,0:0:0:0:
477,217,101840,2,0,L|364:247,1,115.50000352478,2|0,0:0|0:0,0:0:0:0:
202,369,102080,2,0,L|177:124,1,231.000007049561,2|0,0:0|0:0,0:0:0:0:
71,40,102560,6,0,L|99:327,1,251.999992309571,2|0,0:0|0:0,0:0:0:0:
382,40,103040,2,0,L|354:327,1,251.999992309571,2|0,0:0|0:0,0:0:0:0:
278,32,103400,5,0,0:0:0:0:
218,105,103520,2,0,L|88:140,1,125.999996154785,2|0,0:0|0:0,0:0:0:0:
3,203,103760,2,0,L|126:236,1,125.999996154785,2|0,0:0|0:0,0:0:0:0:
293,363,104000,2,0,L|318:106,1,251.999992309571,2|0,0:0|0:0,0:0:0:0:
428,36,104480,6,0,L|397:347,1,251.999992309571,2|0,0:0|0:0,0:0:0:0:
90,36,104960,2,0,L|121:347,1,251.999992309571,2|0,0:0|0:0,0:0:0:0:
202,26,105320,5,0,0:0:0:0:
268,106,105440,2,0,L|409:144,1,125.999996154785,2|0,0:0|0:0,0:0:0:0:
501,213,105680,2,0,L|368:248,1,125.999996154785,2|0,0:0|0:0,0:0:0:0:
186,386,105920,2,0,L|164:163,1,188.999994232178,2|0,0:0|0:0,0:0:0:0:
79,62,106160,2,0,L|101:285,1,188.999994232178,2|0,0:0|0:0,0:0:0:0:
153,334,106400,6,0,P|193:278|180:165,1,125.999996154785,2|0,0:0|0:0,0:0:0:0:
161,106,106640,2,0,P|121:162|134:275,1,125.999996154785,2|0,0:0|0:0,0:0:0:0:
260,318,106880,2,0,P|248:250|159:179,1,125.999996154785,2|0,0:0|0:0,0:0:0:0:
104,151,107120,2,0,P|115:218|204:289,1,125.999996154785,2|0,0:0|0:0,0:0:0:0:
322,196,107360,6,0,B|257:171|257:171|151:213,1,136.499993751526,2|0,0:0|0:0,0:0:0:0:
56,286,107600,1,10,0:0:0:0:
87,297,107660,1,8,0:0:0:0:
119,309,107720,1,8,0:0:0:0:
151,297,107780,1,8,0:0:0:0:
183,285,107840,6,0,B|214:217|214:217|197:143,1,136.499993751526,2|2,0:0|0:0,0:0:0:0:
132,62,108080,2,0,B|101:130|101:130|118:204,1,136.499993751526,2|0,0:0|0:0,0:0:0:0:
356,199,108320,2,0,B|271:182|271:182|189:187,1,146.999995513916,2|0,0:0|0:0,0:0:0:0:
93,284,108560,2,0,B|178:301|178:301|260:296,1,146.999995513916,2|0,0:0|0:0,0:0:0:0:
253,106,108800,2,0,B|196:171|196:171|159:244,1,146.999995513916,2|0,0:0|0:0,0:0:0:0:
195,376,109040,2,0,B|252:311|252:311|289:238,1,146.999995513916,2|0,0:0|0:0,0:0:0:0:
167,60,109280,2,0,L|179:267,1,157.500006008148,2|0,0:0|0:0,0:0:0:0:
296,341,109520,5,8,0:0:0:0:
297,309,109580,1,8,0:0:0:0:
299,278,109640,1,8,0:0:0:0:
301,246,109700,1,8,0:0:0:0:
303,215,109760,1,8,0:0:0:0:
305,183,109820,1,8,0:0:0:0:
306,152,109880,1,8,0:0:0:0:
308,120,109940,1,8,0:0:0:0:
311,89,110000,6,0,L|314:51,14,26.25,8|0|8|0|8|0|8|0|8|0|8|0|8|0|8,0:0|0:0|0:0|0:0|0:0|0:0|0:0|0:0|0:0|0:0|0:0|0:0|0:0|0:0|0:0,0:0:0:0:
263,103,110480,6,0,L|244:104,96,13.125,8|0|8|0|8|0|8|0|8|0|8|0|8|0|8|0|0|0|0|0|0|0|0|0|0|0|0|0|0|0|0|0|0|0|0|0|0|0|0|0|0|0|0|0|0|0|0|0|0|0|0|0|0|0|0|0|0|0|0|0|0|0|0|0|0|0|0|0|0|0|0|0|0|0|0|0|0|0|0|0|0|0|0|0|0|0|0|0|0|0|0|0|0|0|0|0|0,0:0|0:0|0:0|0:0|0:0|0:0|0:0|0:0|0:0|0:0|0:0|0:0|0:0|0:0|0:0|0:0|0:0|0:0|0:0|0:0|0:0|0:0|0:0|0:0|0:0|0:0|0:0|0:0|0:0|0:0|0:0|0:0|0:0|0:0|0:0|0:0|0:0|0:0|0:0|0:0|0:0|0:0|0:0|0:0|0:0|0:0|0:0|0:0|0:0|0:0|0:0|0:0|0:0|0:0|0:0|0:0|0:0|0:0|0:0|0:0|0:0|0:0|0:0|0:0|0:0|0:0|0:0|0:0|0:0|0:0|0:0|0:0|0:0|0:0|0:0|0:0|0:0|0:0|0:0|0:0|0:0|0:0|0:0|0:0|0:0|0:0|0:0|0:0|0:0|0:0|0:0|0:0|0:0|0:0|0:0|0:0|0:0,0:0:0:0:
172,52,113840,5,2,0:0:0:0:
192,225,113960,1,0,0:0:0:0:
162,49,114080,1,8,0:0:0:0:
200,227,114200,1,0,0:0:0:0:
219,55,114320,5,2,0:0:0:0:
159,255,114440,1,0,0:0:0:0:
229,53,114560,1,8,0:0:0:0:
148,257,114680,1,0,0:0:0:0:
273,92,114800,5,2,0:0:0:0:
83,202,114920,1,0,0:0:0:0:
284,214,115040,1,8,0:0:0:0:
84,119,115160,1,0,0:0:0:0:
203,275,115280,5,2,0:0:0:0:
129,19,115400,1,0,0:0:0:0:
119,271,115520,1,8,0:0:0:0:
205,22,115640,1,0,0:0:0:0:
147,189,115760,5,2,0:0:0:0:
274,80,115880,1,0,0:0:0:0:
294,239,116000,1,8,0:0:0:0:
185,112,116120,1,0,0:0:0:0:
302,10,116240,5,2,0:0:0:0:
332,174,116360,1,0,0:0:0:0:
185,112,116480,1,8,0:0:0:0:
349,81,116600,1,0,0:0:0:0:
430,154,116720,5,2,0:0:0:0:
417,183,116780,1,0,0:0:0:0:
404,210,116840,2,0,L|380:263,1,36.749998878479
357,319,116960,5,8,0:0:0:0:
333,283,117020,1,0,0:0:0:0:
299,257,117080,1,8,0:0:0:0:
260,239,117140,1,0,0:0:0:0:
218,233,117200,1,8,0:0:0:0:
176,238,117260,1,0,0:0:0:0:
140,259,117320,1,8,0:0:0:0:
106,283,117380,1,0,0:0:0:0:
74,289,117440,5,2,0:0:0:0:
87,254,117500,1,8,0:0:0:0:
101,220,117560,1,8,0:0:0:0:
115,186,117620,1,8,0:0:0:0:
126,153,117680,5,2,0:0:0:0:
377,126,117800,1,0,0:0:0:0:
147,126,117920,1,8,0:0:0:0:
400,150,118040,1,0,0:0:0:0:
174,105,118160,5,2,0:0:0:0:
419,180,118280,1,0,0:0:0:0:
204,88,118400,1,8,0:0:0:0:
431,211,118520,1,0,0:0:0:0:
230,82,118640,5,2,0:0:0:0:
460,268,118760,1,0,0:0:0:0:
270,78,118880,1,8,0:0:0:0:
450,324,119000,1,0,0:0:0:0:
310,85,119120,5,2,0:0:0:0:
415,368,119240,1,0,0:0:0:0:
350,98,119360,1,8,0:0:0:0:
355,384,119480,1,0,0:0:0:0:
404,146,119600,5,2,0:0:0:0:
223,368,119720,1,0,0:0:0:0:
441,209,119840,1,8,0:0:0:0:
151,317,119960,1,0,0:0:0:0:
453,292,120080,5,2,0:0:0:0:
127,233,120200,1,0,0:0:0:0:
416,355,120320,1,8,0:0:0:0:
130,127,120440,1,0,0:0:0:0:
310,339,120560,6,0,B|295:273|267:210|217:160|165:123|165:123|142:160|119:187|70:197|70:197|145:182|220:165|321:183|401:268,1,735,2|0,0:0|0:0,0:0:0:0:
393,347,121520,5,2,0:0:0:0:
240,310,121640,1,0,0:0:0:0:
414,345,121760,1,8,0:0:0:0:
218,311,121880,1,0,0:0:0:0:
386,291,122000,5,2,0:0:0:0:
243,361,122120,1,0,0:0:0:0:
405,285,122240,1,8,0:0:0:0:
224,367,122360,1,0,0:0:0:0:
416,239,122480,5,2,0:0:0:0:
218,311,122600,1,0,0:0:0:0:
416,262,122720,1,8,0:0:0:0:
208,292,122840,1,0,0:0:0:0:
386,299,122960,5,2,0:0:0:0:
191,217,123080,1,0,0:0:0:0:
373,312,123200,1,8,0:0:0:0:
197,197,123320,1,0,0:0:0:0:
289,307,123440,5,2,0:0:0:0:
230,108,123560,1,0,0:0:0:0:
273,331,123680,1,8,0:0:0:0:
245,83,123800,1,0,0:0:0:0:
257,355,123920,1,2,0:0:0:0:
260,58,124040,1,0,0:0:0:0:
241,379,124160,1,8,0:0:0:0:
275,33,124280,1,0,0:0:0:0:
223,307,124400,6,0,B|207:340|207:340|184:341,10,49.8749986681939,2|0|0|0|0|0|0|0|0|0|0,0:0|0:0|0:0|0:0|0:0|0:0|0:0|0:0|0:0|0:0|0:0,0:0:0:0:
223,231,124760,2,0,B|251:202|251:202|279:240,10,78.7500030040742,2|0|0|0|0|0|0|0|0|0|0,0:0|0:0|0:0|0:0|0:0|0:0|0:0|0:0|0:0|0:0|0:0,0:0:0:0:
177,255,125120,2,0,L|174:312,4,39.3750015020371,2|0|0|0|0,0:0|0:0|0:0|0:0|0:0,0:0:0:0:
178,190,125360,5,2,0:0:0:0:
294,90,125480,1,0,0:0:0:0:
322,240,125600,1,8,0:0:0:0:
167,174,125720,5,0,0:0:0:0:
312,88,125840,1,2,0:0:0:0:
313,256,125960,1,0,0:0:0:0:
160,152,126080,5,8,0:0:0:0:
334,93,126200,1,0,0:0:0:0:
298,273,126320,1,2,0:0:0:0:
167,131,126440,5,0,0:0:0:0:
349,110,126560,1,8,0:0:0:0:
276,278,126680,1,0,0:0:0:0:
170,107,126800,5,2,0:0:0:0:
369,125,126920,1,0,0:0:0:0:
253,287,127040,1,8,0:0:0:0:
178,84,127160,5,0,0:0:0:0:
183,57,129200,5,6,0:0:0:0:
161,242,129320,1,0,0:0:0:0:
167,43,129440,1,8,0:0:0:0:
170,258,129560,1,0,0:0:0:0:
103,78,129680,5,6,0:0:0:0:
229,248,129800,1,0,0:0:0:0:
96,84,129920,1,8,0:0:0:0:
236,243,130040,1,0,0:0:0:0:
95,158,130160,5,6,0:0:0:0:
257,141,130280,1,0,0:0:0:0:
137,270,130400,1,8,0:0:0:0:
191,94,130520,1,0,0:0:0:0:
261,287,130640,5,6,0:0:0:0:
180,130,130760,1,0,0:0:0:0:
209,310,130880,1,8,0:0:0:0:
237,106,131000,1,0,0:0:0:0:
140,262,131120,5,6,0:0:0:0:
323,190,131240,1,0,0:0:0:0:
125,229,131360,1,8,0:0:0:0:
321,207,131480,1,0,0:0:0:0:
120,194,131600,5,6,0:0:0:0:
315,223,131720,1,0,0:0:0:0:
124,159,131840,1,8,0:0:0:0:
304,237,131960,1,0,0:0:0:0:
137,126,132080,5,6,0:0:0:0:
291,249,132200,1,0,0:0:0:0:
158,98,132320,1,8,0:0:0:0:
275,256,132440,1,0,0:0:0:0:
186,75,132560,5,6,0:0:0:0:
258,258,132680,1,0,0:0:0:0:
218,61,132800,1,8,0:0:0:0:
240,257,132920,1,0,0:0:0:0:
265,58,133040,5,6,0:0:0:0:
222,255,133160,1,0,0:0:0:0:
299,64,133280,1,8,0:0:0:0:
206,244,133400,1,0,0:0:0:0:
330,80,133520,5,6,0:0:0:0:
195,229,133640,1,0,0:0:0:0:
357,103,133760,1,8,0:0:0:0:
187,212,133880,1,0,0:0:0:0:
376,132,134000,5,6,0:0:0:0:
184,194,134120,1,0,0:0:0:0:
387,166,134240,1,8,0:0:0:0:
186,175,134360,1,0,0:0:0:0:
390,201,134480,5,6,0:0:0:0:
193,158,134600,1,0,0:0:0:0:
383,235,134720,1,8,0:0:0:0:
203,142,134840,1,0,0:0:0:0:
347,286,134960,6,0,L|298:206,1,68.2499968757631,6|0,0:0|0:0,0:0:0:0:
232,103,135080,2,0,L|279:179,1,68.2499968757631,6|0,0:0|0:0,0:0:0:0:
335,308,135200,2,0,L|296:212,1,68.2499968757631,8|0,0:0|0:0,0:0:0:0:
247,90,135320,2,0,L|284:182,1,68.2499968757631,6|0,0:0|0:0,0:0:0:0:
317,320,135440,6,0,L|294:210,1,68.2499968757631,6|0,0:0|0:0,0:0:0:0:
263,66,135560,2,0,L|285:173,1,68.2499968757631,6|0,0:0|0:0,0:0:0:0:
294,341,135680,2,0,L|291:230,1,68.2499968757631,8|0,0:0|0:0,0:0:0:0:
285,58,135800,2,0,L|288:177,1,68.2499968757631,6|0,0:0|0:0,0:0:0:0:
270,346,135920,6,0,L|287:226,1,68.2499968757631,6|0,0:0|0:0,0:0:0:0:
313,39,136040,2,0,L|296:155,1,68.2499968757631,6|0,0:0|0:0,0:0:0:0:
235,362,136160,2,0,L|273:248,1,68.2499968757631,8|0,0:0|0:0,0:0:0:0:
341,38,136280,2,0,L|305:147,1,68.2499968757631,6|0,0:0|0:0,0:0:0:0:
206,355,136400,6,0,L|254:265,1,68.2499968757631,6|0,0:0|0:0,0:0:0:0:
380,30,136520,2,0,L|328:126,1,68.2499968757631,6|0,0:0|0:0,0:0:0:0:
162,360,136640,2,0,L|220:285,1,68.2499968757631,8|0,0:0|0:0,0:0:0:0:
411,40,136760,2,0,L|344:124,1,68.2499968757631,6|0,0:0|0:0,0:0:0:0:
281,286,136880,5,6,0:0:0:0:
299,133,137000,1,0,0:0:0:0:
318,266,137120,1,8,0:0:0:0:
270,120,137240,1,0,0:0:0:0:
344,233,137360,5,6,0:0:0:0:
238,121,137480,1,0,0:0:0:0:
351,209,137600,1,8,0:0:0:0:
220,128,137720,1,0,0:0:0:0:
352,183,137840,5,6,0:0:0:0:
205,139,137960,1,0,0:0:0:0:
347,158,138080,1,8,0:0:0:0:
193,154,138200,1,0,0:0:0:0:
335,136,138320,5,6,0:0:0:0:
185,171,138440,1,0,0:0:0:0:
318,117,138560,1,8,0:0:0:0:
183,190,138680,1,0,0:0:0:0:
289,92,138800,5,6,0:0:0:0:
249,268,138920,1,0,0:0:0:0:
277,75,139040,5,8,0:0:0:0:
259,283,139160,1,0,0:0:0:0:
259,61,139280,5,6,0:0:0:0:
272,299,139400,1,0,0:0:0:0:
235,44,139520,5,8,0:0:0:0:
289,317,139640,1,0,0:0:0:0:
213,29,139760,5,6,0:0:0:0:
308,335,139880,1,0,0:0:0:0:
187,16,140000,5,8,0:0:0:0:
330,350,140120,1,0,0:0:0:0:
162,8,140240,5,6,0:0:0:0:
355,366,140360,1,0,0:0:0:0:
137,0,140480,5,8,0:0:0:0:
378,375,140600,1,0,0:0:0:0:
151,62,140720,6,0,B|201:118|201:118|268:133|268:133|243:196|278:247|333:260|370:246|416:231|391:160|391:160|405:157,1,429.158305902662,6|0,0:0|0:0,0:0:0:0:
480,167,141200,6,0,B|476:98|431:51|361:68|337:118|337:118|321:65|282:52|257:58|239:54|218:28,1,367.5,6|0,0:0|0:0,0:0:0:0:
140,25,141680,6,0,B|154:176|154:176|136:191|136:191|156:327,1,312.37500595808,6|0,0:0|0:0,0:0:0:0:
217,378,142160,6,0,B|365:259|247:257|418:140,1,312.37500595808,6|0,0:0|0:0,0:0:0:0:
462,201,142640,6,0,P|434:50|301:144,1,367.5,6|0,0:0|0:0,0:0:0:0:
316,209,143120,6,0,B|272:282|272:282|226:262|226:262|199:306|199:306|153:284|153:284|134:306|134:306|103:296|103:296|82:309|82:309|58:304|58:304|49:314|49:314|33:313|23:316,1,377.999988464356,6|0,0:0|0:0,0:0:0:0:
212,80,144560,6,0,P|162:155|182:207,1,105,6|0,0:2|0:2,0:2:0:0:
326,108,144800,2,0,P|245:147|236:202,1,105,4|0,0:2|0:2,0:2:0:0:
417,184,145040,2,0,P|327:178|292:221,1,105,6|0,0:2|0:2,0:2:0:0:
449,296,145280,2,0,P|374:245|322:266,1,105,4|0,0:2|0:2,0:2:0:0:
383,327,145520,6,0,L|266:306,1,105,6|0,0:2|0:2,0:2:0:0:
231,384,145760,2,0,L|190:272,1,105,4|0,0:2|0:2,0:2:0:0:
91,290,146000,2,0,L|167:199,1,105,6|0,0:2|0:2,0:2:0:0:
117,129,146240,2,0,L|234:149,1,105,4|0,0:2|0:2,0:2:0:0:
313,98,146480,6,0,B|310:119|303:133|303:133|309:153|305:168|307:183|307:183|296:192|298:209|298:209|293:224|296:246|296:246|297:262|294:277|294:277|290:289|290:303,1,204.749990627289,6|0,0:2|0:2,0:2:0:0:
355,358,146720,2,0,B|366:361|380:352|380:352|397:347|413:357|413:357|419:344|430:338|430:338|445:331|454:316|454:316|447:301|450:287|450:287|453:277|454:253|454:253|443:245|434:248|434:248,1,204.749990627289,4|0,0:2|0:2,0:2:0:0:
363,264,146960,2,0,B|365:221|365:221|382:198|382:198|379:170|379:170|405:166|405:166|404:139|417:119|417:119|408:103|408:103|412:87,1,204.749990627289,6|0,0:2|0:2,0:2:0:0:
440,17,147200,2,0,B|398:8|398:8|377:26|377:26|357:16|357:16|339:25|306:26|284:11|284:11|265:21|265:21|246:20,1,204.749990627289,4|0,0:2|0:2,0:2:0:0:
164,23,147440,5,6,0:2:0:0:
142,150,147560,1,0,0:2:0:0:
152,15,147680,1,4,0:2:0:0:
153,157,147800,1,0,0:2:0:0:
121,19,147920,6,0,B|115:43|96:63|90:86|90:86|75:104|79:122|64:138|64:138|55:155|69:175|57:191|57:191|45:213|50:231|48:240,1,236.250009012223,6|0,0:2|0:2,0:2:0:0:
20,319,148160,2,0,B|40:336|40:336|76:339|76:339|104:321|104:321|120:295|120:295|110:270|110:270|122:252|122:252|144:246|144:246|161:262|161:262|195:262,1,236.250009012223,4|0,0:2|0:2,0:2:0:0:
215,384,148400,6,0,B|241:323|241:323|227:257,1,105,6|0,0:2|0:2,0:2:0:0:
220,116,148640,2,0,B|194:177|194:177|208:243,1,105,4|0,0:2|0:2,0:2:0:0:
310,346,148880,2,0,B|285:284|285:284|228:247,1,105,6|0,0:2|0:2,0:2:0:0:
124,153,149120,2,0,B|148:214|148:214|205:251,1,105,4|0,0:2|0:2,0:2:0:0:
354,262,149360,6,0,L|398:256,20,26.25,6|0|0|0|0|0|0|0|0|0|0|0|0|0|0|0|0|0|0|0|0,0:0|0:0|0:0|0:0|0:0|0:0|0:0|0:0|0:0|0:0|0:0|0:0|0:0|0:0|0:0|0:0|0:0|0:0|0:0|0:0|0:0,0:0:0:0:
370,155,150080,6,0,L|364:117,6,26.25
309,184,150320,6,0,B|226:199|226:199|172:172|172:172|118:174,1,157.5,6|0,0:2|0:2,0:2:0:0:
85,144,150560,2,0,B|83:222|83:222|122:254|122:254|134:300,1,157.5,4|0,0:2|0:2,0:2:0:0:
63,336,150800,2,0,B|120:371|120:371|168:349|168:349|220:344,1,157.5,6|0,0:2|0:2,0:2:0:0:
278,383,151040,2,0,B|294:347|294:347|268:282|268:282|323:269|323:269,1,157.5,4|0,0:2|0:2,0:2:0:0:
408,258,151280,6,0,B|420:321|420:321|390:338|390:338|374:363|374:363|354:383,1,157.5,6|0,0:2|0:2,0:2:0:0:
194,374,151520,2,0,B|211:331|211:331|193:311|193:311|188:276|188:276|177:270|177:270|176:249|176:249|185:233,1,157.5,4|0,0:2|0:2,0:2:0:0:
239,179,151760,5,6,0:2:0:0:
299,322,151880,1,0,0:2:0:0:
134,329,152000,2,0,B|85:292|85:292|94:244|94:244|64:214|64:214|59:168,1,157.5,4|0,0:2|0:2,0:2:0:0:
67,110,152240,2,0,B|118:151|118:151|156:139|156:139|176:112|176:112|207:109,1,157.5,6|0,0:2|0:2,0:2:0:0:
281,66,152480,2,0,B|283:116|283:116|309:146|309:146|309:182|309:182|303:197|319:225,1,157.5,4|0,0:2|0:2,0:2:0:0:
322,313,152720,6,0,B|368:290|368:290|382:242|382:242|425:213|425:213|423:166,1,157.5,6|0,0:2|0:2,0:2:0:0:
442,135,152960,2,0,B|387:98|387:98|420:59|420:59|381:37,1,157.5,4|0,0:2|0:2,0:2:0:0:
301,9,153200,2,0,B|240:30|240:30|193:22|193:22|161:47|161:47|145:44,1,157.5,6|0,0:2|0:2,0:2:0:0:
71,53,153440,2,0,B|86:181|86:181|73:213,1,157.5,4|0,0:2|0:2,0:2:0:0:
0,227,153680,6,0,B|96:330|96:330|216:343,1,252,6|0,0:2|0:2,0:2:0:0:
336,342,153920,2,0,B|240:239|240:239|120:226,1,252,4|0,0:2|0:2,0:2:0:0:
54,217,154160,6,0,B|47:255|62:292|103:305|138:308|138:308|140:340|140:340|175:358,1,188.999994232178,6|0,0:2|0:2,0:2:0:0:
228,375,154400,2,0,B|261:376|261:376|285:344|285:344|289:305|289:305|246:302|246:302|236:289|236:289|219:294,1,188.999994232178,4|0,0:2|0:2,0:2:0:0:
139,318,154640,6,0,B|114:239|114:239|143:186|143:186|131:136,1,188.999994232178,6|0,0:2|0:2,0:2:0:0:
111,52,154880,2,0,B|176:44|176:44|208:89|208:89|250:93|250:93|270:112|270:112,1,188.999994232178,4|0,0:2|0:2,0:2:0:0:
343,154,155120,5,12,0:2:0:0:
314,300,155240,1,8,0:2:0:0:
353,155,155360,1,12,0:2:0:0:
288,322,155480,1,8,0:2:0:0:
365,161,155600,1,12,0:2:0:0:
258,337,155720,1,8,0:2:0:0:
377,171,155840,1,12,0:2:0:0:
225,345,155960,1,8,0:2:0:0:
420,235,156080,6,0,B|373:278|373:278|331:254|331:254|291:248|291:248|265:251,1,157.5,6|0,0:2|0:2,0:2:0:0:
191,275,156320,2,0,B|161:222|161:222|198:163|198:163|243:164,1,157.5,4|0,0:2|0:2,0:2:0:0:
316,174,156560,2,0,B|354:181|354:181|387:151|387:151|441:150|441:150|467:168,1,157.5,6|0,0:2|0:2,0:2:0:0:
504,259,156800,2,0,B|491:317|491:317|459:323|459:323|440:336|440:336|413:336|413:336|394:346,1,157.5,4|0,0:2|0:2,0:2:0:0:
321,321,157040,5,6,0:2:0:0:
120,283,157160,1,0,0:2:0:0:
322,306,157280,1,4,0:2:0:0:
118,297,157400,1,0,0:2:0:0:
322,292,157520,1,6,0:2:0:0:
118,311,157640,1,0,0:2:0:0:
320,278,157760,1,4,0:2:0:0:
120,325,157880,1,0,0:2:0:0:
246,80,159920,6,0,B|180:83|111:144|130:235|207:278|281:263|281:263|344:241|356:182|331:142|256:148|240:211|259:279|259:279|288:340|356:357|411:329|446:292|446:292|473:218|426:163|361:181|354:256|388:296|466:277|466:277|492:267|530:253|552:197|551:156|516:98|463:98,1,1322.99995962525,2|0,0:0|0:0,0:0:0:0:
363,110,161120,6,0,B|350:80|307:60|245:63|182:102|160:177|178:250|234:292|234:292|271:262|276:205|249:142|207:88|159:54|115:31|115:31|84:88|79:183|110:270,1,866.250033044816,2|2,0:0|0:0,0:0:0:0:
59,293,161840,6,0,B|125:345|125:345|153:322|206:334,1,136.499993751526,2|0,0:0|0:0,0:0:0:0:
277,356,162080,2,0,L|247:259,1,68.2499968757631,2|0,0:0|0:0,0:0:0:0:
239,173,162200,2,0,P|172:229|194:263,1,136.499993751526
296,298,162440,1,0,0:0:0:0:
297,289,162560,2,0,B|328:136|328:136|357:179,1,204.749990627289,2|0,0:0|0:0,0:0:0:0:
390,239,162800,6,0,P|490:221|375:158,1,315.000012016297,2|0,0:0|0:0,0:0:0:0:
434,188,163040,2,0,P|427:105|337:200,1,210,2|0,0:0|0:0,0:0:0:0:
314,193,163280,6,0,B|241:166|241:166|190:203|190:203|144:157|63:173|39:221|61:269|109:308|141:296|148:257|145:233|121:222,1,419.998931887482,2|0,0:0|0:0,0:0:0:0:
206,273,163760,6,0,B|251:326|336:356|435:354|534:331|534:331|448:267|370:245|279:223|279:223|297:281|375:306|460:276|495:211|462:140|431:94|355:65|284:81|253:115,1,1086.75000165825,2|0,0:0|0:0,0:0:0:0:
238,157,164720,6,0,B|287:203|382:186|415:119|391:48|303:4|241:23|208:64|208:64|158:30|116:46|85:88|80:123|80:123|92:177|144:197|177:176|197:148|202:93|153:58|102:64|24:139|24:220|84:273,1,933.333333333333,2|0,0:0|0:0,0:0:0:0:
76,327,165320,6,0,B|102:268|154:217|209:223|209:223|255:251|253:308|221:350|174:366|174:366|151:333|147:277|171:233|219:215,1,472.499985580445,2|0,0:0|0:0,0:0:0:0:
231,161,165680,6,0,B|282:82|282:82|322:43|311:1|260:-17|212:-2|200:28|213:62|239:83|281:82|281:82|396:85|396:85|310:153|323:230|361:282|361:282|408:226|416:159|380:98|380:98|446:128,1,944.99997116089,2|0,0:0|0:0,0:0:0:0:
483,32,166640,6,0,B|366:9|366:9|235:29,1,178.500003404617,2|0,0:0|0:0,0:0:0:0:
115,56,166880,1,0,0:0:0:0:
419,120,167000,2,0,B|282:133|282:133|179:109,1,178.500003404617,2|0,0:0|0:0,0:0:0:0:
47,177,167240,5,2,0:0:0:0:
461,218,167360,1,2,0:0:0:0:
245,175,167600,5,6,0:0:0:0:
453,336,167840,1,6,0:2:0:0:
58,47,168080,1,6,0:2:0:0:
495,239,168320,1,6,0:2:0:0:
216,98,168560,6,0,B|140:114|106:192|175:315|257:341|257:341|277:249|221:163|141:142|65:153|65:153|84:207|89:265|76:297,1,787.5,6|0,0:0|0:0,0:0:0:0:
40,367,169520,5,6,0:0:0:0:
476,34,169760,1,6,0:2:0:0:
5,304,170000,1,6,0:2:0:0:
512,96,170240,1,6,0:2:0:0:
244,72,170480,6,0,B|183:83|134:152|167:227|167:227|212:283|292:251|311:183|242:153|179:169|161:229|161:229|148:282|196:351|274:359,1,624.750011916161,6|0,0:0|0:0,0:0:0:0:
302,360,170960,6,0,B|366:204|366:204|327:226|327:226|395:86,1,367.5,2|0,0:0|0:0,0:0:0:0:
512,0,171440,5,6,0:0:0:0:
0,384,171680,1,6,0:2:0:0:
0,0,171920,1,6,0:2:0:0:
512,384,172160,1,6,0:2:0:0:
229,281,172400,6,0,B|183:259|183:259|105:268,1,105,2|0,0:0|0:0,0:0:0:0:
259,205,172640,2,0,B|213:183|213:183|135:192,1,105,2|0,0:0|0:0,0:0:0:0:
338,147,172880,2,0,B|279:93|279:93|180:106|180:106|196:81|163:49|131:68|127:90|149:115|149:115|72:129,1,357.000006809235,2|0,0:0|0:0,0:0:0:0:
163,40,175280,6,0,L|180:307,1,204.749990627289,2|0,0:0|0:0,0:0:0:0:
186,318,175520,1,8,0:0:0:0:
340,173,175640,1,8,0:0:0:0:
120,71,175760,6,0,L|227:316,1,204.749990627289,2|0,0:0|0:0,0:0:0:0:
236,324,176000,1,8,0:0:0:0:
331,135,176120,1,8,0:0:0:0:
92,123,176240,6,0,L|260:332,1,204.749990627289,2|0,0:0|0:0,0:0:0:0:
271,337,176480,1,8,0:0:0:0:
314,130,176600,1,8,0:0:0:0:
75,173,176720,6,0,L|304:312,1,204.749990627289,2|0,0:0|0:0,0:0:0:0:
316,314,176960,1,8,0:0:0:0:
314,265,177020,1,8,0:0:0:0:
311,215,177080,1,8,0:0:0:0:
295,10,177200,6,0,L|315:276,1,204.749990627289,2|0,0:0|0:0,0:0:0:0:
310,288,177440,1,8,0:0:0:0:
138,166,177560,1,8,0:0:0:0:
341,34,177680,6,0,L|268:291,1,204.749990627289,2|0,0:0|0:0,0:0:0:0:
261,301,177920,1,8,0:0:0:0:
140,128,178040,1,8,0:0:0:0:
376,74,178160,6,0,L|220:291,1,204.749990627289,2|0,0:0|0:0,0:0:0:0:
209,296,178400,1,8,0:0:0:0:
156,92,178520,1,8,0:0:0:0:
396,122,178640,6,0,L|175:273,1,204.749990627289,2|0,0:0|0:0,0:0:0:0:
163,275,178880,1,8,0:0:0:0:
165,225,178940,1,8,0:0:0:0:
168,175,179000,1,8,0:0:0:0:
185,2,179120,6,0,L|473:54,1,236.250009012223,6|0,0:2|0:2,0:2:0:0:
327,382,179360,2,0,L|39:330,1,236.250009012223,4|0,0:2|0:2,0:2:0:0:
271,0,179600,6,0,L|510:158,1,236.250009012223,6|0,0:2|0:2,0:2:0:0:
240,394,179840,2,0,L|1:225,1,236.250009012223,4|0,0:2|0:2,0:2:0:0:
355,15,180080,6,0,L|501:269,1,236.250009012223,6|0,0:2|0:2,0:2:0:0:
156,368,180320,2,0,L|10:114,1,236.250009012223,4|0,0:2|0:2,0:2:0:0:
421,74,180560,6,0,L|445:365,1,236.250009012223,6|0,0:2|0:2,0:2:0:0:
90,309,180800,2,0,L|66:18,1,236.250009012223,4|0,0:2|0:2,0:2:0:0:
434,175,181040,5,6,0:2:0:0:
402,202,181100,1,4,0:2:0:0:
370,230,181160,1,4,0:2:0:0:
140,209,181280,5,6,0:2:0:0:
172,182,181340,1,4,0:2:0:0:
204,154,181400,1,4,0:2:0:0:
353,284,181520,5,6,0:2:0:0:
321,272,181580,1,4,0:2:0:0:
289,261,181640,1,4,0:2:0:0:
250,245,181700,1,4,0:2:0:0:
210,231,181760,1,6,0:2:0:0:
168,231,181820,1,4,0:2:0:0:
130,249,181880,1,4,0:2:0:0:
107,284,181940,1,4,0:2:0:0:
108,325,182000,6,0,P|209:344|241:308,1,146.999995513916,6|0,0:2|0:0,0:0:0:0:
311,147,182240,2,0,P|210:128|178:164,1,146.999995513916,6|0,0:2|0:0,0:0:0:0:
298,337,182480,2,0,P|317:236|281:204,1,146.999995513916,6|0,0:2|0:0,0:0:0:0:
120,134,182720,2,0,P|101:235|137:267,1,146.999995513916,6|0,0:2|0:0,0:0:0:0:
144,270,182960,1,6,0:2:0:0:
161,279,183200,5,6,0:2:0:0:
328,154,183320,1,4,0:2:0:0:
137,72,183440,1,6,0:2:0:0:
127,68,183680,5,6,0:2:0:0:
233,357,183800,1,4,0:2:0:0:
431,121,183920,1,6,0:2:0:0:
431,102,184160,5,6,0:2:0:0:
46,202,184280,1,4,0:2:0:0:
381,292,184400,1,6,0:2:0:0:
258,118,184640,6,0,L|221:107,6,26.25,6|0|0|0|0|0|0,0:2|0:2|0:2|0:2|0:2|0:2|0:2,0:2:0:0:
191,121,184880,1,6,0:2:0:0:
270,373,185120,5,6,0:2:0:0:
315,5,185240,1,4,0:2:0:0:
386,346,185360,1,6,0:2:0:0:
114,166,185600,5,6,0:2:0:0:
317,261,185720,1,4,0:2:0:0:
297,37,185840,1,6,0:2:0:0:
142,47,186080,5,6,0:2:0:0:
164,325,186200,1,4,0:2:0:0:
131,57,186320,1,6,0:2:0:0:
240,179,186560,6,0,L|276:207,6,26.25,6|0|0|4|0|0|0,0:2|0:2|0:2|0:2|0:2|0:2|0:2,0:2:0:0:
295,188,186800,5,8,0:0:0:0:
350,0,186920,1,8,0:0:0:0:
298,226,187040,5,8,0:0:0:0:
336,20,187160,1,8,0:0:0:0:
320,266,187280,5,8,0:0:0:0:
325,40,187400,1,8,0:0:0:0:
349,299,187520,5,8,0:0:0:0:
316,55,187640,1,8,0:0:0:0:
383,330,187760,5,8,0:0:0:0:
306,73,187880,1,8,0:0:0:0:
425,370,188000,5,8,2:0:0:0:
295,92,188120,1,8,2:0:0:0:
472,379,188240,5,8,2:0:0:0:
283,112,188360,1,8,2:0:0:0:
512,384,188480,5,8,2:0:0:0:
270,135,188600,1,8,2:0:0:0:
492,314,188720,5,6,0:0:0:0:
20,201,188960,1,6,0:0:0:0:
280,2,189200,1,6,0:0:0:0:
238,358,189440,1,6,0:0:0:0:
185,65,189680,5,6,0:2:0:0:
188,106,189800,1,4,0:2:0:0:
191,147,189920,1,6,0:2:0:0:
196,188,190040,1,4,0:2:0:0:
301,94,190160,5,6,0:2:0:0:
300,104,190220,1,4,0:2:0:0:
299,114,190280,1,4,0:2:0:0:
298,124,190340,1,4,0:2:0:0:
297,134,190400,1,4,0:2:0:0:
296,144,190460,1,4,0:2:0:0:
295,154,190520,1,4,0:2:0:0:
294,164,190580,1,4,0:2:0:0:
293,174,190640,5,6,0:2:0:0:
273,363,190880,1,6,0:2:0:0:
215,3,191120,1,6,0:2:0:0:
347,367,191360,1,6,0:2:0:0:
144,47,191600,5,6,0:2:0:0:
417,322,191840,1,6,0:2:0:0:
99,118,192080,1,6,0:2:0:0:
462,251,192320,1,6,0:2:0:0:
35,188,192560,5,6,0:2:0:0:
498,148,192800,1,6,0:2:0:0:
25,307,193040,1,6,0:2:0:0:
508,29,193280,1,6,0:2:0:0:
341,22,193520,5,8,0:0:0:0:
338,38,193580,1,8,0:0:0:0:
335,57,193640,1,8,0:0:0:0:
334,75,193700,1,8,0:0:0:0:
331,93,193760,1,8,0:0:0:0:
329,111,193820,1,8,0:0:0:0:
328,129,193880,1,8,0:0:0:0:
325,148,193940,1,8,0:0:0:0:
324,166,194000,1,8,0:0:0:0:
321,184,194060,1,8,0:0:0:0:
318,202,194120,1,8,0:0:0:0:
317,219,194180,1,8,0:0:0:0:
315,237,194240,1,8,0:0:0:0:
312,256,194300,1,8,0:0:0:0:
311,274,194360,1,8,0:0:0:0:
308,292,194420,1,8,0:0:0:0:
305,312,194480,5,6,0:0:0:0:
21,86,194720,1,2,0:0:0:0:
489,200,194960,1,2,0:0:0:0:
18,190,195200,1,2,0:0:0:0:
491,95,195440,1,2,0:0:0:0:
60,285,195680,1,2,0:0:0:0:
449,0,195920,1,2,0:0:0:0:
139,354,196160,1,2,0:0:0:0:
288,5,196400,5,2,0:0:0:0:
302,307,196640,1,2,0:0:0:0:
302,327,196760,1,2,0:0:0:0:
378,362,196880,5,2,0:0:0:0:
381,187,197000,1,2,0:0:0:0:
389,345,197120,5,2,0:0:0:0:
385,170,197240,1,2,0:0:0:0:
400,327,197360,5,2,0:0:0:0:
390,152,197480,1,2,0:0:0:0:
409,309,197600,5,2,0:0:0:0:
393,134,197720,1,2,0:0:0:0:
421,291,197840,5,2,0:0:0:0:
398,117,197960,1,2,0:0:0:0:
428,272,198080,5,2,0:0:0:0:
400,98,198200,1,2,0:0:0:0:
453,278,198320,5,6,0:2:0:0:
243,257,198440,1,6,0:2:0:0:
444,254,198560,5,6,0:2:0:0:
235,232,198680,1,6,0:2:0:0:
436,233,198800,5,6,0:2:0:0:
226,211,198920,1,6,0:2:0:0:
428,210,199040,5,6,0:2:0:0:
218,187,199160,1,6,0:2:0:0:
421,190,199280,5,6,0:2:0:0:
211,168,199400,1,6,0:2:0:0:
413,166,199520,5,6,0:2:0:0:
203,144,199640,1,6,0:2:0:0:
405,146,199760,5,6,0:2:0:0:
195,123,199880,1,6,0:2:0:0:
397,122,200000,5,6,0:2:0:0:
187,99,200120,1,6,0:2:0:0:
390,101,200240,5,6,0:2:0:0:
180,79,200360,1,6,0:2:0:0:
382,78,200480,5,6,0:2:0:0:
172,55,200600,1,6,0:2:0:0:
374,57,200720,5,6,0:2:0:0:
164,34,200840,1,6,0:2:0:0:
366,33,200960,5,6,0:2:0:0:
156,11,201080,1,6,0:2:0:0:
358,2,201200,5,6,0:2:0:0:
267,370,201440,1,6,0:2:0:0:
82,0,201680,1,6,0:2:0:0:
504,281,201920,1,6,0:2:0:0:
306,288,202160,5,6,0:2:0:0:
280,121,202280,1,0,0:0:0:0:
275,291,202400,5,8,0:0:0:0:
310,117,202520,1,0,0:0:0:0:
242,287,202640,5,6,0:2:0:0:
343,121,202760,1,0,0:0:0:0:
213,268,202880,5,8,0:0:0:0:
372,140,203000,1,0,0:0:0:0:
191,239,203120,5,6,0:2:0:0:
394,169,203240,1,0,0:0:0:0:
177,202,203360,5,8,0:0:0:0:
408,206,203480,1,0,0:0:0:0:
177,159,203600,5,6,0:2:0:0:
408,249,203720,1,0,0:0:0:0:
190,114,203840,5,8,0:0:0:0:
395,294,203960,1,0,0:0:0:0:
142,72,206000,5,8,0:0:0:0:
142,72,206240,1,8,0:0:0:0:
142,72,206480,1,8,0:0:0:0:
142,72,206720,1,8,0:0:0:0:
136,77,206960,1,8,0:0:0:0:
143,89,207200,1,8,0:0:0:0:
157,90,207440,1,8,0:0:0:0:
166,83,207680,1,8,0:0:0:0:
172,60,207920,1,8,0:0:0:0:
158,32,208160,1,8,0:0:0:0:
121,24,208400,1,8,0:0:0:0:
86,43,208640,1,8,0:0:0:0:
73,83,208880,5,8,0:0:0:0:
75,103,208940,1,8,0:0:0:0:
77,123,209000,1,8,0:0:0:0:
79,143,209060,1,8,0:0:0:0:
81,163,209120,1,8,0:0:0:0:
83,183,209180,1,8,0:0:0:0:
85,203,209240,1,8,0:0:0:0:
87,223,209300,1,8,0:0:0:0:
89,243,209360,1,8,0:0:0:0:
179,305,209480,5,8,0:0:0:0:
179,284,209540,1,8,0:0:0:0:
179,263,209600,1,8,0:0:0:0:
180,242,209660,1,8,0:0:0:0:
181,221,209720,1,8,0:0:0:0:
182,200,209780,1,8,0:0:0:0:
183,179,209840,5,2,0:0:0:0:
412,38,210080,1,2,0:0:0:0:
382,369,210320,1,2,0:0:0:0:
51,339,210560,1,2,0:0:0:0:
93,0,210800,5,2,0:0:0:0:
422,50,211040,1,2,0:0:0:0:
369,379,211280,1,2,0:0:0:0:
40,326,211520,1,2,0:0:0:0:
127,0,211760,5,2,0:0:0:0:
335,385,212000,1,2,0:0:0:0:
428,84,212240,1,2,0:0:0:0:
34,292,212480,1,2,0:0:0:0:
159,0,212720,5,2,0:0:0:0:
303,387,212960,1,2,0:0:0:0:
430,116,213200,1,2,0:0:0:0:
32,260,213440,1,2,0:0:0:0:
196,2,213680,5,2,0:0:0:0:
320,379,213920,1,2,0:0:0:0:
180,18,214160,5,2,0:0:0:0:
335,362,214400,1,2,0:0:0:0:
168,36,214640,5,2,0:0:0:0:
347,344,214880,1,2,0:0:0:0:
157,53,215120,5,2,0:0:0:0:
358,327,215360,1,2,0:0:0:0:
195,51,215600,5,2,0:0:0:0:
320,329,215720,1,2,0:0:0:0:
257,53,215840,5,2,0:0:0:0:
258,327,215960,1,2,0:0:0:0:
307,77,216080,5,2,0:0:0:0:
208,303,216200,1,2,0:0:0:0:
340,115,216320,5,2,0:0:0:0:
175,265,216440,1,2,0:0:0:0:
348,168,216560,5,8,0:0:0:0:
306,172,216620,1,8,0:0:0:0:
264,176,216680,1,8,0:0:0:0:
222,180,216740,1,8,0:0:0:0:
180,185,216800,1,8,0:0:0:0:
138,190,216860,1,8,0:0:0:0:
96,196,216920,1,8,0:0:0:0:
19,259,217040,6,8,L|26:290,12,26.25
108,56,217520,5,2,0:0:0:0:
404,328,217760,1,2,0:0:0:0:
139,29,218000,5,2,0:0:0:0:
373,355,218240,1,2,0:0:0:0:
176,8,218480,5,2,0:0:0:0:
336,376,218720,1,2,0:0:0:0:
216,0,218960,5,2,0:0:0:0:
296,389,219200,1,2,0:0:0:0:
258,0,219440,5,2,0:0:0:0:
254,393,219680,1,2,0:0:0:0:
181,66,221360,5,2,0:0:0:0:
181,66,221480,1,4,0:2:0:0:
266,104,221600,5,8,0:0:0:0:
266,104,221720,1,4,0:2:0:0:
169,272,221840,5,2,0:0:0:0:
169,159,221960,1,4,0:2:0:0:
158,273,222080,1,8,0:0:0:0:
179,157,222200,1,4,0:2:0:0:
77,245,222320,5,2,0:0:0:0:
77,245,222440,1,4,0:2:0:0:
332,183,222560,5,8,0:0:0:0:
332,183,222680,1,4,0:2:0:0:
161,27,222800,5,2,0:0:0:0:
161,27,222920,1,4,0:2:0:0:
229,369,223040,5,8,0:0:0:0:
229,369,223160,1,4,0:2:0:0:
276,3,223280,5,2,0:0:0:0:
311,381,223520,1,2,0:0:0:0:
118,46,223760,1,2,0:0:0:0:
468,337,224000,1,2,0:0:0:0:
246,113,224240,6,0,P|211:192|271:197,1,157.5,2|0,0:0|0:0,0:0:0:0:
317,160,224480,2,0,P|331:106|247:40,1,157.5,2|0,0:0|0:0,0:0:0:0:
110,88,224720,2,0,P|102:192|137:244,1,157.5,2|0,0:0|0:0,0:0:0:0:
260,322,224960,2,0,P|262:250|210:178,1,157.5,2|0,0:0|0:0,0:0:0:0:
53,148,225200,5,6,0:0:0:0:
200,164,225320,1,4,0:2:0:0:
45,155,225440,1,8,0:0:0:0:
207,156,225560,1,4,0:2:0:0:
45,183,225680,5,2,0:0:0:0:
213,170,225800,1,4,0:2:0:0:
121,294,225920,2,0,L|115:325,4,26.25,8|0|0|0|4,0:0|0:0|0:0|0:0|0:2,0:0:0:0:
171,88,226160,5,2,0:0:0:0:
194,299,226280,1,4,0:2:0:0:
182,76,226400,1,8,0:0:0:0:
182,310,226520,1,4,0:2:0:0:
247,56,226640,6,0,L|253:193,1,105,2|4,0:0|0:2,0:0:0:0:
115,345,226880,2,0,B|108:314|108:314|115:299|115:299|111:278|111:278|107:257|107:257|109:233|109:233|109:208,1,136.499993751526,8|4,0:0|0:2,0:0:0:0:
112,51,227120,5,2,0:0:0:0:
253,349,227360,5,8,0:0:0:0:
221,164,227480,1,8,0:0:0:0:
77,285,227600,1,2,0:0:0:0:
66,288,227840,5,8,2:0:0:0:
86,63,227960,1,8,2:0:0:0:
269,193,228080,2,0,L|271:254,1,52.5
276,296,228320,6,0,B|342:337|342:337|395:288|395:288|397:227|397:227|285:160|285:160|286:111|286:111|342:58|342:58|398:89|398:89|399:161,1,545.999975006105
159,185,229040,5,2,0:0:0:0:
429,196,229280,1,8,0:0:0:0:
157,135,229520,5,2,0:0:0:0:
431,246,229760,1,8,0:0:0:0:
180,88,230000,5,2,0:0:0:0:
408,293,230240,1,8,0:0:0:0:
215,41,230480,5,2,0:0:0:0:
373,340,230720,1,8,0:0:0:0:
269,9,230960,5,2,0:0:0:0:
319,372,231200,1,8,0:0:0:0:
334,4,231440,5,2,0:0:0:0:
254,377,231680,1,8,0:0:0:0:
401,20,231920,5,2,0:0:0:0:
187,361,232160,1,8,0:0:0:0:
464,59,232400,5,2,0:0:0:0:
124,322,232640,1,8,0:0:0:0:
486,128,232880,5,6,0:0:0:0:
11,182,233360,1,6,0:0:0:0:
406,337,233840,1,6,0:0:0:0:
240,13,234320,1,6,0:0:0:0:
260,382,234800,5,6,0:0:0:0:
250,6,235280,1,6,0:0:0:0:
353,354,235760,1,6,0:0:0:0:
156,33,236240,2,0,B|178:89|178:89|165:151|165:151|175:201|151:249,1,210,6|0,0:0|0:0,0:0:0:0:
