osu file format v14

[General]
AudioFilename: audio.mp3
AudioLeadIn: 0
PreviewTime: 67049
Countdown: 0
SampleSet: None
StackLeniency: 0.2
Mode: 0
LetterboxInBreaks: 0
WidescreenStoryboard: 0

[Editor]
Bookmarks: 67843,90431,124314,146902,175137,186431,207608,208314,231608
DistanceSpacing: 0.8
BeatDivisor: 4
GridSize: 8
TimelineZoom: 1

[Metadata]
Title:GET HYPER
TitleUnicode:GET HYPER
Artist:Droideka
ArtistUnicode:Droideka
Creator:LukerMaster
Version:GET RSI
Source:
Tags:LKR
BeatmapID:1072460
BeatmapSetID:504003

[Difficulty]
HPDrainRate:4
CircleSize:4
OverallDifficulty:7.2
ApproachRate:10
SliderMultiplier:3.6
SliderTickRate:1

[Events]
//Background and Video events
0,0,"bg-gh.jpg",0,0
//Break Periods
2,175160,185981
//Storyboard Layer 0 (Background)
//Storyboard Layer 1 (Fail)
//Storyboard Layer 2 (Pass)
//Storyboard Layer 3 (Foreground)
//Storyboard Sound Samples

[TimingPoints]
79,352.941176470588,4,3,0,5,1,0
45255,-66.6666666666667,4,3,0,100,0,0
48431,-50,4,3,0,100,0,0
48784,-37.5,4,3,0,100,0,0
49314,-66.6666666666667,4,3,0,100,0,0
49490,-200,4,3,0,100,0,0
49667,-133.333333333333,4,3,0,100,0,0
49843,-100,4,3,0,100,0,0
50020,-80,4,3,0,100,0,0
50196,-66.6666666666667,4,2,0,100,0,0
50902,-66.6666666666667,4,3,0,100,0,0
53373,-50,4,3,0,100,0,0
53726,-66.6666666666667,4,3,0,100,0,0
53902,-33.3333333333333,4,3,0,100,0,0
54255,-66.6666666666667,4,3,0,100,0,0
54431,-33.3333333333333,4,3,0,100,0,0
54784,-66.6666666666667,4,3,0,100,0,0
55137,-133.333333333333,4,3,0,100,0,0
55314,-100,4,3,0,100,0,0
55490,-80,4,3,0,100,0,0
55667,-66.6666666666667,4,3,0,100,0,0
55843,-57.1428571428571,4,3,0,100,0,0
56020,-50,4,3,0,100,0,0
56549,-66.6666666666667,4,3,0,100,0,0
59726,-33.3333333333333,4,3,0,100,0,0
60078,-66.6666666666667,4,3,0,100,0,0
60608,-66.6666666666667,4,3,0,100,0,0
60784,-100,4,3,0,100,0,0
60961,-80,4,3,0,100,0,0
61137,-66.6666666666667,4,3,0,100,0,0
61314,-57.1428571428571,4,3,0,100,0,0
61490,-66.6666666666667,4,3,0,100,0,0
62196,-50,4,3,0,40,0,0
62549,-50,4,3,0,100,0,0
62726,-50,4,3,0,40,0,0
63255,-50,4,3,0,100,0,0
63608,-200,4,3,0,100,0,0
63784,-50,4,3,0,40,0,0
63961,-200,4,3,0,100,0,0
64137,-50,4,3,0,40,0,0
64314,-200,4,3,0,100,0,0
65020,-200,4,3,0,60,0,0
66078,-200,4,3,0,100,0,0
67049,-200,4,3,0,5,0,0
67843,-66.6666666666667,4,3,0,100,0,0
70667,-100,4,3,0,100,0,0
71373,-50,4,3,0,100,0,0
72078,-66.6666666666667,4,3,0,100,0,0
73490,-100,4,3,0,100,0,0
76314,-50,4,3,0,100,0,0
77020,-100,4,3,0,100,0,0
77726,-66.6666666666667,4,3,0,100,0,0
77902,-80,4,3,0,100,0,0
78078,-100,4,3,0,100,0,0
78255,-133.333333333333,4,3,0,100,0,0
78431,-50,4,3,0,100,0,0
78784,-5,4,3,0,100,0,0
79137,-66.6666666666667,4,3,0,100,0,0
81608,-66.6666666666667,4,3,0,100,0,0
81961,-50,4,3,0,100,0,0
83373,-100,4,3,0,100,0,0
83549,-66.6666666666667,4,3,0,100,0,0
83726,-50,4,3,0,100,0,0
83902,-40,4,3,0,100,0,0
84078,-50,4,3,0,100,0,0
87608,-100,4,2,0,40,0,0
87784,-66.6666666666667,4,2,0,40,0,0
87961,-50,4,2,0,40,0,0
88137,-40,4,2,0,40,0,0
88667,-133.333333333333,4,2,0,40,0,0
89020,-133.333333333333,4,3,0,100,0,0
90431,-80,4,3,0,100,0,0
103843,-200,4,2,0,100,0,0
104549,-100,4,3,0,100,0,0
105608,-66.6666666666667,4,3,0,100,0,0
105784,-100,4,3,0,100,0,0
106137,-80,4,3,0,100,0,0
106314,-66.6666666666667,4,3,0,100,0,0
106490,-57.1428571428571,4,3,0,100,0,0
106667,-66.6666666666667,4,3,0,100,0,0
107020,-100,4,3,0,100,0,0
108608,-66.6666666666667,4,3,0,100,0,0
109490,-200,4,2,0,100,0,0
110196,-100,4,3,0,100,0,0
111873,-50,4,3,0,100,0,0
112314,-66.6666666666667,4,3,0,100,0,0
113020,-100,4,3,0,100,0,0
114255,-66.6666666666667,4,3,0,100,0,0
115137,-200,4,2,0,100,0,0
115843,-100,4,3,0,100,0,0
117961,-66.6666666666667,4,3,0,100,0,0
118667,-100,4,3,0,100,0,0
119902,-66.6666666666667,4,3,0,100,0,0
120784,-133.333333333333,4,2,0,100,0,0
121490,-66.6666666666667,4,3,0,100,0,0
122196,-100,4,3,0,100,0,0
123078,-80,4,3,0,100,0,0
123255,-66.6666666666667,4,3,0,100,0,0
123431,-57.1428571428571,4,3,0,100,0,0
123608,-66.6666666666667,4,3,0,100,0,0
123873,-57.1428571428571,4,3,0,100,0,0
124314,-80,4,3,0,100,0,0
146902,-66.6666666666667,4,3,0,100,0,0
149726,-80,4,3,0,100,0,0
149902,-66.6666666666667,4,3,0,100,0,0
150078,-57.1428571428571,4,3,0,100,0,0
150255,-50,4,3,0,100,0,0
150431,-57.1428571428571,4,3,0,100,0,0
150608,-66.6666666666667,4,3,0,100,0,0
150961,-40,4,3,0,100,0,0
151137,-66.6666666666667,4,3,0,100,0,0
151314,-57.1428571428571,4,3,0,100,0,0
151490,-50,4,3,0,100,0,0
151667,-44.4444444444444,4,3,0,100,0,0
151843,-80,4,3,0,100,0,0
152549,-66.6666666666667,4,3,0,100,0,0
159608,-80,4,3,0,100,0,0
163137,-66.6666666666667,4,3,0,100,0,0
165608,-57.1428571428571,4,3,0,100,0,0
165961,-66.6666666666667,4,3,0,100,0,0
167020,-100,4,3,0,100,0,0
167373,-50,4,3,0,100,0,0
167902,-66.6666666666667,4,3,0,100,0,0
168431,-100,4,3,0,100,0,0
169490,-66.6666666666667,4,3,0,100,0,0
172314,-100,4,3,0,100,0,0
172490,-66.6666666666667,4,3,0,100,0,0
172843,-100,4,3,0,100,0,0
173020,-66.6666666666667,4,3,0,100,0,0
173726,-100,4,3,0,100,0,0
173902,-66.6666666666667,4,3,0,100,0,0
174255,-100,4,3,0,100,0,0
186431,-80,4,3,0,100,0,0
187667,-66.6666666666667,4,3,0,100,0,0
188549,-133.333333333333,4,2,0,100,0,0
189255,-66.6666666666667,4,3,0,100,0,0
192961,-100,4,3,0,100,0,0
193314,-66.6666666666667,4,3,0,100,0,0
194196,-100,4,3,0,100,0,0
194549,-133.333333333333,4,3,0,100,0,0
194902,-66.6666666666667,4,3,0,100,0,0
198961,-66.6666666666667,4,3,0,100,0,0
199843,-133.333333333333,4,3,0,100,0,0
200549,-100,4,3,0,100,0,0
200726,-80,4,3,0,100,0,0
200902,-66.6666666666667,4,3,0,100,0,0
201078,-57.1428571428571,4,3,0,100,0,0
201961,-66.6666666666667,4,3,0,100,0,0
205490,-133.333333333333,4,2,0,100,0,0
206196,-66.6666666666667,4,3,0,100,0,0
208314,-200,4,3,0,100,0,0

[Colours]
Combo1 : 221,157,255
Combo2 : 255,255,255
Combo3 : 17,243,255
Combo4 : 62,168,255

[HitObjects]
256,192,42431,12,0,44549,0:0:0:0:
384,64,45255,6,0,P|384:160|224:192,1,270.000003147125,4|0,0:0|0:0,0:0:0:0:
128,240,45608,2,0,P|128:144|288:112,1,270.000003147125,0|0,1:0|0:0,0:0:0:0:
416,200,45873,1,0,0:0:0:0:
416,200,45961,6,0,L|448:48,1,135.000001573563
209,333,46137,2,0,L|241:181,1,135.000001573563
448,344,46314,1,0,1:0:0:0:
152,176,46490,6,0,P|88:192|144:232,1,135.000001573563
192,104,46667,2,0,P|64:100|8:216,1,270.000003147125,4|0,0:0|0:0,0:0:0:0:
416,336,47020,2,0,L|456:56,1,270.000003147125,0|0,1:0|0:0,0:0:0:0:
288,32,47284,1,0,0:0:0:0:
288,32,47373,6,0,B|256:96|256:96|264:160,1,135.000001573563
328,320,47549,2,0,B|264:288|264:288|200:296,1,135.000001573563
72,320,47726,6,0,B|56:104|56:104|112:144,1,270.000003147125,0|0,1:0|0:0,0:0:0:0:
440,208,48079,6,0,L|424:72,1,135.000001573563,4|0,0:0|0:0,0:0:0:0:
256,224,48256,2,0,L|272:88,1,135.000001573563
446,253,48432,6,0,L|424:71,1,180,0|0,1:0|0:0,0:0:0:0:
250,269,48608,2,0,L|271:87,1,180
452,312,48784,6,0,L|423:73,1,240
243,328,48961,2,0,L|271:89,1,240
344,280,49137,1,0,1:0:0:0:
168,207,49314,6,0,P|113:179|136:122,1,135.000005149842
352,144,49490,6,0,L|323:178,1,45
366,126,49667,6,0,L|322:177,1,67.5000025749208
384,104,49843,6,0,L|326:173,1,90
398,86,50020,6,0,L|325:172,1,112.5
168,152,50196,6,0,P|104:160|184:96,1,270.000010299683,2|0,0:0|0:0,0:0:0:0:
448,256,50549,6,0,P|456:320|392:240,1,270.000010299683,2|0,0:0|0:0,0:0:0:0:
456,320,50902,6,0,B|400:384|352:312|352:312|296:328|296:328|248:320|248:320|192:328,1,270.000010299683,4|0,0:0|0:0,0:0:0:0:
144,144,51255,2,0,B|192:128|248:152|248:152|208:200|208:200|144:200|144:200|96:184,1,270.000010299683,0|0,1:0|0:0,0:0:0:0:
72,96,51520,1,0,0:0:0:0:
88,80,51608,2,0,P|200:56|240:64,1,135.000005149842
424,96,51784,6,0,P|448:144|384:120,1,135.000005149842
496,208,51961,6,0,P|408:240|312:104,1,270.000010299683,0|0,1:0|0:0,0:0:0:0:
80,80,52314,6,0,B|79:123|113:161|113:161|107:222|157:249|157:249|190:211|181:181,1,270.000010299683,4|0,0:0|0:0,0:0:0:0:
48,224,52667,6,0,B|80:304|168:336|168:336|232:288|248:232,1,270.000010299683,0|0,1:0|0:0,0:0:0:0:
464,64,53020,6,0,P|424:168|432:336,1,270.000010299683
428,324,53373,6,0,P|304:216|272:16,1,360,0|0,1:0|0:0,0:0:0:0:
80,184,53726,6,0,P|64:120|96:48,1,135.000005149842,4|0,0:0|0:0,0:0:0:0:
200,224,53902,2,0,P|80:184|91:56,1,270.000010299683
273,123,54078,2,0,P|137:226|80:184,1,270.000010299683,0|0,1:0|0:0,0:0:0:0:
484,237,54255,6,0,P|500:301|468:373,1,135.000005149842
364,197,54431,2,0,P|484:237|473:365,1,270.000010299683
291,298,54608,2,0,P|426:194|488:240,1,270.000010299683
496,144,54784,6,0,B|424:96|336:120|336:120|368:64|368:64|384:88|376:128,1,270.000010299683,0|0,1:0|0:0,0:0:0:0:
256,192,55137,6,0,L|200:136,1,67.5000025749208,4|0,0:0|0:0,0:0:0:0:
256,192,55314,6,0,L|300:104,1,90
256,192,55490,6,0,L|379:211,1,112.5,0|0,1:0|0:0,0:0:0:0:
256,192,55667,6,0,L|278:332,1,135.000005149842
256,192,55843,6,0,B|100:268|100:268|156:136,1,315.000003004074
404,72,56196,6,0,B|438:84|438:84|398:97|398:97|390:137|390:137|374:103|374:103|340:119|340:119|360:84|360:84|338:48|338:48|376:61|376:61|404:22,1,360,0|0,1:0|0:0,0:0:0:0:
456,240,56549,6,0,B|328:296|328:296|184:304,1,270.000010299683,4|0,0:0|0:0,0:0:0:0:
32,104,56902,6,0,B|160:48|160:48|304:40,1,270.000010299683,0|0,1:0|0:0,0:0:0:0:
456,240,57167,5,0,0:0:0:0:
456,240,57255,2,0,B|456:176|456:176|432:104,1,135.000005149842
196,304,57431,1,0,0:0:0:0:
196,304,57608,6,0,B|168:248|88:256|72:320|72:320|56:256|96:200,1,270.000010299683,0|0,1:0|0:0,0:0:0:0:
168,72,57961,6,0,P|272:40|328:168,1,270.000010299683,4|0,0:0|0:0,0:0:0:0:
248,120,58314,2,0,P|352:88|408:216,1,270.000010299683,0|0,1:0|0:0,0:0:0:0:
96,312,58667,6,0,L|384:296,1,270.000010299683
392,112,59020,2,0,L|104:128,1,270.000010299683,0|0,1:0|0:0,0:0:0:0:
232,304,59373,6,0,L|376:296,1,135.000005149842,4|0,0:0|0:0,0:0:0:0:
272,120,59549,6,0,L|128:128,1,135.000005149842
96,312,59726,6,0,L|384:296,1,270.000010299683,0|0,1:0|0:0,0:0:0:0:
408,112,59902,2,0,L|120:128,1,270.000010299683
365,297,60078,6,0,L|509:289,1,135.000005149842
138,126,60255,6,0,L|-6:134,1,135.000005149842
256,192,60431,1,0,1:0:0:0:
400,120,60608,6,0,P|416:240|408:264,1,135.000005149842
56,168,60784,6,0,L|80:72,1,90,4|0,0:0|0:0,0:0:0:0:
80,192,60961,6,0,L|78:80,1,112.5
115,209,61137,6,0,L|78:79,1,135.000005149842,0|0,1:0|0:0,0:0:0:0:
158,214,61314,6,0,L|76:78,1,157.500001502037
328,176,61490,6,0,L|72:80,1,270.000010299683
344,72,61843,6,0,L|72:80,1,270.000010299683,0|0,1:0|0:0,0:0:0:0:
96,336,62196,5,0,0:0:0:0:
192,32,62373,1,0,0:0:0:0:
256,328,62549,1,2,0:0:0:0:
8,120,62726,1,0,0:0:0:0:
456,96,62902,5,0,0:0:0:0:
96,176,63078,1,0,0:0:0:0:
368,80,63255,1,2,0:0:0:0:
362,124,63343,1,0,0:0:0:0:
356,169,63431,1,2,0:0:0:0:
350,213,63519,1,0,0:0:0:0:
344,258,63607,1,4,0:0:0:0:
160,72,63784,1,0,0:0:0:0:
448,176,63961,1,2,0:0:0:0:
208,320,64137,1,0,0:0:0:0:
72,176,64314,6,0,B|120:160|120:160|192:168,1,90
312,272,64667,1,2,0:2:0:0:
356,271,64755,1,2,0:2:0:0:
397,252,64843,1,2,0:2:0:0:
426,218,64931,1,0,0:0:0:0:
439,176,65020,2,0,P|440:128|432:104,1,45
336,32,65196,2,0,P|335:80|343:104,1,45
400,304,65373,2,0,P|400:255|392:231,1,45,2|0,0:0|0:0,0:0:0:0:
496,24,65549,2,0,P|496:72|488:96,1,45
280,208,65726,2,0,P|208:224|168:200,1,90
96,48,66078,5,2,0:2:0:0:
104,91,66166,1,2,0:2:0:0:
101,136,66254,1,2,0:2:0:0:
85,178,66342,1,0,0:0:0:0:
58,214,66431,2,0,L|16:256,1,45
152,240,66608,2,0,L|109:281,1,45
240,272,66784,2,0,L|197:313,1,45,2|0,0:0|0:0,0:0:0:0:
333,297,66961,2,0,L|290:338,1,45
32,320,67843,6,0,B|80:304|80:304|128:320|128:320|176:304|176:304|224:320|224:320|264:328|296:320,1,270.000010299683,4|0,0:0|0:0,0:0:0:0:
480,64,68196,2,0,B|432:80|432:80|384:64|384:64|336:80|336:80|288:64|288:64|248:56|216:64,1,270.000010299683,0|0,1:0|0:0,0:0:0:0:
276,244,68549,6,0,P|308:212|212:228,1,270.000010299683
368,264,68902,6,0,P|392:176|368:112,1,135.000005149842,0|0,1:0|0:0,0:0:0:0:
144,120,69078,2,0,P|120:208|144:272,1,135.000005149842
288,344,69255,6,0,B|328:336|328:336|368:344|368:344|408:336|408:336|448:344|448:344|488:336|488:336|472:304|416:296,1,270.000010299683,4|0,0:0|0:0,0:0:0:0:
216,248,69608,2,0,B|176:240|176:240|136:248|136:248|96:240|96:240|56:248|56:248|16:240|16:240|32:208|88:200,1,270.000010299683,0|0,1:0|0:0,0:0:0:0:
320,80,69961,6,0,P|360:40|336:136,1,270.000010299683
155,148,70314,6,0,P|87:67|192:80,1,270.000010299683,0|0,1:0|0:0,0:0:0:0:
448,304,70667,6,0,L|352:312,1,90,4|0,0:0|0:0,0:0:0:0:
48,248,70843,6,0,L|144:240,1,90
358,311,71020,6,0,L|262:319,1,90,0|0,1:0|0:0,0:0:0:0:
137,240,71196,6,0,L|233:232,1,90
448,304,71373,6,0,L|64:336,1,360
120,40,71726,6,0,L|504:72,1,360,0|0,1:0|0:0,0:0:0:0:
136,248,72078,6,0,B|136:184|136:184|160:112,1,135.000005149842,4|0,0:0|0:0,0:0:0:0:
353,267,72255,6,0,B|376:200|376:200|376:136,1,135.000005149842
136,248,72431,6,0,B|136:184|136:184|160:112,1,135.000005149842,0|0,1:0|0:0,0:0:0:0:
353,267,72608,6,0,B|376:200|376:200|376:136,1,135.000005149842
96,40,72784,6,0,B|56:168|56:168|56:304,1,270.000010299683
416,344,73137,6,0,B|456:216|456:216|456:80,1,270.000010299683,0|0,1:0|0:0,0:0:0:0:
144,248,73490,6,0,P|184:304|224:224,1,180,4|0,0:0|0:0,0:0:0:0:
168,96,73843,2,0,P|203:27|256:83,1,180,0|0,1:0|0:0,0:0:0:0:
96,168,74108,1,0,0:0:0:0:
96,168,74196,2,0,P|64:80|88:0,1,180
328,160,74549,2,0,L|304:344,1,180,0|0,1:0|0:0,0:0:0:0:
168,56,74902,6,0,B|256:40|256:40|360:56,1,180,4|0,0:0|0:0,0:0:0:0:
496,88,75255,6,0,B|406:74|406:74|318:90,1,180,0|0,1:0|0:0,0:0:0:0:
184,192,75520,1,0,0:0:0:0:
184,192,75608,2,0,B|96:176|96:176|192:144,1,180
314,234,75961,2,0,B|376:298|376:298|279:268,1,180,0|0,1:0|0:0,0:0:0:0:
314,149,76314,6,0,B|394:110|394:110|335:193,1,180,4|0,0:0|0:0,0:0:0:0:
234,260,76490,6,0,B|192:339|192:339|191:237,1,180
233,123,76667,6,0,B|220:35|220:35|281:117,1,180,0|0,1:0|0:0,0:0:0:0:
314,233,76843,6,0,B|376:297|376:297|279:267,1,180
183,192,77020,6,0,B|96:177|96:177|192:144,1,180
400,80,77373,1,0,1:0:0:0:
232,352,77549,1,0,0:0:0:0:
80,48,77726,6,0,L|224:40,1,135.000005149842,4|0,0:0|0:0,0:0:0:0:
72,136,77902,6,0,L|186:129,1,112.5
64,224,78078,6,0,L|153:219,1,90,0|0,1:0|0:0,0:0:0:0:
56,312,78255,6,0,L|123:308,1,67.5000025749208
320,363,78431,6,0,P|306:302|319:362,1,360
320,363,78784,38,0,B|273:356|225:355|195:363|195:363|205:353|206:342|206:342|210:324|212:305|212:305|216:286|212:272|212:272|218:258|220:238|220:238|222:222|220:197|204:130|204:130|167:193|90:180|116:128|116:128|41:158|4:84|64:64|64:64|34:13|112:-8|145:30|145:30|191:-1|262:14|278:47|278:47|320:14|370:14|396:56|396:56|430:-4|515:48|471:106|471:106|529:139|483:221|386:147|386:147|402:195|334:202|295:130|295:130|287:154|287:180|287:180|294:202|287:222|287:222|287:230|287:255|287:255|295:305|295:305|320:363,1,1800
136,312,79137,6,0,P|64:344|112:240,1,270.000010299683,4|0,0:0|0:0,0:0:0:0:
376,312,79490,2,0,P|448:344|400:240,1,270.000010299683,0|0,1:0|0:0,0:0:0:0:
240,216,79755,1,0,0:0:0:0:
240,216,79843,2,0,P|224:296|240:352,1,135.000005149842
368,128,80020,1,0,0:0:0:0:
368,128,80196,6,0,L|232:104,1,135.000005149842,0|0,1:0|0:0,0:0:0:0:
8,56,80373,2,0,L|144:80,1,135.000005149842
344,256,80549,6,0,B|368:328|368:328|428:328|428:328|404:256|404:256|344:256,1,270.000010299683,4|0,0:0|0:0,0:0:0:0:
168,256,80902,2,0,B|144:328|144:328|84:328|84:328|108:256|108:256|168:256,1,270.000010299683,0|0,1:0|0:0,0:0:0:0:
104,168,81255,2,0,L|64:32,1,135.000005149842
360,312,81431,1,0,0:0:0:0:
360,312,81608,6,0,B|344:344|384:376|456:312|408:224|360:224|240:256|320:368,1,270.000010299683,0|0,1:0|0:0,0:0:0:0:
216,56,81961,2,0,B|192:24|128:8|128:8|136:48|136:48|160:64|176:88,1,180,4|0,0:0|0:0,0:0:0:0:
328,144,82137,6,0,B|360:160|376:176|376:176|344:168|312:168|312:168|312:152|280:120,1,180
296,56,82314,6,0,B|320:24|384:8|384:8|376:48|376:48|352:64|336:88,1,180,0|0,1:0|0:0,0:0:0:0:
184,144,82490,6,0,B|152:160|136:176|136:176|168:168|200:168|200:168|200:152|232:120,1,180
216,248,82667,6,0,P|256:378|296:248,1,360
112,200,83020,6,0,P|80:272|104:368,1,180,0|0,1:0|0:0,0:0:0:0:
408,367,83196,2,0,P|432:282|400:200,1,180
237,103,83373,6,0,L|256:16,1,90,4|0,0:0|0:0,0:0:0:0:
296,143,83549,6,0,L|255:14,1,135.000005149842
212,192,83726,6,0,L|256:16,1,180,0|0,1:0|0:0,0:0:0:0:
327,229,83902,6,0,L|253:9,1,225
88,312,84078,6,0,B|96:200|64:72|64:72|104:96|144:160,1,360
424,312,84431,6,0,B|416:200|448:72|448:72|408:96|368:160,1,360,0|0,1:0|0:0,0:0:0:0:
88,128,84784,6,0,B|64:96|16:80|16:80|80:64|80:64|144:80|192:64|192:64|224:64|280:96,1,360,4|0,0:0|0:0,0:0:0:0:
448,296,85137,2,0,B|472:328|520:344|520:344|456:360|456:360|392:344|344:360|344:360|312:360|256:328,1,360,0|0,1:0|0:0,0:0:0:0:
256,192,85402,1,0,0:0:0:0:
256,192,85490,6,0,P|200:248|224:168,1,180
128,296,85667,2,0,P|96:192|120:128,1,180
256,192,85843,6,0,P|200:248|224:168,1,180,0|0,1:0|0:0,0:0:0:0:
308,298,86020,2,0,P|340:194|316:130,1,180
64,48,86196,6,0,L|440:32,1,360,4|0,0:0|0:0,0:0:0:0:
440,328,86549,6,0,L|80:343,1,360,0|0,1:0|0:0,0:0:0:0:
400,216,86902,2,0,L|376:32,1,180
216,152,87078,2,0,P|216:264|128:288,1,180
152,208,87255,6,0,P|296:200|208:64,1,360,0|0,1:0|0:0,0:0:0:0:
448,256,87608,6,0,P|415:269|448:282,1,90,4|0,0:0|0:0,0:0:0:0:
448,256,87784,6,0,P|400:272|448:280,1,135.000005149842
448,256,87961,6,0,P|384:272|448:280,1,180,2|0,0:0|0:0,0:0:0:0:
448,256,88137,6,0,P|370:268|448:280,1,225,2|0,0:0|0:0,0:0:0:0:
488,128,88314,6,0,P|280:160|280:376,1,450,2|0,0:0|0:0,0:0:0:0:
176,184,88667,6,0,P|136:192|112:208,1,67.5000025749208
120,352,88843,2,0,P|150:325|163:299,1,67.5000025749208
104,80,89020,1,0,0:0:0:0:
136,70,89108,1,0,0:0:0:0:
168,60,89196,1,0,0:0:0:0:
201,51,89284,1,0,0:0:0:0:
233,41,89372,5,0,0:0:0:0:
258,48,89461,1,0,0:0:0:0:
282,54,89549,1,0,0:0:0:0:
307,60,89637,1,0,0:0:0:0:
432,320,90431,6,0,P|328:344|208:320,1,225,4|0,0:0|0:0,0:0:0:0:
64,32,90784,1,0,1:0:0:0:
472,120,90961,1,0,0:0:0:0:
472,120,91049,1,0,0:0:0:0:
472,120,91137,1,2,0:2:0:0:
88,176,91314,1,0,0:0:0:0:
400,240,91490,1,0,1:0:0:0:
216,24,91667,5,0,0:0:0:0:
120,336,91843,2,0,B|168:344|168:344|224:336|224:336|288:344|288:344|344:336,1,225,4|0,0:0|0:0,0:0:0:0:
416,56,92196,1,0,1:0:0:0:
448,288,92373,1,0,0:0:0:0:
448,288,92461,1,0,0:0:0:0:
448,288,92549,1,2,0:2:0:0:
320,24,92726,1,0,0:0:0:0:
296,352,92902,1,0,1:0:0:0:
448,72,93078,1,0,0:0:0:0:
120,200,93255,6,0,P|80:192|160:120,1,225,4|0,0:0|0:0,0:0:0:0:
456,208,93608,1,0,1:0:0:0:
112,312,93784,1,0,0:0:0:0:
112,312,93873,1,0,0:0:0:0:
112,312,93961,1,2,0:2:0:0:
288,80,94137,1,0,0:0:0:0:
320,344,94314,1,0,1:0:0:0:
280,48,94490,1,0,0:0:0:0:
200,216,94667,2,0,P|320:248|416:184,1,225,4|0,0:0|0:0,0:0:0:0:
480,32,95020,5,0,1:0:0:0:
160,80,95196,1,0,0:0:0:0:
160,80,95284,1,0,0:0:0:0:
160,80,95373,1,2,0:2:0:0:
360,304,95549,1,0,0:0:0:0:
464,32,95726,1,0,0:0:0:0:
264,120,95902,5,0,2:0:0:0:
432,208,96078,2,0,B|384:224|328:200|328:200|264:216|264:216|192:192,1,225,4|0,0:0|0:0,0:0:0:0:
112,32,96431,1,0,1:0:0:0:
72,288,96608,1,0,0:0:0:0:
72,288,96696,1,0,0:0:0:0:
72,288,96784,1,2,0:2:0:0:
288,96,96961,1,0,0:0:0:0:
32,128,97137,1,0,1:0:0:0:
312,88,97314,1,0,0:0:0:0:
192,280,97490,6,0,B|144:176|144:176|160:48,1,225,4|0,0:0|0:0,0:0:0:0:
104,320,97843,1,0,1:0:0:0:
296,96,98020,1,0,0:0:0:0:
296,96,98108,1,0,0:0:0:0:
296,96,98196,1,2,0:2:0:0:
8,240,98373,1,0,0:0:0:0:
320,288,98549,5,0,1:0:0:0:
40,64,98726,1,0,0:0:0:0:
112,288,98902,2,0,B|152:280|152:280|184:288|184:288|224:280|224:280|232:224|272:200|304:192,1,225,4|0,0:0|0:0,0:0:0:0:
464,272,99255,1,0,1:0:0:0:
152,184,99431,1,0,0:0:0:0:
152,184,99520,1,0,0:0:0:0:
152,184,99608,1,2,0:2:0:0:
464,104,99784,1,0,0:0:0:0:
312,352,99961,1,0,1:0:0:0:
280,32,100137,1,0,0:0:0:0:
423,225,100314,5,0,0:0:0:0:
384,280,100402,1,0,0:0:0:0:
319,259,100490,1,0,0:0:0:0:
319,191,100578,1,0,0:0:0:0:
384,168,100667,2,0,P|448:160|484:190,1,112.5
324,330,100843,2,0,P|264:304|248:260,1,112.5
72,96,101726,6,0,B|184:64|184:64|296:80,1,225,4|0,0:0|0:0,0:0:0:0:
480,128,102078,1,0,1:0:0:0:
288,304,102255,1,0,0:0:0:0:
288,304,102343,1,0,0:0:0:0:
288,304,102431,6,0,P|352:264|400:272,1,112.5
192,320,102608,2,0,P|208:246|248:218,1,112.5
464,312,102784,1,0,1:0:0:0:
72,224,102961,6,0,L|48:104,1,112.5
480,40,103137,1,4,0:0:0:0:
480,40,103314,6,0,L|472:152,1,112.5
136,352,103490,1,0,1:0:0:0:
136,352,103667,6,0,L|152:224,1,112.5
344,40,103843,6,0,P|352:88|336:144,1,90,2|0,0:0|0:0,0:0:0:0:
120,160,104196,2,0,P|112:112|128:56,1,90,2|0,0:0|0:0,0:0:0:0:
369,57,104549,6,0,P|368:106|343:158,1,90,4|0,0:0|0:0,0:0:0:0:
96,144,104726,2,0,P|96:95|121:42,1,90
392,80,104902,6,0,P|383:127|348:174,1,90,0|0,1:0|0:0,0:0:0:0:
80,120,105078,2,0,P|88:72|123:25,1,90
280,192,105255,6,0,P|256:240|208:168,1,180
320,16,105608,1,0,1:0:0:0:
360,248,105784,6,0,P|352:304|336:336,1,90
88,312,105961,6,0,L|56:224,1,90,4|0,0:0|0:0,0:0:0:0:
152,264,106137,6,0,L|132:153,1,112.5
224,224,106314,6,0,L|224:88,1,135.000005149842,0|0,1:0|0:0,0:0:0:0:
304,200,106490,6,0,L|331:45,1,157.500001502037
368,256,106667,6,0,L|462:-3,1,270.000010299683
416,320,107020,6,0,L|507:162,1,180
104,312,107373,6,0,L|64:128,1,180,4|0,0:0|0:0,0:0:0:0:
264,32,107726,1,0,1:0:0:0:
208,280,107902,1,0,0:0:0:0:
208,280,107990,1,0,0:0:0:0:
208,280,108078,6,0,L|176:176,1,90
344,192,108255,2,0,L|376:296,1,90
64,48,108431,1,0,1:0:0:0:
64,48,108608,6,0,P|136:32|200:64,1,135.000005149842
296,328,108784,1,4,0:0:0:0:
296,328,108961,6,0,P|280:256|312:192,1,135.000005149842
488,72,109137,1,0,1:0:0:0:
488,72,109314,6,0,L|336:88,1,135.000005149842
64,80,109490,6,0,L|72:176,1,90,2|0,0:0|0:0,0:0:0:0:
208,328,109843,2,0,L|200:232,1,90,2|0,0:0|0:0,0:0:0:0:
71,169,110196,6,0,L|79:265,1,90,4|0,0:0|0:0,0:0:0:0:
200,238,110373,2,0,L|192:142,1,90
64,80,110549,6,0,L|72:176,1,90,0|0,1:0|0:0,0:0:0:0:
208,328,110726,2,0,L|200:232,1,90
128,24,110902,5,0,0:0:0:0:
88,344,111078,1,0,0:0:0:0:
320,72,111255,1,0,1:0:0:0:
8,240,111431,2,0,P|64:256|112:248,1,90
416,192,111608,6,0,L|408:288,1,90,4|0,0:0|0:0,0:0:0:0:
248,184,111784,6,0,L|255:273,1,90
423,102,111961,6,0,L|408:281,1,180,0|0,1:0|0:0,0:0:0:0:
240,94,112137,6,0,L|256:286,1,180
328,8,112314,6,0,L|328:288,1,270.000010299683
88,40,112667,6,0,L|183:303,1,270.000010299683
512,168,113020,6,0,L|488:360,1,180,4|0,0:0|0:0,0:0:0:0:
256,176,113373,1,0,1:0:0:0:
432,32,113549,1,0,0:0:0:0:
432,32,113637,1,0,0:0:0:0:
432,32,113726,2,0,P|432:88|416:120,1,90
240,176,113902,2,0,P|191:148|171:118,1,90
408,224,114078,1,0,1:0:0:0:
408,224,114255,6,0,L|272:256,1,135.000005149842
32,48,114431,1,4,0:0:0:0:
32,48,114608,6,0,L|168:80,1,135.000005149842
312,320,114784,1,0,1:0:0:0:
312,320,114961,6,0,L|176:352,1,135.000005149842
168,184,115137,6,0,P|208:208|264:208,1,90,2|0,0:0|0:0,0:0:0:0:
240,112,115490,2,0,P|263:72|263:16,1,90,2|0,0:0|0:0,0:0:0:0:
167,199,115843,6,0,P|211:216|266:206,1,90,4|0,0:0|0:0,0:0:0:0:
226,115,116020,2,0,P|243:72|233:17,1,90
170,214,116196,6,0,P|216:223|268:204,1,90,0|0,1:0|0:0,0:0:0:0:
213,122,116373,2,0,P|222:76|203:23,1,90
120,80,116549,6,0,P|64:96|88:200,1,180
320,288,116902,1,0,1:0:0:0:
394,206,117078,2,0,P|417:166|417:110,1,90
320,288,117255,6,0,P|363:304|418:294,1,90,4|0,0:0|0:0,0:0:0:0:
378,205,117432,2,0,P|394:161|384:106,1,90
323,303,117608,6,0,P|368:311|421:292,1,90,0|0,1:0|0:0,0:0:0:0:
366,211,117785,2,0,P|374:165|355:112,1,90
264,168,117961,6,0,B|200:160|112:184|112:184|152:120|152:120|160:160,1,270.000010299683
175,240,118314,2,0,B|146:246|116:253|116:253|84:257|31:227|34:177|58:139|58:139|76:115|92:87,1,270.000010299683
344,96,118667,6,0,P|368:192|304:264,1,180,4|0,0:0|0:0,0:0:0:0:
144,328,119020,1,0,1:0:0:0:
448,168,119196,1,0,0:0:0:0:
448,168,119284,1,0,0:0:0:0:
448,168,119373,2,0,P|432:88|408:56,1,90
312,256,119549,2,0,P|328:336|352:368,1,90
344,72,119726,1,0,1:0:0:0:
344,72,119902,6,0,L|480:24,1,135.000005149842
240,144,120078,1,4,0:0:0:0:
240,144,120255,6,0,L|381:170,1,135.000005149842
128,184,120431,1,0,1:0:0:0:
128,184,120608,6,0,L|237:277,1,135.000005149842
471,27,120784,6,0,L|343:71,1,135.000005149842,2|0,0:0|0:0,0:0:0:0:
372,168,121137,2,0,L|239:143,1,135.000005149842,2|0,0:0|0:0,0:0:0:0:
52,311,121490,6,0,L|8:184,1,135.000005149842,4|0,0:0|0:0,0:0:0:0:
230,271,121667,6,0,L|128:184,1,135.000005149842
372,168,121843,6,0,L|239:143,1,135.000005149842,0|0,1:0|0:0,0:0:0:0:
471,27,122020,6,0,L|343:71,1,135.000005149842
464,184,122196,6,0,B|472:232|472:232|464:280|464:280|480:328|456:352|408:352,1,180
224,192,122549,1,0,1:0:0:0:
392,176,122726,2,0,B|400:232|400:232|392:288,1,90
160,280,122902,6,0,L|72:296,1,90,4|0,0:0|0:0,0:0:0:0:
184,248,123078,6,0,L|73:268,1,112.5
208,216,123255,6,0,L|75:240,1,135.000005149842,0|0,1:0|0:0,0:0:0:0:
232,184,123431,6,0,L|77:212,1,157.500001502037
344,136,123608,6,0,L|78:184,1,270.000010299683
389,103,123961,6,0,L|79:159,1,315.000003004074
216,336,124314,6,0,B|352:352|352:352|456:328,1,225,4|0,0:0|0:0,0:0:0:0:
480,104,124667,1,0,1:0:0:0:
256,208,124843,1,0,0:0:0:0:
256,208,124931,1,0,0:0:0:0:
256,208,125020,1,2,0:2:0:0:
480,216,125196,1,0,0:0:0:0:
280,56,125373,1,0,1:0:0:0:
136,272,125549,1,0,0:0:0:0:
376,232,125726,6,0,P|408:136|368:24,1,225,4|0,0:0|0:0,0:0:0:0:
96,16,126078,1,0,1:0:0:0:
432,88,126255,1,0,0:0:0:0:
432,88,126343,1,0,0:0:0:0:
432,88,126431,1,2,0:2:0:0:
112,144,126608,1,0,0:0:0:0:
360,240,126784,1,0,1:0:0:0:
176,304,126961,1,0,0:0:0:0:
176,304,127137,6,0,P|96:288|176:224,1,225,4|0,0:0|0:0,0:0:0:0:
400,336,127490,1,0,1:0:0:0:
248,240,127667,1,0,0:0:0:0:
248,240,127755,1,0,0:0:0:0:
248,240,127843,1,2,0:2:0:0:
360,72,128020,1,0,0:0:0:0:
304,320,128196,1,0,1:0:0:0:
176,72,128373,1,0,0:0:0:0:
456,64,128549,6,0,B|433:149|433:149|434:207|434:207|409:299,1,225,4|0,0:0|0:0,0:0:0:0:
160,320,128902,1,0,1:0:0:0:
336,176,129078,1,0,0:0:0:0:
336,176,129167,1,0,0:0:0:0:
336,176,129255,1,2,0:2:0:0:
288,360,129431,1,0,0:0:0:0:
112,128,129608,1,0,1:0:0:0:
336,176,129784,1,0,0:0:0:0:
56,288,129961,6,0,P|24:192|48:56,1,225,4|0,0:0|0:0,0:0:0:0:
328,24,130314,1,0,1:0:0:0:
216,256,130490,1,0,0:0:0:0:
216,256,130578,1,0,0:0:0:0:
216,256,130667,1,2,0:2:0:0:
160,32,130843,1,0,0:0:0:0:
368,184,131020,1,0,1:0:0:0:
160,344,131196,1,0,0:0:0:0:
256,48,131373,6,0,B|327:41|327:41|392:52|392:52|488:43,1,225,4|0,0:0|2:0,2:0:0:0:
96,128,131726,1,0,1:0:0:0:
320,320,131902,1,0,0:0:0:0:
320,320,131990,1,0,0:0:0:0:
320,320,132078,1,2,0:2:0:0:
344,104,132255,1,0,0:0:0:0:
184,224,132431,1,0,1:0:0:0:
472,288,132608,1,0,0:0:0:0:
344,104,132784,6,0,B|288:112|288:112|232:104|232:104|200:88|152:88|112:112,1,225,4|0,0:0|0:0,0:0:0:0:
48,352,133137,1,0,1:0:0:0:
176,176,133314,1,0,0:0:0:0:
176,176,133402,1,0,0:0:0:0:
176,176,133490,1,2,0:2:0:0:
8,32,133667,1,0,0:0:0:0:
104,264,133844,1,0,1:0:0:0:
240,80,134020,1,0,0:0:0:0:
304,232,134196,6,0,B|360:224|360:224|464:232|464:232|416:184,1,225,4|0,0:0|0:0,0:0:0:0:
328,96,134549,1,0,1:0:0:0:
368,320,134726,1,0,0:0:0:0:
368,320,134814,1,0,0:0:0:0:
368,320,134902,1,2,0:2:0:0:
424,64,135078,1,0,0:0:0:0:
200,192,135255,1,0,1:0:0:0:
448,320,135431,1,0,0:0:0:0:
424,64,135608,6,0,B|312:48|312:48|200:72,1,225,4|0,0:0|0:0,0:0:0:0:
128,320,135961,1,0,1:0:0:0:
320,112,136137,1,0,0:0:0:0:
320,112,136226,1,0,0:0:0:0:
320,112,136314,1,2,0:2:0:0:
32,128,136490,1,0,0:0:0:0:
360,184,136666,1,0,1:0:0:0:
96,64,136843,1,0,0:0:0:0:
208,328,137020,6,0,L|432:304,1,225,4|0,0:0|0:0,0:0:0:0:
480,48,137373,1,0,1:0:0:0:
176,160,137549,1,0,0:0:0:0:
176,160,137637,1,0,0:0:0:0:
176,160,137726,1,2,0:2:0:0:
432,144,137902,1,0,0:0:0:0:
80,96,138078,1,0,1:0:0:0:
384,64,138255,1,0,0:0:0:0:
80,200,138431,6,0,B|104:256|104:256|168:272|168:272|224:288|288:264,1,225,4|0,0:0|0:0,0:0:0:0:
384,64,138784,1,0,1:0:0:0:
432,320,138961,1,0,0:0:0:0:
432,320,139049,1,0,0:0:0:0:
432,320,139137,1,2,0:2:0:0:
280,40,139314,1,0,0:0:0:0:
488,240,139490,1,0,1:0:0:0:
136,208,139667,1,0,0:0:0:0:
376,32,139843,6,0,B|381:95|381:95|362:153|362:153|372:265,1,225,4|0,0:0|0:0,0:0:0:0:
464,160,140196,1,0,1:0:0:0:
232,136,140373,1,0,0:0:0:0:
232,136,140461,1,0,0:0:0:0:
232,136,140549,1,2,0:2:0:0:
328,320,140726,1,0,0:0:0:0:
304,64,140902,1,0,1:0:0:0:
80,184,141078,1,0,0:0:0:0:
256,240,141255,6,0,B|344:232|344:232|408:248|408:248|496:240,1,225,4|0,0:0|0:0,0:0:0:0:
304,56,141608,1,0,1:0:0:0:
280,344,141784,1,0,0:0:0:0:
280,344,141873,1,0,0:0:0:0:
280,344,141961,1,2,0:2:0:0:
144,128,142137,1,0,0:0:0:0:
448,32,142314,1,0,1:0:0:0:
384,256,142490,1,0,0:0:0:0:
128,224,142667,6,0,P|64:176|104:32,1,225,4|0,0:0|0:0,0:0:0:0:
344,24,143020,1,0,1:0:0:0:
256,304,143196,1,0,0:0:0:0:
256,304,143284,1,0,0:0:0:0:
256,304,143373,1,2,0:2:0:0:
208,72,143549,1,0,0:0:0:0:
488,160,143726,1,0,1:0:0:0:
120,272,143902,1,0,0:0:0:0:
384,48,144078,6,0,L|400:272,1,225,4|0,0:0|0:0,0:0:0:0:
56,176,144431,1,0,1:0:0:0:
312,96,144608,1,0,0:0:0:0:
312,96,144696,1,0,0:0:0:0:
312,96,144784,1,2,0:2:0:0:
248,352,144961,1,0,0:0:0:0:
160,40,145137,1,0,1:0:0:0:
96,272,145314,1,0,0:0:0:0:
392,200,145490,5,4,0:0:0:0:
192,144,145667,1,0,0:0:0:0:
136,137,145755,1,0,0:0:0:0:
80,130,145843,1,2,1:2:0:0:
415,90,146020,1,0,0:0:0:0:
403,145,146108,1,0,0:0:0:0:
392,200,146196,1,0,2:0:0:0:
380,255,146284,1,0,2:0:0:0:
369,310,146372,1,0,2:0:0:0:
256,112,146549,5,2,2:0:0:0:
144,320,146902,6,0,B|119:282|119:282|121:237|121:237|97:200|97:200|99:155|99:155|75:118|75:118|77:73,1,270.000010299683,4|0,0:0|0:0,0:0:0:0:
320,48,147255,2,0,B|344:85|344:85|342:130|342:130|366:167|366:167|364:212|364:212|388:249|388:249|386:294,1,270.000010299683,0|0,1:0|0:0,0:0:0:0:
224,312,147520,5,0,0:0:0:0:
216,300,147608,2,0,B|191:262|191:262|193:217|193:217|169:180,1,135.000005149842
252,68,147784,2,0,B|276:105|276:105|274:150|274:150|298:187,1,135.000005149842
77,72,147961,1,0,1:0:0:0:
336,64,148137,6,0,B|456:48|456:48|448:80,1,135.000005149842
56,184,148314,2,0,P|144:176|72:272,1,270.000010299683,4|0,0:0|0:0,0:0:0:0:
184,112,148667,2,0,P|240:224|152:344,1,270.000010299683,0|0,1:0|0:0,0:0:0:0:
112,64,149020,6,0,P|232:40|248:168,1,270.000010299683
384,328,149373,2,0,P|448:224|464:64,1,270.000010299683,0|0,1:0|0:0,0:0:0:0:
88,312,149726,6,0,P|48:248|32:200,1,112.5,4|0,0:0|0:0,0:0:0:0:
144,248,149902,6,0,P|120:170|117:117,1,135.000005149842
216,200,150078,6,0,P|212:106|225:44,1,157.500001502037,0|0,1:0|0:0,0:0:0:0:
400,352,150255,6,0,P|448:256|465:186,1,180
352,272,150431,6,0,P|370:179|369:116,1,157.500001502037
280,223,150608,6,0,P|275:141|259:89,1,135.000005149842
256,336,150784,1,0,1:0:0:0:
120,128,150961,6,0,B|152:120|200:160|96:264|8:192|0:16|176:40|216:112,1,225
256,8,151137,6,0,P|264:80|232:144,1,135.000005149842,4|0,0:0|0:0,0:0:0:0:
327,101,151314,6,0,P|300:165|221:221,1,157.500001502037,0|0,0:0|0:0,2:0:0:0:
333,227,151490,6,0,P|279:268|161:283,1,180,0|0,1:0|0:0,2:0:0:0:
272,342,151667,6,0,P|201:353|65:308,1,202.500007724762,0|0,0:0|0:0,2:0:0:0:
408,128,151843,6,0,P|421:216|376:360,1,225,0|0,0:0|0:0,2:0:0:0:
128,48,152196,2,0,P|216:35|360:80,1,225,0|0,1:0|0:0,2:0:0:0:
176,304,152549,6,0,P|128:232|264:160,1,270.000010299683,4|0,0:0|0:0,0:0:0:0:
416,304,152902,2,0,B|296:304|216:232|216:232|264:240|288:224,1,270.000010299683,0|0,1:0|0:0,0:0:0:0:
272,352,153167,5,0,0:0:0:0:
264,352,153255,2,0,B|200:328|72:240|112:128,1,270.000010299683
344,56,153608,2,0,P|352:144|328:192,1,135.000005149842,0|0,1:0|0:0,0:0:0:0:
16,216,153784,2,0,P|8:128|32:80,1,135.000005149842
344,296,153961,6,0,B|253:263|253:263|176:311|176:311|93:281,1,270.000010299683,4|0,0:0|0:0,0:0:0:0:
224,40,154314,2,0,B|314:72|314:72|391:24|391:24|474:54,1,270.000010299683,0|0,1:0|0:0,0:0:0:0:
8,56,154667,6,0,L|24:344,1,270.000010299683
400,80,155020,2,0,L|384:368,1,270.000010299683,0|0,1:0|0:0,0:0:0:0:
88,24,155373,6,0,L|96:160,1,135.000005149842,4|0,0:0|0:0,0:0:0:0:
488,72,155549,6,0,L|480:208,1,135.000005149842
176,184,155726,6,0,L|184:320,1,135.000005149842,0|0,1:0|0:0,0:0:0:0:
392,16,155902,6,0,L|384:152,1,135.000005149842
88,24,156078,6,0,L|104:312,1,270.000010299683
473,341,156431,2,0,L|489:53,1,270.000010299683,0|0,1:0|0:0,0:0:0:0:
24,328,156784,6,0,L|40:184,1,135.000005149842,4|0,0:0|0:0,0:0:0:0:
408,272,156961,6,0,L|392:128,1,135.000005149842
128,176,157137,6,0,L|144:32,1,135.000005149842,0|0,1:0|0:0,0:0:0:0:
304,352,157314,6,0,L|288:208,1,135.000005149842
24,328,157490,6,0,L|56:40,1,270.000010299683
464,64,157843,2,0,L|496:352,1,270.000010299683,0|0,1:0|0:0,0:0:0:0:
136,304,158196,6,0,B|96:192|96:192|152:48,1,270.000010299683,4|0,0:0|0:0,0:0:0:0:
336,168,158549,2,0,B|208:296|208:296|176:208,1,270.000010299683,0|0,1:0|0:0,0:0:0:0:
302,92,158814,1,0,0:0:0:0:
312,88,158902,2,0,P|384:96|424:160,1,135.000005149842
176,208,159078,2,0,L|224:72,1,135.000005149842
256,320,159255,6,0,L|104:344,1,135.000005149842,0|0,1:0|0:0,0:0:0:0:
16,104,159431,2,0,L|168:128,1,135.000005149842
432,240,159608,6,0,P|352:256|248:160,1,225,4|0,0:0|0:0,0:0:0:0:
176,40,159961,2,0,P|256:24|360:120,1,225,0|0,1:0|0:0,0:0:0:0:
432,240,160314,6,0,P|352:256|248:160,1,225
376,48,160667,2,0,P|392:128|296:232,1,225,0|0,1:0|0:0,0:0:0:0:
160,320,161020,6,0,P|168:256|208:216,1,112.5,4|0,0:0|0:0,0:0:0:0:
128,96,161196,6,0,P|192:104|232:144,1,112.5
352,64,161373,6,0,P|344:128|304:168,1,112.5,0|0,1:0|0:0,0:0:0:0:
384,288,161549,6,0,P|320:280|280:240,1,112.5
72,312,161726,2,0,P|120:232|248:192,1,225
424,208,162078,2,0,P|376:288|248:328,1,225,0|0,1:0|0:0,0:0:0:0:
240,112,162431,6,0,P|264:64|320:24,1,112.5,4|0,0:0|0:0,0:0:0:0:
336,176,162608,6,0,P|384:200|424:256,1,112.5
272,272,162784,6,0,P|248:320|192:360,1,112.5,0|0,1:0|0:0,0:0:0:0:
176,208,162961,6,0,P|128:184|88:128,1,112.5
192,40,163137,2,0,L|472:32,1,270.000010299683
272,272,163490,2,0,L|-8:280,1,270.000010299683,0|0,1:0|0:0,0:0:0:0:
400,120,163843,6,0,B|424:232|424:232|328:360,1,270.000010299683,4|0,0:0|0:0,0:0:0:0:
192,176,164196,2,0,P|200:80|296:168,1,270.000010299683,0|0,1:0|0:0,0:0:0:0:
208,280,164461,1,0,0:0:0:0:
208,280,164549,2,0,B|144:248|144:248|96:200,1,135.000005149842
392,24,164726,2,0,B|456:56|456:56|504:104,1,135.000005149842
328,352,164902,1,0,1:0:0:0:
328,352,165078,6,0,P|304:280|320:216,1,135.000005149842
328,352,165255,2,0,P|376:240|320:104,1,270.000010299683,4|0,0:0|0:0,0:0:0:0:
328,352,165608,2,0,P|264:192|312:48,1,315.000003004074,0|0,1:0|0:0,0:0:0:0:
384,240,165961,6,0,P|224:280|112:232,1,270.000010299683
176,344,166314,2,0,P|212:216|170:89,1,270.000010299683,0|0,1:0|0:0,0:0:0:0:
440,144,166667,6,0,P|456:88|424:8,1,135.000005149842,4|0,0:0|0:0,0:0:0:0:
72,144,166843,6,0,P|56:88|88:8,1,135.000005149842
358,136,167020,6,0,P|380:85|362:49,1,90,0|0,1:0|0:0,0:0:0:0:
154,136,167196,6,0,P|132:85|150:49,1,90
295,207,167373,6,0,P|255:338|216:208,1,360
256,266,167726,1,0,1:0:0:0:
256,131,167902,6,0,L|256:271,1,135.000005149842
72,240,168078,6,0,P|56:296|88:376,1,135.000005149842,4|0,0:0|0:0,0:0:0:0:
440,240,168254,6,0,P|456:296|424:376,1,135.000005149842
154,248,168431,6,0,P|132:299|150:335,1,90,0|0,1:0|0:0,0:0:0:0:
358,248,168607,6,0,P|380:299|362:335,1,90
116,172,168784,6,0,B|92:88|92:88|132:4,1,180
396,172,169137,2,0,B|420:88|420:88|380:4,1,180,0|0,1:0|0:0,0:0:0:0:
296,296,169490,6,0,L|24:328,1,270.000010299683,4|0,0:0|0:0,0:0:0:0:
312,96,169843,2,0,L|40:128,1,270.000010299683,0|0,1:0|0:0,0:0:0:0:
360,208,170108,1,0,0:0:0:0:
368,192,170196,2,0,L|416:64,1,135.000005149842
248,192,170373,2,0,P|280:288|320:312,1,135.000005149842
136,32,170549,1,0,1:0:0:0:
136,32,170726,6,0,L|120:176,1,135.000005149842
456,336,170902,2,0,L|504:64,1,270.000010299683,4|0,0:0|0:0,0:0:0:0:
224,352,171255,2,0,L|272:80,1,270.000010299683,0|0,1:0|0:0,0:0:0:0:
16,48,171608,6,0,B|64:248|64:248|104:184,1,270.000010299683
10,299,171961,2,0,B|43:331|87:331|117:301|117:301|208:160,1,270.000010299683,0|0,1:0|0:0,0:0:0:0:
336,192,172314,6,0,L|424:177,1,90,4|0,0:0|0:0,0:0:0:0:
256,344,172490,6,0,L|122:366,1,135.000005149842
336,96,172667,6,0,L|469:73,1,135.000005149842,0|0,1:0|0:0,0:0:0:0:
256,248,172843,6,0,L|167:262,1,90
392,264,173020,2,0,P|456:288|352:312,1,270
168,128,173373,2,0,B|176:88|208:64|208:64|241:97|286:205|134:222|115:182,1,270.000010299683,0|0,1:0|0:0,0:0:0:0:
320,152,173726,6,0,P|368:144|424:152,1,90,4|0,0:0|0:0,0:0:0:0:
172,328,173902,6,0,P|89:328|18:305,1,135.000005149842
340,56,174078,6,0,P|423:56|494:79,1,135.000005149842,0|0,1:0|0:0,0:0:0:0:
192,232,174255,6,0,P|144:240|88:232,1,90
256,56,174431,5,8,0:0:0:0:
212,95,174519,1,0,0:0:0:0:
213,153,174607,1,8,0:0:0:0:
255,191,174696,5,0,0:0:0:0:
298,230,174784,1,8,0:0:0:0:
299,288,174872,1,8,0:0:0:0:
256,328,174960,1,0,1:0:0:0:
256,56,186431,6,0,B|360:48|360:48|432:48|480:112,1,225,4|0,0:0|0:0,0:0:0:0:
120,152,186784,1,0,1:0:0:0:
368,160,186961,1,0,0:0:0:0:
368,160,187049,1,0,0:0:0:0:
368,160,187137,2,0,P|304:240|272:248,1,112.5
176,224,187314,2,0,P|96:288|88:320,1,112.5
216,344,187490,5,0,1:0:0:0:
200,80,187667,2,0,B|320:56|320:56|304:88,1,135.000005149842
144,248,187843,1,4,0:0:0:0:
144,248,188020,6,0,B|120:128|120:128|152:144,1,135.000005149842
312,304,188196,1,0,1:0:0:0:
312,304,188373,6,0,B|192:328|192:328|208:296,1,135.000005149842
368,136,188549,6,0,B|392:256|392:256|360:240,1,135.000005149842,2|0,0:0|0:0,0:0:0:0:
232,168,188902,2,0,B|208:48|208:48|240:64,1,135.000005149842,2|0,0:0|0:0,0:0:0:0:
208,304,189255,6,0,P|144:272|136:200,1,135.000005149842,4|0,0:0|0:0,0:0:0:0:
96,136,189431,6,0,P|167:131|210:190,1,135.000005149842
32,200,189608,6,0,B|16:136|16:136|24:48,1,135.000005149842,0|0,1:0|0:0,0:0:0:0:
120,32,189784,6,0,P|200:48|256:32,1,135.000005149842
352,0,189961,1,0,0:0:0:0:
256,272,190137,1,0,0:0:0:0:
248,24,190314,1,0,1:0:0:0:
392,280,190490,1,0,0:0:0:0:
144,224,190667,6,0,L|288:208,1,135.000005149842,4|0,0:0|0:0,0:0:0:0:
336,120,190843,6,0,L|192:136,1,135.000005149842
20,169,191020,6,0,L|152:227,1,135.000005149842,0|0,1:0|0:0,0:0:0:0:
459,174,191196,6,0,L|326:115,1,135.000005149842
72,304,191373,6,0,B|208:320|208:320|272:328|280:232|208:232,1,270.000010299683
328,344,191726,2,0,P|344:264|200:152,1,270.000010299683,0|0,1:0|0:0,0:0:0:0:
104,160,192078,6,0,P|40:128|152:80,1,270.000010299683,4|0,0:0|0:0,0:0:0:0:
192,328,192431,1,0,1:0:0:0:
240,40,192608,1,0,0:0:0:0:
240,40,192696,1,0,0:0:0:0:
240,40,192784,2,0,L|392:24,1,135.000005149842
192,256,192961,2,0,L|285:265,1,90
376,112,193137,1,0,1:0:0:0:
376,112,193314,6,0,L|224:128,1,135.000005149842
105,54,193490,1,4,0:0:0:0:
105,54,193667,6,0,L|257:38,1,135.000005149842
480,192,193843,1,0,1:0:0:0:
480,192,194020,6,0,L|328:208,1,135.000005149842
62,144,194196,6,0,L|241:125,1,180,2|0,2:0|2:0,2:0:0:0:
208,304,194549,2,0,L|342:289,1,135.000005149842,2|0,2:0|2:0,2:0:0:0:
392,32,194902,6,0,L|257:46,1,135.000005149842,4|0,0:0|0:0,0:0:0:0:
144,216,195078,6,0,L|278:201,1,135.000005149842
496,116,195255,6,0,L|391:31,1,135.000005149842,0|0,1:0|0:0,0:0:0:0:
39,131,195431,6,0,L|143:215,1,135.000005149842
472,296,195608,5,0,0:0:0:0:
152,80,195784,1,0,0:0:0:0:
408,136,195961,1,0,1:0:0:0:
64,224,196137,1,0,0:0:0:0:
473,157,196314,6,0,B|455:112|431:88|431:88|423:120|407:136,1,135.000005149842
344,200,196490,6,0,B|326:155|302:131|302:131|294:163|278:179,1,135.000005149842
208,240,196667,6,0,B|190:195|166:171|166:171|158:203|142:219,1,135.000005149842,0|0,1:0|0:0,0:0:0:0:
79,283,196843,6,0,B|61:238|37:214|37:214|29:246|13:262,1,135.000005149842
312,272,197020,6,0,B|348:181|396:133|396:133|412:197|444:229,1,270.000010299683
168,176,197373,2,0,B|131:85|83:37|83:37|67:101|35:133,1,270.000010299683,0|0,1:0|0:0,0:0:0:0:
128,312,197726,2,0,B|184:328|184:328|240:312|240:312|266:361|344:368|371:323,1,270.000010299683,4|0,0:0|0:0,0:0:0:0:
288,48,198078,1,0,1:0:0:0:
88,200,198255,1,0,0:0:0:0:
88,200,198343,1,0,0:0:0:0:
88,200,198431,6,0,B|154:218|154:218|238:188,1,135.000005149842,2|0,0:2|0:0,0:0:0:0:
400,40,198608,2,0,B|382:106|382:106|412:190,1,135.000005149842
312,304,198784,1,0,1:0:0:0:
120,104,198961,6,0,P|168:72|256:48,1,135.000005149842
80,328,199137,1,4,0:0:0:0:
192,144,199314,6,0,P|246:125|337:125,1,135.000005149842
80,328,199490,1,0,1:0:0:0:
256,200,199667,6,0,P|313:196|401:219,1,135.000005149842
80,328,199843,6,0,P|47:279|23:192,1,135.000005149842,2|0,2:0|2:0,2:0:0:0:
233,22,200196,2,0,P|265:70|289:158,1,135.000005149842,2|0,2:0|2:0,2:0:0:0:
112,96,200549,6,0,L|0:80,1,90,4|0,0:0|0:0,0:0:0:0:
288,144,200726,6,0,L|399:128,1,112.5
152,248,200902,6,0,L|18:228,1,135.000005149842,0|0,1:0|0:0,0:0:0:0:
352,288,201078,6,0,L|507:265,1,157.500001502037
192,336,201255,1,0,0:0:0:0:
288,144,201431,1,0,0:0:0:0:
320,368,201608,1,0,1:0:0:0:
144,96,201784,1,0,0:0:0:0:
424,56,201961,6,0,L|400:192,1,135.000005149842,4|0,0:0|0:0,0:0:0:0:
111,188,202137,6,0,L|87:55,1,135.000005149842
400,188,202314,6,0,L|440:332,1,135.000005149842,0|0,1:0|0:0,0:0:0:0:
75,318,202490,6,0,L|112:188,1,135.000005149842
240,32,202667,1,0,0:0:0:0:
296,88,202755,2,0,P|320:160|280:224,1,135.000005149842
0,112,203020,6,0,B|24:72|24:72|272:32,1,270.000010299683,0|0,1:0|0:0,0:0:0:0:
464,40,203373,6,0,B|441:125|441:125|446:167|446:167|406:314,1,270.000010299683,4|0,0:0|0:0,0:0:0:0:
128,232,203726,1,0,1:0:0:0:
480,224,203902,1,0,0:0:0:0:
480,224,203990,1,0,0:0:0:0:
480,224,204078,2,0,P|408:200|336:224,1,135.000005149842,2|0,0:2|0:0,0:0:0:0:
112,344,204255,2,0,P|186:328|236:272,1,135.000005149842
280,64,204431,1,0,1:0:0:0:
280,64,204608,6,0,B|192:48|192:48|128:64,1,135.000005149842
320,264,204784,1,4,0:0:0:0:
320,264,204961,6,0,B|408:280|408:280|472:264,1,135.000005149842
88,144,205137,1,0,1:0:0:0:
88,144,205314,6,0,L|64:280,1,135.000005149842
392,168,205490,6,0,L|416:32,1,135.000005149842,2|0,0:0|0:0,0:0:0:0:
208,208,205843,2,0,L|232:344,1,135.000005149842,2|0,0:0|0:0,0:0:0:0:
480,192,206196,5,4,0:0:0:0:
288,256,206373,1,4,0:0:0:0:
448,296,206549,1,4,0:0:0:0:
232,104,206726,1,0,0:0:0:0:
336,352,206902,1,8,0:0:0:0:
384,64,207078,1,0,0:0:0:0:
48,208,207255,1,8,0:0:0:0:
336,184,207431,1,4,0:0:0:0:
112,112,207608,5,8,0:0:0:0:
123,161,207696,1,0,0:0:0:0:
134,210,207784,1,8,0:0:0:0:
146,259,207872,1,0,0:0:0:0:
157,309,207960,1,8,0:0:0:0:
168,259,208049,1,8,0:0:0:0:
180,210,208137,1,0,0:0:0:0:
192,161,208225,1,0,0:0:0:0:
204,112,208314,6,0,P|240:96|296:96,1,90,0|0,1:0|0:0,0:0:0:0:
376,184,208667,2,0,P|340:200|284:200,1,90,2|0,2:0|2:0,2:0:0:0:
