osu file format v14

[General]
AudioFilename: audio.mp3
AudioLeadIn: 0
PreviewTime: -1
Countdown: 1
SampleSet: Normal
StackLeniency: 0.7
Mode: 0
LetterboxInBreaks: 0
WidescreenStoryboard: 0

[Editor]
DistanceSpacing: 2.5
BeatDivisor: 4
GridSize: 8
TimelineZoom: 1.8

[Metadata]
Title:zZz
TitleUnicode:zZz
Artist:Droeloe
ArtistUnicode:Droeloe
Creator:IHazAwafflecake
Version:
Source:
Tags:
BeatmapID:1551669
BeatmapSetID:734987

[Difficulty]
HPDrainRate:6
CircleSize:3.4
OverallDifficulty:8
ApproachRate:9
SliderMultiplier:1.00000000596046
SliderTickRate:1

[Events]
//Background and Video events
0,0,"backround.jpg",0,0
//Break Periods
//Storyboard Layer 0 (Background)
//Storyboard Layer 1 (Fail)
//Storyboard Layer 2 (Pass)
//Storyboard Layer 3 (Foreground)
//Storyboard Sound Samples

[TimingPoints]
105,400,4,1,0,100,1,0

[HitObjects]
104,192,305,6,0,L|160:192|160:192,1,50.0000002980232
256,248,705,1,0,0:0:0:0:
408,192,905,6,0,L|352:192|352:192,1,50.0000002980232
256,144,1305,1,0,0:0:0:0:
296,160,1505,5,4,0:0:0:0:
216,160,1705,1,0,0:0:0:0:
256,344,1905,6,0,L|256:288|256:288,1,50.0000002980232
256,192,2305,1,0,0:0:0:0:
256,32,2705,1,0,0:0:0:0:
376,32,2905,1,4,0:0:0:0:
312,104,3105,1,0,0:0:0:0:
256,192,3305,5,0,0:0:0:0:
256,40,3505,2,0,L|256:96|256:96,1,50.0000002980232
256,192,3905,1,4,0:0:0:0:
200,120,4305,1,0,0:0:0:0:
104,120,4505,1,0,0:0:0:0:
152,184,4705,1,0,0:0:0:0:
320,280,4905,6,0,B|358:236|358:236,1,50.0000002980232
396,192,5305,1,4,0:0:0:0:
256,192,5705,5,0,0:0:0:0:
120,192,5905,1,0,0:0:0:0:
188,91,6105,1,4,0:0:0:0:
104,192,6505,6,0,L|168:192|168:192,1,50.0000002980232
352,192,6905,1,0,0:0:0:0:
256,280,7105,1,0,0:0:0:0:
256,112,7305,1,0,0:0:0:0:
152,192,7505,2,4,L|96:192,1,50.0000002980232
256,48,7905,5,0,0:0:0:0:
256,192,8105,1,0,0:0:0:0:
344,192,8305,1,0,0:0:0:0:
168,192,8505,1,0,0:0:0:0:
256,192,8705,5,0,0:0:0:0:
256,320,8905,1,0,0:0:0:0:
256,72,9105,1,0,0:0:0:0:
131,148,9305,1,0,0:0:0:0:
112,248,9505,5,0,0:0:0:0:
256,192,9705,1,4,0:0:0:0:
352,112,9905,2,0,B|384:135|312:152|312:152,1,50.000000298023
256,192,10305,5,0,0:0:0:0:
168,56,10705,1,0,0:0:0:0:
336,56,10905,1,0,0:0:0:0:
256,192,11105,1,0,0:0:0:0:
256,281,11305,1,4,0:0:0:0:
320,256,11505,1,0,0:0:0:0:
381,281,11705,1,0,0:0:0:0:
104,192,12105,5,0,0:0:0:0:
256,96,12305,1,0,0:0:0:0:
416,192,12505,1,0,0:0:0:0:
192,192,12905,5,4,0:0:0:0:
256,112,13105,1,0,0:0:0:0:
320,192,13305,1,0,0:0:0:0:
256,264,13505,1,0,0:0:0:0:
256,192,13705,5,0,0:0:0:0:
256,80,13905,1,0,0:0:0:0:
384,80,14105,1,0,0:0:0:0:
384,192,14305,1,4,0:0:0:0:
256,192,14505,1,0,0:0:0:0:
152,192,14705,1,0,0:0:0:0:
256,80,14905,1,0,0:0:0:0:
376,192,15105,1,0,0:0:0:0:
256,192,15505,5,0,0:0:0:0:
256,96,15705,1,0,0:0:0:0:
256,288,15905,1,0,0:0:0:0:
128,192,16105,1,4,0:0:0:0:
208,192,16305,1,0,0:0:0:0:
320,96,16505,1,0,0:0:0:0:
264,144,16705,1,0,0:0:0:0:
264,32,17105,1,0,0:0:0:0:
104,312,17305,6,0,L|160:312|160:312,1,50.000000298023
256,312,17705,1,4,0:0:0:0:
224,192,17905,1,0,0:0:0:0:
288,192,18105,1,0,0:0:0:0:
160,192,18505,5,0,0:0:0:0:
200,136,18705,1,0,0:0:0:0:
376,136,18905,1,0,0:0:0:0:
256,32,19305,5,4,0:0:0:0:
256,40,19405,1,0,0:0:0:0:
256,48,19505,1,0,0:0:0:0:
272,72,19605,1,0,0:0:0:0:
240,88,19705,1,0,0:0:0:0:
272,112,19805,1,0,0:0:0:0:
240,136,19905,1,0,0:0:0:0:
272,160,20005,1,0,0:0:0:0:
240,184,20105,1,4,0:0:0:0:
336,192,20305,5,0,0:0:0:0:
256,192,20505,1,0,0:0:0:0:
160,192,20705,2,4,L|216:192|216:192,1,50.000000298023
328,192,21105,1,0,0:0:0:0:
256,64,21305,1,0,0:0:0:0:
256,192,21505,1,0,0:0:0:0:
256,312,21705,1,4,0:0:0:0:
104,192,21905,2,0,L|160:192|160:192,1,50.000000298023
256,80,22305,5,0,0:0:0:0:
416,192,22505,1,0,0:0:0:0:
256,192,22705,2,0,B|248:200|216:224|192:192|192:192,1,50.000000298023
104,312,23505,5,4,0:0:0:0:
256,192,23705,1,0,0:0:0:0:
400,80,23905,1,0,0:0:0:0:
400,312,24105,1,4,0:0:0:0:
256,192,24305,1,0,0:0:0:0:
104,80,24505,1,0,0:0:0:0:
256,192,24905,5,0,0:0:0:0:
96,192,25105,1,4,0:0:0:0:
256,16,25305,1,0,0:0:0:0:
328,152,25905,1,0,0:0:0:0:
256,200,26105,1,0,0:0:0:0:
184,152,26305,1,0,0:0:0:0:
256,320,26505,1,4,0:0:0:0:
104,320,26705,1,0,0:0:0:0:
208,160,26905,1,4,0:0:0:0:
328,160,27105,5,0,0:0:0:0:
456,56,27305,1,0,0:0:0:0:
456,160,27505,1,0,0:0:0:0:
288,32,27705,1,4,0:0:0:0:
392,32,27905,1,0,0:0:0:0:
120,96,28305,5,0,0:0:0:0:
120,288,28505,1,0,0:0:0:0:
400,288,28705,1,0,0:0:0:0:
256,192,28905,1,0,0:0:0:0:
384,96,29105,1,0,0:0:0:0:
256,32,29305,1,0,0:0:0:0:
256,272,29505,1,0,0:0:0:0:
256,192,29905,5,0,0:0:0:0:
32,88,30105,1,0,0:0:0:0:
224,24,30305,1,0,0:0:0:0:
136,168,30505,1,0,0:0:0:0:
136,32,30705,1,0,0:0:0:0:
224,96,30905,1,0,0:0:0:0:
152,192,31305,5,0,0:0:0:0:
256,32,31505,1,0,0:0:0:0:
360,192,31705,1,0,0:0:0:0:
480,216,32105,5,0,0:0:0:0:
385,216,32305,1,0,0:0:0:0:
285,216,32505,1,0,0:0:0:0:
332,300,32705,1,0,0:0:0:0:
437,300,32905,1,0,0:0:0:0:
488,224,33105,1,0,0:0:0:0:
488,88,33305,1,0,0:0:0:0:
288,88,33505,1,0,0:0:0:0:
392,168,33705,1,0,0:0:0:0:
392,32,33905,1,0,0:0:0:0:
136,88,34105,1,0,0:0:0:0:
141,153,34305,2,0,P|175:143|196:164,1,50.000000298023
256,192,34705,5,0,0:0:0:0:
160,272,34905,5,0,0:0:0:0:
48,216,35105,5,0,0:0:0:0:
48,72,35305,1,0,0:0:0:0:
256,152,35505,1,0,0:0:0:0:
144,32,35705,1,0,0:0:0:0:
144,192,35905,1,0,0:0:0:0:
472,184,36305,5,0,0:0:0:0:
256,184,36505,1,0,0:0:0:0:
320,184,36705,1,0,0:0:0:0:
320,256,36905,1,0,0:0:0:0:
256,256,37105,1,0,0:0:0:0:
256,184,37305,1,0,0:0:0:0:
72,184,37705,1,0,0:0:0:0:
160,29,37905,1,0,0:0:0:0:
249,184,38105,1,0,0:0:0:0:
90,308,38505,5,0,0:0:0:0:
256,192,38905,1,0,0:0:0:0:
427,69,39305,1,0,0:0:0:0:
256,69,39705,1,0,0:0:0:0:
84,69,40105,1,0,0:0:0:0:
256,192,40505,1,0,0:0:0:0:
421,308,40905,1,0,0:0:0:0:
224,80,41305,2,0,B|208:104|208:104|168:104|168:104,1,50.000000298023
84,192,41705,1,0,0:0:0:0:
76,318,42105,5,0,0:0:0:0:
76,65,42505,1,0,0:0:0:0:
435,65,42905,1,0,0:0:0:0:
435,318,43305,1,0,0:0:0:0:
256,192,43705,1,0,0:0:0:0:
69,325,44105,1,0,0:0:0:0:
435,325,44505,1,0,0:0:0:0:
435,192,44705,1,0,0:0:0:0:
435,58,44905,1,0,0:0:0:0:
256,192,45305,5,0,0:0:0:0:
442,192,45705,1,0,0:0:0:0:
76,192,46105,1,0,0:0:0:0:
256,65,46505,1,0,0:0:0:0:
256,318,46905,1,0,0:0:0:0:
375,92,47305,1,0,0:0:0:0:
142,92,47705,1,0,0:0:0:0:
142,192,47905,1,0,0:0:0:0:
142,298,48105,1,0,0:0:0:0:
435,192,48505,5,0,0:0:0:0:
76,192,48905,1,0,0:0:0:0:
256,65,49305,1,0,0:0:0:0:
256,192,49705,12,0,51105,0:0:0:0:
256,184,51305,5,0,0:0:0:0:
256,32,51505,1,0,0:0:0:0:
56,136,51705,1,0,0:0:0:0:
256,232,51905,1,0,0:0:0:0:
456,136,52105,1,0,0:0:0:0:
368,328,52305,5,0,0:0:0:0:
160,328,52505,1,0,0:0:0:0:
344,24,52705,1,0,0:0:0:0:
136,24,52905,1,0,0:0:0:0:
256,32,53105,5,4,0:0:0:0:
200,96,53205,1,0,0:0:0:0:
264,152,53305,1,0,0:0:0:0:
328,88,53405,1,0,0:0:0:0:
408,128,53505,1,0,0:0:0:0:
408,216,53605,1,0,0:0:0:0:
336,264,53705,1,0,0:0:0:0:
144,120,53905,5,0,0:0:0:0:
424,120,54105,1,0,0:0:0:0:
256,344,54305,1,0,0:0:0:0:
56,56,54705,1,0,0:0:0:0:
352,56,54905,1,0,0:0:0:0:
456,192,55105,5,0,0:0:0:0:
248,192,55305,1,0,0:0:0:0:
136,80,55455,2,0,L|144:80,10,6.25000003725287
344,80,55905,1,0,0:0:0:0:
344,288,56105,1,0,0:0:0:0:
120,88,56305,1,0,0:0:0:0:
272,128,56505,5,4,0:0:0:0:
240,176,56605,1,0,0:0:0:0:
280,224,56705,1,0,0:0:0:0:
232,264,56805,1,0,0:0:0:0:
280,304,56905,1,0,0:0:0:0:
408,224,57105,5,0,0:0:0:0:
256,136,57305,1,0,0:0:0:0:
344,48,57505,1,0,0:0:0:0:
