osu file format v14

[General]
AudioFilename: audio.mp3
AudioLeadIn: 0
PreviewTime: -1
Countdown: 1
SampleSet: None
StackLeniency: 0.7
Mode: 1
LetterboxInBreaks: 0
WidescreenStoryboard: 0

[Editor]
DistanceSpacing: 0.8
BeatDivisor: 4
GridSize: 16
TimelineZoom: 2.1

[Metadata]
Title:Have you ever had a dream like this? (Metal Remix)
TitleUnicode:Have you ever had a dream like this? (Metal Remix)
Artist:Drewsif Stalin
ArtistUnicode:Drewsif Stalin
Creator:[Eve]
Version:Rockin
Source:
Tags:Have you ever had a dream
BeatmapID:1463464
BeatmapSetID:691544

[Difficulty]
HPDrainRate:5
CircleSize:5
OverallDifficulty:5
ApproachRate:5
SliderMultiplier:0.90000000596046
SliderTickRate:1

[Events]
//Background and Video events
0,0,"Have-you-ever-had-a-dream-like-this-YouTube-1.png",0,0
//Break Periods
//Storyboard Layer 0 (Background)
//Storyboard Layer 1 (Fail)
//Storyboard Layer 2 (Pass)
//Storyboard Layer 3 (Foreground)
//Storyboard Sound Samples

[TimingPoints]
1120.19712793734,156.657963446475,4,1,0,100,1,0
3078,156.657963446475,4,1,0,100,1,0
4410,156.657963446475,4,1,0,100,1,0
5348,156.657963446475,4,1,0,100,1,0
5543,156.657963446475,4,1,0,100,1,0
5895,156.657963446475,4,1,0,100,1,0

[HitObjects]
256,192,1120,5,2,0:0:0:0:
256,192,1355,1,0,0:0:0:0:
256,192,1511,1,0,0:0:0:0:
256,192,1629,1,0,0:0:0:0:
256,192,1785,1,0,0:0:0:0:
256,192,1864,1,0,0:0:0:0:
256,192,2060,1,2,0:0:0:0:
288,64,2373,2,0,L|432:64,1,135.000000894069
256,192,3078,1,2,0:0:0:0:
256,192,3861,1,0,0:0:0:0:
256,192,4410,1,2,0:0:0:0:
256,192,4801,1,0,0:0:0:0:
256,192,5036,1,0,0:0:0:0:
256,192,5348,1,0,0:0:0:0:
256,192,5545,1,2,0:0:0:0:
144,32,5897,2,0,L|240:32,1,90.000000596046
256,192,6211,1,0,0:0:0:0:
256,192,6523,1,0,0:0:0:0:
256,192,6602,1,2,0:0:0:0:
256,192,6680,1,2,0:0:0:0:
256,192,6758,1,2,0:0:0:0:
256,192,6837,1,0,0:0:0:0:
256,192,7150,1,0,0:0:0:0:
256,192,7463,1,2,0:0:0:0:
256,192,7542,1,2,0:0:0:0:
256,192,7620,1,0,0:0:0:0:
256,192,7777,1,0,0:0:0:0:
256,192,8088,1,0,0:0:0:0:
256,192,8401,1,0,0:0:0:0:
256,192,8793,1,2,0:0:0:0:
256,192,8988,1,0,0:0:0:0:
256,192,9184,1,0,0:0:0:0:
256,192,9498,1,0,0:0:0:0:
256,192,9576,1,2,0:0:0:0:
256,192,9811,1,0,0:0:0:0:
160,64,10007,2,0,L|240:64,1,67.5000004470345
256,192,10438,1,0,0:0:0:0:
256,192,10751,12,0,10829,0:0:0:0:
256,192,10947,5,0,0:0:0:0:
256,192,11143,1,2,0:0:0:0:
256,192,11299,1,0,0:0:0:0:
256,192,11613,1,2,0:0:0:0:
256,192,12082,1,0,0:0:0:0:
256,192,12474,12,0,12631,0:0:0:0:
256,192,12787,5,2,0:0:0:0:
256,192,12866,1,0,0:0:0:0:
256,192,13101,1,2,0:0:0:0:
256,192,13179,1,0,0:0:0:0:
256,192,13492,1,2,0:0:0:0:
256,192,13649,1,0,0:0:0:0:
256,192,13962,1,2,0:0:0:0:
160,64,14276,2,0,L|256:64,1,90.000000596046
256,192,14589,1,0,0:0:0:0:
256,192,14707,1,2,0:0:0:0:
256,192,14863,1,2,0:0:0:0:
256,192,15176,1,0,0:0:0:0:
256,192,15294,1,2,0:0:0:0:
256,192,15764,1,2,0:0:0:0:
256,192,16038,1,0,0:0:0:0:
256,192,16195,1,0,0:0:0:0:
256,192,16391,1,0,0:0:0:0:
256,192,16469,1,2,0:0:0:0:
256,192,16547,1,0,0:0:0:0:
256,192,16704,1,2,0:0:0:0:
256,192,16939,1,2,0:0:0:0:
256,192,17174,1,0,0:0:0:0:
256,192,17370,1,2,0:0:0:0:
256,192,17487,1,0,0:0:0:0:
256,192,17683,1,0,0:0:0:0:
256,192,17801,1,2,0:0:0:0:
256,192,18035,1,0,0:0:0:0:
