osu file format v14

[General]
AudioFilename: audio.mp3
AudioLeadIn: 0
PreviewTime: 50065
Countdown: 0
SampleSet: Soft
StackLeniency: 0.7
Mode: 0
LetterboxInBreaks: 0
WidescreenStoryboard: 1

[Editor]
Bookmarks: 149118
DistanceSpacing: 1.4
BeatDivisor: 4
GridSize: 16
TimelineZoom: 1.4

[Metadata]
Title:YOU AND I
TitleUnicode:YOU AND I
Artist:Dreamcatcher
ArtistUnicode:드림캐쳐
Creator:ailv
Version:Hard
Source:
Tags:krock kpop k-pop 지유 수아 시연 한동 유현 다미 가현 ji-u su-a siyeon handong yoohyun dami Gahyeon [-Crissaegrim-] -_Tatan_-
BeatmapID:1655991
BeatmapSetID:787672

[Difficulty]
HPDrainRate:4
CircleSize:3.7
OverallDifficulty:6
ApproachRate:8
SliderMultiplier:1.6
SliderTickRate:1

[Events]
//Background and Video events
0,0,"behind_the_red_curtain_by_nanomortis-db4jme0.png",0,0
//Break Periods
2,161489,170003
//Storyboard Layer 0 (Background)
//Storyboard Layer 1 (Fail)
//Storyboard Layer 2 (Pass)
//Storyboard Layer 3 (Foreground)
//Storyboard Sound Samples

[TimingPoints]
650,309.278350515464,4,2,1,47,1,0
650,-100,4,2,1,47,0,0
6990,-100,4,2,1,47,0,0
7299,-100,4,2,1,47,0,0
7608,-100,4,2,1,47,0,0
7915,-100,4,2,1,47,0,0
8072,-100,4,2,1,37,0,0
8227,-100,4,2,1,37,0,0
8536,-100,4,2,1,37,0,0
9000,-100,4,2,1,27,0,0
9619,-100,4,2,1,17,0,0
10546,-200,4,1,1,57,0,0
10856,-200,4,1,1,57,0,0
20443,-142.857142857143,4,1,1,57,0,0
30340,-200,4,2,1,47,0,0
40237,-142.857142857143,4,1,1,57,0,0
41474,-142.857142857143,4,1,1,57,0,0
45186,-111.111111111111,4,1,1,57,0,0
50134,-83.3333333333333,4,3,1,77,0,1
51603,-83.3333333333333,4,3,1,77,0,1
51680,-83.3333333333333,4,3,1,77,0,1
56552,-83.3333333333333,4,3,1,77,0,1
56629,-83.3333333333333,4,3,1,77,0,1
61500,-83.3333333333333,4,3,1,77,0,1
61577,-83.3333333333333,4,3,1,77,0,1
69851,-83.3333333333333,4,1,1,67,0,0
77351,-83.3333333333333,4,1,1,57,0,0
78588,-83.3333333333333,4,2,1,17,0,0
79825,-200,4,1,76,47,0,0
80134,-200,4,1,1,47,0,0
89722,-125,4,1,1,57,0,0
99619,-200,4,2,1,47,0,0
104876,-166.666666666667,4,2,1,47,0,0
109515,-111.111111111111,4,1,1,57,0,0
119412,-83.3333333333333,4,3,1,77,0,1
120881,-83.3333333333333,4,3,1,77,0,1
120958,-83.3333333333333,4,3,1,77,0,1
125830,-83.3333333333333,4,3,1,77,0,1
125907,-83.3333333333333,4,3,1,77,0,1
130778,-83.3333333333333,4,3,1,77,0,1
130855,-83.3333333333333,4,3,1,77,0,1
138588,-83.3333333333333,4,3,1,77,0,1
139206,-100,4,1,1,67,0,0
149103,-250,4,2,1,57,0,0
154052,-250,4,2,1,76,0,0
158381,-250,4,2,1,76,0,0
159000,-250,4,2,1,27,0,0
170753,-250,4,2,1,37,0,0
171680,-250,4,2,1,47,0,0
171835,-250,4,1,1,47,0,0
172299,-333.333333333333,4,3,1,57,0,0
172531,-333.333333333333,4,3,1,57,0,0
172608,-71.4285714285714,4,3,1,77,0,1
176552,-71.4285714285714,4,3,1,77,0,1
176629,-71.4285714285714,4,3,1,77,0,1
181268,-71.4285714285714,4,3,1,77,0,1
182737,-71.4285714285714,4,3,1,77,0,1
182814,-71.4285714285714,4,3,1,77,0,1
187376,-71.4285714285714,4,3,1,77,0,1
187453,-71.4285714285714,4,3,1,77,0,1
188691,-166.666666666667,4,2,1,67,0,0
189773,-166.666666666667,4,2,1,67,0,0
189928,-166.666666666667,4,3,1,77,0,0
190856,-166.666666666667,4,3,1,87,0,0

[Colours]
Combo1 : 225,188,102
Combo2 : 238,87,87
Combo3 : 152,128,217

[HitObjects]
256,192,6835,12,0,9928,0:0:0:0:
224,320,10546,5,4,0:0:0:0:
238,335,10856,6,0,L|284:337,2,40
349,240,11474,2,0,P|349:198|349:183,1,40,8|0,0:0|0:0,0:0:0:0:
378,127,11784,6,0,P|350:120|322:118,1,40
263,122,12093,1,0,0:0:0:0:
196,82,12247,2,0,P|173:84|151:90,1,40,0|0,0:0|0:0,0:0:0:0:
156,89,12866,5,0,0:0:0:0:
120,157,13021,2,0,L|120:202,1,40,0|0,0:0|0:0,0:0:0:0:
180,249,13330,1,0,0:0:0:0:
144,317,13485,2,0,L|144:362,1,40,0|0,0:0|0:0,0:0:0:0:
219,374,13794,1,0,0:0:0:0:
282,331,13948,2,0,L|338:333,1,40,8|0,0:0|0:0,0:0:0:0:
379,277,14258,6,0,L|466:273,1,80
458,273,14876,2,0,L|471:178,1,80
468,193,15495,6,0,P|441:185|377:193,1,80
244,51,16268,5,0,0:0:0:0:
244,51,16423,2,0,L|189:46,1,40,8|0,0:0|0:0,0:0:0:0:
134,23,16732,2,0,L|79:18,1,40,0|0,0:0|0:0,0:0:0:0:
90,102,17041,5,0,0:0:0:0:
147,154,17196,1,0,0:0:0:0:
142,238,17351,1,0,0:0:0:0:
142,238,17660,6,0,L|181:242,1,40,0|0,0:0|0:0,0:0:0:0:
247,195,17969,2,0,P|262:243|251:284,2,80
342,291,18742,5,0,0:0:0:0:
342,291,18897,2,0,L|381:283,1,40,8|0,0:0|0:0,0:0:0:0:
430,349,19206,2,0,L|469:341,1,40,0|0,0:0|0:0,0:0:0:0:
500,265,19515,5,0,0:0:0:0:
436,216,19670,1,0,0:0:0:0:
462,141,19825,1,2,0:0:0:0:
469,152,20134,5,0,0:0:0:0:
476,164,20443,5,6,0:0:0:0:
416,214,20598,2,0,L|346:207,1,55.9999982910157,0|2,0:0|0:2,0:0:0:0:
300,259,20907,1,0,0:0:0:0:
240,209,21062,2,0,L|170:216,1,55.9999982910157,8|0,0:0|0:0,0:0:0:0:
117,171,21371,5,0,0:0:0:0:
94,95,21526,1,0,0:0:0:0:
129,24,21680,1,0,0:0:0:0:
129,24,21990,6,0,P|168:28|211:26,1,55.9999982910157,0|0,0:0|0:0,0:0:0:0:
251,67,22299,2,0,P|278:66|306:62,1,55.9999982910157,8|0,0:0|0:0,0:0:0:0:
372,20,22608,1,2,0:2:0:0:
372,20,22918,5,6,0:0:0:0:
425,78,23072,2,0,P|424:120|421:146,1,55.9999982910157,0|2,0:0|0:2,0:0:0:0:
471,197,23381,1,0,0:0:0:0:
418,255,23536,2,0,P|419:297|422:323,1,55.9999982910157,8|0,0:0|0:0,0:0:0:0:
366,369,23845,5,0,0:0:0:0:
289,384,24000,1,0,0:0:0:0:
222,351,24155,1,0,0:0:0:0:
222,351,24464,6,0,P|219:316|222:292,1,55.9999982910157,2|0,0:2|0:0,0:0:0:0:
257,224,24773,2,0,P|259:189|257:165,1,55.9999982910157,8|0,0:0|0:0,0:0:0:0:
293,97,25082,1,2,0:2:0:0:
193,10,25392,1,6,0:0:0:0:
193,10,25701,5,2,0:2:0:0:
124,48,25856,1,0,0:0:0:0:
52,15,26010,2,0,P|47:61|49:84,1,55.9999982910157,8|0,0:0|0:0,0:0:0:0:
104,125,26320,2,0,P|109:171|107:194,1,55.9999982910157,2|0,0:2|0:0,0:0:0:0:
87,258,26629,1,0,0:0:0:0:
87,258,26938,6,0,P|133:259|160:261,1,55.9999982910157,0|0,0:0|0:0,0:0:0:0:
192,322,27247,2,0,P|219:320|247:320,1,55.9999982910157,8|0,0:0|0:0,0:0:0:0:
313,361,27557,2,0,P|340:359|368:359,1,55.9999982910157,0|0,0:0|0:0,0:0:0:0:
446,366,27866,6,0,P|393:320|415:268,1,111.999996582031,6|2,0:0|0:2,0:0:0:0:
455,235,28330,1,0,0:0:0:0:
414,170,28485,2,0,L|423:111,1,55.9999982910157,8|0,0:0|0:0,0:0:0:0:
392,39,28794,6,0,P|346:81|339:96,1,55.9999982910157,0|0,0:0|0:0,0:0:0:0:
272,68,29103,2,0,P|286:128|295:142,1,55.9999982910157,0|0,0:0|0:0,0:0:0:0:
229,181,29412,2,0,P|289:199|305:198,1,55.9999982910157,4|0,0:0|0:0,0:0:0:0:
304,274,29722,2,0,P|350:232|357:216,1,55.9999982910157,10|0,0:0|0:0,0:0:0:0:
429,226,30031,1,0,0:0:0:0:
429,226,30340,6,0,L|431:185,2,40,2|0|0,0:0|0:0|0:0,0:0:0:0:
399,297,30959,2,0,L|400:336,2,40,2|0|0,0:0|0:0|0:0,0:0:0:0:
346,238,31577,2,0,P|309:218|229:229,1,120,0|0,0:0|0:0,0:0:0:0:
195,293,32196,2,0,L|184:165,1,120,0|0,0:0|0:0,0:0:0:0:
135,109,32814,6,0,L|93:105,2,40,2|0|0,0:0|0:0|0:0,0:0:0:0:
150,27,33433,2,0,L|108:23,2,40,2|0|0,0:0|0:0|0:0,0:0:0:0:
212,89,34052,2,0,P|277:71|339:91,1,120,0|0,0:0|0:0,0:0:0:0:
379,144,34670,2,0,L|369:314,1,160,0|0,0:0|0:0,0:0:0:0:
369,303,35598,6,0,P|353:278|337:269,1,40,0|0,0:0|0:0,0:0:0:0:
281,230,35907,2,0,P|269:245|265:264,1,40,2|0,0:0|0:0,0:0:0:0:
258,344,36217,2,0,P|277:345|296:337,1,40,0|0,0:0|0:0,0:0:0:0:
369,303,36526,6,0,P|361:264|376:227,1,80,2|0,0:0|0:0,0:0:0:0:
453,241,37144,2,0,P|460:279|445:316,1,80,2|2,0:0|0:0,0:0:0:0:
394,373,37763,6,0,P|305:371|218:375,1,160,2|0,0:0|0:0,0:0:0:0:
218,369,38691,1,0,0:0:0:0:
203,362,39000,2,0,P|200:282|202:202,1,160,2|0,0:0|0:0,0:0:0:0:
201,202,40237,6,0,P|158:198|142:200,2,55.9999982910157,6|0|0,0:0|0:0|0:0,0:0:0:0:
239,128,40856,2,0,P|235:85|237:69,2,55.9999982910157,0|0|10,0:0|0:0|0:0,0:0:0:0:
247,133,41474,2,0,P|328:121|424:121,1,167.999994873047,0|0,0:0|0:0,0:0:0:0:
484,79,42093,2,0,B|521:162|455:165|495:251,1,167.999994873047,8|0,0:0|0:0,0:0:0:0:
445,320,42711,6,0,P|482:323|506:325,2,55.9999982910157,6|0|0,0:0|0:0|0:0,0:0:0:0:
366,356,43330,2,0,P|329:359|305:361,2,55.9999982910157,0|0|10,0:0|0:0|0:0,0:0:0:0:
386,358,43948,2,0,P|399:280|328:279,1,167.999994873047
254,312,44567,2,0,B|223:234|297:240|258:149,1,167.999994873047,8|0,0:0|0:0,0:0:0:0:
258,150,45186,6,0,L|184:146,1,71.9999978027344,4|0,0:0|0:0,0:0:0:0:
105,142,45495,1,0,0:0:0:0:
105,142,45650,1,0,0:0:0:0:
34,198,45804,6,0,L|29:270,1,71.9999978027344,4|0,0:0|0:0,0:0:0:0:
71,335,46113,2,0,L|143:340,1,71.9999978027344,0|0,0:0|0:0,0:0:0:0:
208,298,46423,2,0,L|280:303,1,71.9999978027344,4|0,0:0|0:0,0:0:0:0:
348,334,46732,5,0,0:0:0:0:
424,312,46887,1,0,0:0:0:0:
498,346,47041,2,0,B|516:267|470:277|491:200,1,143.999995605469,4|0,0:0|0:0,0:0:0:0:
512,129,47505,1,0,0:0:0:0:
457,71,47660,6,0,L|353:69,1,71.9999978027344,6|0,0:0|0:0,0:0:0:0:
320,18,47969,2,0,L|216:16,1,71.9999978027344,2|0,0:0|0:0,0:0:0:0:
188,76,48278,2,0,L|186:180,1,71.9999978027344,2|2,0:0|0:0,0:0:0:0:
106,181,48588,2,0,L|108:110,1,71.9999978027344,2|2,0:0|0:0,0:0:0:0:
209,183,49361,5,0,0:0:0:0:
209,183,49438,1,0,0:0:0:0:
209,183,49515,1,8,0:0:0:0:
209,183,50134,6,0,B|306:143|308:230|402:186,1,191.999994140625,4|10,0:0|0:1,0:0:0:0:
425,93,50598,2,0,P|495:182|466:258,1,191.999994140625,2|0,0:0|0:0,0:0:0:0:
394,304,51062,2,0,L|267:280,1,95.9999970703126,10|0,0:1|0:0,0:0:0:0:
209,237,51371,6,0,P|198:286|218:341,1,95.9999970703126,2|0,0:1|0:0,0:0:0:0:
299,286,51680,2,0,P|311:240|300:193,1,95.9999970703126,10|0,0:1|0:0,0:0:0:0:
348,116,51990,6,0,P|301:103|238:127,1,95.9999970703126,2|0,0:1|0:0,0:0:0:0:
183,159,52299,2,0,P|136:172|73:148,1,95.9999970703126,10|0,0:1|0:0,0:0:0:0:
82,33,52608,6,0,P|159:11|120:89,1,191.999994140625,2|10,0:1|0:1,0:0:0:0:
10,103,53072,2,0,P|-8:158|41:288,1,191.999994140625,2|0,0:0|0:0,0:0:0:0:
134,250,53536,2,0,P|191:243|239:254,1,95.9999970703126,10|0,0:1|0:0,0:0:0:0:
326,300,53845,6,0,P|334:252|320:194,1,95.9999970703126,2|0,0:1|0:0,0:0:0:0:
228,250,54155,2,0,P|220:298|234:356,1,95.9999970703126,10|0,0:1|0:0,0:0:0:0:
326,300,54464,6,0,P|379:308|431:308,1,95.9999970703126,2|0,0:1|0:0,0:0:0:0:
512,233,54773,2,0,P|470:228|411:229,1,95.9999970703126,10|0,0:1|0:0,0:0:0:0:
326,207,55082,6,0,B|421:252|417:170|512:205,1,191.999994140625,4|10,0:3|0:1,0:0:0:0:
500,106,55546,2,0,P|439:113|302:99,1,191.999994140625,2|0,0:0|0:0,0:0:0:0:
232,47,56010,2,0,P|213:91|222:138,1,95.9999970703126,10|0,0:1|0:0,0:0:0:0:
267,233,56320,6,0,P|221:244|175:232,1,95.9999970703126,2|0,0:1|0:0,0:0:0:0:
127,151,56629,1,10,0:1:0:0:
127,151,56784,1,0,0:0:0:0:
40,109,56938,6,0,P|35:156|57:218,1,95.9999970703126,2|0,0:1|0:0,0:0:0:0:
0,281,57247,2,0,P|45:293|93:288,1,95.9999970703126,10|0,0:1|0:0,0:0:0:0:
168,239,57557,6,0,B|213:199|213:199|197:352,1,191.999994140625,2|10,0:1|0:1,0:0:0:0:
294,374,58021,2,0,P|312:291|398:313,1,191.999994140625,2|0,0:0|0:0,0:0:0:0:
485,368,58485,2,0,P|502:311|490:269,1,95.9999970703126,10|0,0:1|0:0,0:0:0:0:
432,197,58794,6,0,P|384:199|337:200,1,95.9999970703126,2|0,0:1|0:1,0:0:0:0:
252,236,59103,1,10,0:1:0:0:
190,184,59258,1,10,0:0:0:0:
190,184,59335,1,10,0:0:0:0:
190,184,59412,6,0,L|199:77,1,95.9999970703126,10|8,0:1|0:1,0:0:0:0:
283,94,59722,1,10,0:1:0:0:
283,94,59876,1,8,0:1:0:0:
250,15,60031,6,0,B|149:-31|157:57|63:13,1,191.999994140625,4|10,0:0|0:1,0:0:0:0:
11,90,60495,2,0,P|4:139|22:294,1,191.999994140625,2|0,0:0|0:0,0:0:0:0:
78,348,60959,2,0,P|128:360|174:346,1,95.9999970703126,10|0,0:1|0:0,0:0:0:0:
231,287,61268,6,0,P|242:240|230:194,1,95.9999970703126,2|0,0:1|0:0,0:0:0:0:
184,119,61577,1,10,0:1:0:0:
184,119,61732,1,0,0:0:0:0:
285,113,61887,6,0,P|365:105|409:110,1,95.9999970703126,2|0,0:1|0:0,0:0:0:0:
452,147,62196,2,0,P|444:227|449:271,1,95.9999970703126,10|0,0:1|0:0,0:0:0:0:
470,334,62505,6,0,P|386:286|396:338,1,191.999994140625,2|10,0:1|0:1,0:0:0:0:
304,366,62969,2,0,P|229:366|112:364,1,191.999994140625,2|0,0:0|0:0,0:0:0:0:
37,303,63433,2,0,P|33:255|38:207,1,95.9999970703126,10|0,0:1|0:0,0:0:0:0:
100,141,63742,6,0,L|197:134,1,95.9999970703126,2|0,0:1|0:0,0:0:0:0:
272,177,64052,2,0,L|368:184,1,95.9999970703126,10|0,0:1|0:0,0:0:0:0:
444,111,64361,5,2,0:1:0:0:
444,111,64515,1,0,0:0:0:0:
512,167,64670,2,0,P|510:220|510:273,1,95.9999970703126,8|0,0:1|0:0,0:0:0:0:
474,349,64979,6,0,P|429:361|382:350,1,95.9999970703126,4|0,0:0|0:0,0:0:0:0:
332,279,65289,2,0,P|286:266|239:277,1,95.9999970703126,10|0,0:1|0:0,0:0:0:0:
186,350,65598,5,2,0:1:0:0:
186,350,65753,1,0,0:0:0:0:
138,263,65907,1,10,0:1:0:0:
138,263,66062,1,0,0:0:0:0:
198,189,66217,2,0,L|198:63,1,95.9999970703126,0|0,0:0|0:0,0:0:0:0:
263,37,66526,6,0,P|220:10|138:28,1,95.9999970703126,10|0,0:1|0:0,0:0:0:0:
102,106,66835,2,0,L|222:89,1,95.9999970703126,2|0,0:1|0:0,0:0:0:0:
285,118,67144,2,0,L|380:131,1,95.9999970703126,10|0,0:1|0:0,0:0:0:0:
475,178,67454,6,0,P|481:113|472:79,2,95.9999970703126,12|0|0,0:0|0:0|0:0,0:0:0:0:
423,258,67918,2,0,P|414:305|421:352,2,95.9999970703126,12|0|0,0:0|0:0|0:0,0:0:0:0:
388,179,68381,5,12,0:0:0:0:
315,226,68536,1,2,0:0:0:0:
245,177,68691,2,0,L|257:56,1,95.9999970703126,12|0,0:0|0:0,0:0:0:0:
175,31,69000,1,0,0:0:0:0:
160,116,69155,1,2,0:0:0:0:
111,280,69464,5,0,0:0:0:0:
34,317,69619,1,10,0:1:0:0:
99,369,69773,1,0,0:0:0:0:
24,299,69928,6,0,B|11:93,1,191.999994140625,4|10,0:3|0:0,0:0:0:0:
88,49,70392,1,0,0:0:0:0:
166,96,70546,2,0,P|215:107|269:96,1,95.9999970703126,2|0,0:0|0:0,0:0:0:0:
341,43,70856,2,0,P|352:92|341:146,1,95.9999970703126,10|0,0:0|0:0,0:0:0:0:
314,215,71165,5,2,0:0:0:0:
388,237,71320,1,0,0:0:0:0:
339,299,71474,2,0,L|235:291,1,95.9999970703126,10|0,0:0|0:0,0:0:0:0:
173,339,71784,5,2,0:0:0:0:
145,264,71938,1,0,0:0:0:0:
203,209,72093,2,0,P|207:163|194:106,1,95.9999970703126,10|0,0:0|0:0,0:0:0:0:
166,40,72402,5,2,0:0:0:0:
243,16,72557,1,0,0:0:0:0:
292,79,72711,2,0,P|345:74|402:76,1,95.9999970703126,10|0,0:0|0:0,0:0:0:0:
428,145,73021,5,2,0:0:0:0:
379,209,73175,2,0,P|331:209|283:204,1,95.9999970703126,0|10,0:0|0:0,0:0:0:0:
202,228,73485,2,0,P|207:180|207:132,2,95.9999970703126,0|2|0,0:0|0:0|0:0,0:0:0:0:
223,313,73948,5,10,0:0:0:0:
307,294,74103,1,2,0:3:0:0:
307,294,74180,1,2,0:3:0:0:
307,294,74258,1,2,0:3:0:0:
377,351,74412,5,0,0:0:0:0:
457,353,74567,1,12,0:3:0:0:
499,288,74722,1,0,0:0:0:0:
499,288,74876,6,0,B|510:217|510:217|487:172|487:172|498:103,1,191.999994140625,4|10,0:3|0:0,0:0:0:0:
429,51,75340,1,0,0:0:0:0:
349,78,75495,2,0,P|293:87|250:73,1,95.9999970703126,2|0,0:0|0:0,0:0:0:0:
185,42,75804,1,10,0:0:0:0:
122,104,75959,5,0,0:0:0:0:
100,184,76113,1,2,0:0:0:0:
184,173,76268,1,0,0:0:0:0:
184,173,76423,2,0,L|282:176,1,95.9999970703126,10|0,0:0|0:0,0:0:0:0:
373,198,76732,6,0,L|377:141,4,47.9999985351563,2|0|0|0|10,0:0|0:0|0:0|0:0|0:0,0:0:0:0:
327,279,77196,1,0,0:0:0:0:
413,279,77351,5,4,0:3:0:0:
442,311,79825,5,4,0:0:0:0:
431,329,80134,6,0,L|386:338,2,40
287,239,80753,2,0,L|293:188,1,40,8|0,0:0|0:0,0:0:0:0:
326,126,81062,2,0,L|377:132,1,40
441,100,81371,5,0,0:0:0:0:
485,159,81526,1,0,0:0:0:0:
467,235,81680,1,0,0:0:0:0:
467,235,81990,5,0,0:0:0:0:
411,289,82144,1,0,0:0:0:0:
338,285,82299,2,0,L|249:276,1,80,0|0,0:0|0:0,0:0:0:0:
179,264,82763,1,0,0:0:0:0:
102,285,82918,2,0,L|98:229,1,40
71,127,83227,6,0,L|67:171,1,40,8|0,0:0|0:0,0:0:0:0:
14,71,83536,2,0,L|11:27,1,40
149,109,83845,6,0,L|145:153,1,40
92,53,84155,2,0,L|89:9,1,40,0|0,0:0|0:0,0:0:0:0:
178,36,84464,6,0,P|218:25|267:43,1,80,0|2,0:0|0:3,0:0:0:0:
315,116,85082,5,0,0:0:0:0:
315,116,85237,1,0,0:0:0:0:
315,116,85392,2,0,L|363:110,1,40,0|0,0:0|0:0,0:0:0:0:
440,166,85701,5,8,0:0:0:0:
440,166,85856,1,0,0:0:0:0:
440,166,86010,2,0,L|432:219,1,40
370,259,86320,5,0,0:0:0:0:
370,259,86474,1,0,0:0:0:0:
370,259,86629,2,0,L|376:309,1,40
300,336,86938,5,0,0:0:0:0:
221,325,87093,1,0,0:0:0:0:
141,330,87247,2,0,L|52:338,1,80
21,269,87711,1,0,0:0:0:0:
69,204,87866,2,0,L|61:151,1,40
55,83,88175,6,0,L|100:90,1,40,8|0,0:0|0:0,0:0:0:0:
176,14,88485,2,0,L|131:20,1,40
185,100,88794,6,0,L|230:107,1,40
307,33,89103,2,0,L|262:39,1,40,2|0,0:2|0:0,0:0:0:0:
311,122,89412,5,0,0:0:0:0:
312,135,89490,1,0,0:0:0:0:
314,149,89567,1,2,0:2:0:0:
316,160,89644,1,2,0:2:0:0:
318,173,89722,6,0,L|389:177,1,64,2|0,0:2|0:0,0:0:0:0:
433,232,90031,2,0,L|428:299,1,64,0|0,0:0|0:0,0:0:0:0:
374,355,90340,6,0,P|339:338|270:350,1,85.3333333333333,8|0,0:0|0:0,0:0:0:0:
261,356,90650,2,0,P|226:373|157:361,1,85.3333333333333,0|0,0:0|0:0,0:0:0:0:
145,350,90959,6,0,L|140:286,1,64,0|0,0:0|0:0,0:0:0:0:
96,219,91268,2,0,L|100:155,1,64,0|0,0:0|0:0,0:0:0:0:
115,76,91577,2,0,P|73:78|17:148,1,128,8|0,0:0|0:0,0:0:0:0:
9,234,92041,5,0,0:0:0:0:
19,225,92119,1,0,0:0:0:0:
32,216,92196,2,0,L|115:219,1,64,0|0,0:0|0:0,0:0:0:0:
161,175,92505,2,0,L|224:172,1,64,0|0,0:0|0:0,0:0:0:0:
286,123,92814,6,0,P|303:162|299:202,1,64,8|0,0:0|0:0,0:0:0:0:
258,245,93124,2,0,P|243:273|240:304,1,64,0|0,0:0|0:0,0:0:0:0:
289,373,93433,6,0,L|369:366,1,64,0|0,0:0|0:0,0:0:0:0:
407,315,93742,2,0,L|475:316,2,64,0|0|8,0:0|0:0|0:0,0:0:0:0:
361,254,94206,1,0,0:0:0:0:
413,194,94361,2,0,P|411:155|416:121,1,64,0|0,0:0|0:0,0:0:0:0:
414,37,94670,6,0,P|478:65|530:57,2,85.3333333333333,0|0|0,0:0|0:0|0:0,0:0:0:0:
298,37,95289,2,0,P|339:30|376:8,2,85.3333333333333,8|0|0,0:0|0:0|0:0,0:0:0:0:
203,46,95907,2,0,P|267:74|319:66,2,85.3333333333333,0|0|0,0:0|0:0|0:0,0:0:0:0:
87,46,96526,2,0,P|128:39|165:17,2,85.3333333333333,8|0|0,0:0|0:0|0:0,0:0:0:0:
3,124,97144,6,0,P|13:173|36:267,2,128,0|0|8,0:0|0:0|0:0,0:0:0:0:
153,159,98072,2,0,P|168:96|181:34,2,128,0|0|0,0:0|0:0|0:0,0:0:0:0:
153,159,99000,6,0,P|188:159|222:160,1,64,8|0,0:0|0:0,0:0:0:0:
280,211,99309,2,0,P|315:211|349:212,1,64
412,163,99619,6,0,L|414:122,2,40,2|0|0,0:0|0:0|0:0,0:0:0:0:
462,225,100237,2,0,L|463:264,2,40,2|0|0,0:0|0:0|0:0,0:0:0:0:
385,246,100856,2,0,P|326:246|248:237,1,120,0|0,0:0|0:0,0:0:0:0:
186,268,101474,2,0,L|174:144,1,120,0|0,0:0|0:0,0:0:0:0:
122,78,102093,6,0,L|72:72,2,40,2|0|0,0:0|0:0|0:0,0:0:0:0:
162,6,102711,2,0,L|111:-2,2,40,2|0|0,0:0|0:0|0:0,0:0:0:0:
219,64,103330,2,0,P|286:51|339:83,1,120,0|0,0:0|0:0,0:0:0:0:
384,144,103948,2,0,L|375:309,1,160,0|0,0:0|0:0,0:0:0:0:
375,303,104876,6,0,L|426:296,2,47.9999985351563,0|0|2,0:0|0:0|0:0,0:0:0:0:
292,291,105340,2,0,L|285:240,2,47.9999985351563,0|0|0,0:0|0:0|0:0,0:0:0:0:
251,367,105804,6,0,P|221:371|194:364,1,47.9999985351563,2|0,0:0|0:0,0:0:0:0:
148,313,106113,2,0,P|118:309|91:316,1,47.9999985351563,0|0,0:0|0:0,0:0:0:0:
21,338,106423,6,0,P|17:308|24:281,1,47.9999985351563,2|0,0:0|0:0,0:0:0:0:
78,240,106732,2,0,P|82:210|75:183,1,47.9999985351563,2|0,0:0|0:0,0:0:0:0:
131,115,107041,6,0,P|57:113|18:112,2,95.9999970703126,2|0|0,0:0|0:0|0:0,0:0:0:0:
243,188,107969,1,0,0:0:0:0:
333,109,108278,2,0,P|335:35|337:-2,2,95.9999970703126,2|0|0,0:0|0:0|0:0,0:0:0:0:
334,118,109206,6,0,P|388:108|414:113,1,71.9999978027344,0|0,0:0|0:0,0:0:0:0:
433,118,109515,5,6,0:0:0:0:
421,196,109670,1,0,0:0:0:0:
409,279,109825,1,0,0:0:0:0:
409,279,110134,5,2,0:0:0:0:
421,196,110289,1,0,0:0:0:0:
433,118,110443,1,8,0:0:0:0:
441,110,110753,6,0,P|478:113|514:123,2,71.9999978027344,2|8|0,0:0|0:0|0:0,0:0:0:0:
369,77,111371,2,0,P|372:39|382:4,2,71.9999978027344,0|0|8,0:0|0:0|0:0,0:0:0:0:
321,139,111990,5,2,0:0:0:0:
244,143,112144,1,0,0:0:0:0:
170,159,112299,1,0,0:0:0:0:
170,159,112608,5,0,0:0:0:0:
244,143,112763,1,0,0:0:0:0:
321,139,112918,1,8,0:0:0:0:
395,244,113227,6,0,L|385:348,2,71.9999978027344,2|8|0,0:0|0:0|0:0,0:0:0:0:
300,202,113845,2,0,L|310:306,2,71.9999978027344,0|0|8,0:0|0:0|0:0,0:0:0:0:
300,202,114464,5,6,0:0:0:0:
328,70,114773,1,0,0:0:0:0:
251,51,114928,1,0,0:0:0:0:
200,108,115082,1,6,0:0:0:0:
372,146,115392,1,0,0:0:0:0:
225,233,115701,5,6,0:0:0:0:
146,231,115856,1,0,0:0:0:0:
79,178,116010,2,0,P|90:113|91:88,1,71.9999978027344,0|0,0:0|0:0,0:0:0:0:
35,61,116320,2,0,P|84:102|106:115,1,71.9999978027344,6|0,0:0|0:0,0:0:0:0:
158,82,116629,2,0,P|96:103|73:116,1,71.9999978027344,0|0,0:0|0:0,0:0:0:0:
167,169,116938,6,0,L|257:159,1,71.9999978027344,2|0,0:0|0:0,0:0:0:0:
268,89,117247,2,0,L|339:96,1,71.9999978027344,2|0,0:0|0:0,0:0:0:0:
408,139,117557,6,0,L|418:229,1,71.9999978027344,2|2,0:0|0:0,0:0:0:0:
498,277,117866,2,0,L|505:205,1,71.9999978027344,2|2,0:0|0:0,0:0:0:0:
424,302,118639,5,0,0:0:0:0:
424,302,118717,1,0,0:0:0:0:
424,302,118794,1,8,0:0:0:0:
424,302,119412,6,0,B|327:262|325:349|231:305,1,191.999994140625,4|10,0:0|0:1,0:0:0:0:
151,358,119876,2,0,P|146:265|239:209,1,191.999994140625,2|0,0:0|0:0,0:0:0:0:
313,220,120340,2,0,P|302:161|252:130,1,95.9999970703126,10|0,0:1|0:0,0:0:0:0:
180,125,120650,6,0,P|137:127|79:118,1,95.9999970703126,2|0,0:1|0:0,0:0:0:0:
0,168,120959,2,0,P|-2:125|7:67,1,95.9999970703126,10|0,0:1|0:0,0:0:0:0:
73,16,121268,6,0,P|120:3|187:14,1,95.9999970703126,2|0,0:1|0:0,0:0:0:0:
233,55,121577,2,0,P|279:67|327:64,1,95.9999970703126,10|0,0:1|0:0,0:0:0:0:
436,115,121887,6,0,P|346:101|394:188,1,191.999994140625,2|10,0:1|0:1,0:0:0:0:
447,218,122351,2,0,P|375:206|248:217,1,191.999994140625,2|0,0:0|0:0,0:0:0:0:
182,170,122814,2,0,P|166:229|189:275,1,95.9999970703126,10|0,0:1|0:0,0:0:0:0:
248,303,123124,6,0,P|315:293|369:308,1,95.9999970703126,2|0,0:1|0:0,0:0:0:0:
418,274,123433,2,0,P|485:284|539:269,1,95.9999970703126,10|0,0:1|0:0,0:0:0:0:
474,371,123742,6,0,P|418:371|339:375,1,95.9999970703126,2|0,0:1|0:0,0:0:0:0:
280,357,124052,2,0,P|342:328|296:270,1,143.999995605469,10|0,0:1|0:0,0:0:0:0:
280,262,124361,6,0,B|237:258|213:232|213:232|169:273|79:263,1,191.999994140625,4|10,0:0|0:1,0:0:0:0:
35,340,124825,2,0,P|0:263|78:168,1,191.999994140625,2|0,0:0|0:0,0:0:0:0:
22,79,125289,2,0,P|70:75|114:94,1,95.9999970703126,10|0,0:1|0:0,0:0:0:0:
194,138,125598,6,0,P|241:141|285:123,1,95.9999970703126,2|0,0:1|0:0,0:0:0:0:
356,72,125907,2,0,P|374:115|370:163,1,95.9999970703126,10|0,0:1|0:0,0:0:0:0:
304,216,126217,2,0,P|291:261|296:309,1,95.9999970703126,2|0,0:1|0:0,0:0:0:0:
346,374,126526,2,0,P|291:370|245:382,1,95.9999970703126,10|0,0:1|0:0,0:0:0:0:
194,306,126835,6,0,B|90:279|94:344|-12:311,1,191.999994140625,2|10,0:1|0:1,0:0:0:0:
52,223,127299,2,0,P|150:201|237:212,1,143.999995605469,2|0,0:0|0:0,0:0:0:0:
285,259,127763,2,0,P|299:201|287:163,1,95.9999970703126,10|0,0:1|0:0,0:0:0:0:
248,80,128072,6,0,L|343:81,1,95.9999970703126,10|8,0:1|0:1,0:0:0:0:
426,39,128381,1,10,0:1:0:0:
492,106,128536,1,10,0:1:0:0:
492,106,128613,1,10,0:0:0:0:
492,106,128691,2,0,L|490:205,1,95.9999970703126,8|0,0:1|0:0,0:0:0:0:
436,270,129000,1,10,0:1:0:0:
436,270,129155,1,8,0:1:0:0:
467,359,129309,6,0,B|412:367|371:342|371:342|332:373|281:368,1,191.999994140625,4|10,0:0|0:1,0:0:0:0:
185,374,129773,2,0,P|242:272|306:281,1,191.999994140625,2|0,0:0|0:0,0:0:0:0:
349,185,130237,2,0,P|297:171|237:195,1,95.9999970703126,10|0,0:1|0:0,0:0:0:0:
171,197,130546,6,0,P|171:145|171:87,1,95.9999970703126,2|0,0:1|0:0,0:0:0:0:
74,102,130856,2,0,P|74:146|74:198,1,95.9999970703126,10|0,0:1|0:0,0:0:0:0:
32,287,131165,6,0,P|79:286|127:294,1,95.9999970703126,2|0,0:1|0:0,0:0:0:0:
190,349,131474,2,0,P|237:349|285:341,1,95.9999970703126,10|0,0:1|0:0,0:0:0:0:
346,267,131784,6,0,P|277:250|291:343,1,191.999994140625,2|10,0:1|0:1,0:0:0:0:
379,348,132247,2,0,P|371:285|386:159,1,191.999994140625,2|0,0:0|0:0,0:0:0:0:
439,83,132711,2,0,P|394:65|348:72,1,95.9999970703126,10|0,0:1|0:0,0:0:0:0:
297,153,133021,6,0,L|202:150,1,95.9999970703126,2|0,0:1|0:0,0:0:0:0:
179,64,133330,2,0,L|84:67,1,95.9999970703126,10|0,0:1|0:0,0:0:0:0:
17,141,133639,5,2,0:1:0:0:
17,141,133794,1,0,0:0:0:0:
72,214,133948,2,0,P|60:255|69:325,1,95.9999970703126,8|0,0:1|0:0,0:0:0:0:
150,369,134258,6,0,P|195:381|242:370,1,95.9999970703126,4|0,0:0|0:0,0:0:0:0:
287,296,134567,2,0,P|333:285|379:297,1,95.9999970703126,10|0,0:1|0:0,0:0:0:0:
451,359,134876,5,2,0:1:0:0:
451,359,135031,1,0,0:0:0:0:
496,279,135186,1,10,0:1:0:0:
496,279,135340,1,0,0:0:0:0:
422,220,135495,2,0,L|431:113,1,95.9999970703126,0|0,0:0|0:0,0:0:0:0:
503,61,135804,6,0,P|460:34|378:52,1,95.9999970703126,10|0,0:1|0:0,0:0:0:0:
350,91,136113,2,0,L|255:96,1,95.9999970703126,2|0,0:1|0:0,0:0:0:0:
197,33,136423,2,0,L|101:28,1,95.9999970703126,10|0,0:1|0:0,0:0:0:0:
26,94,136732,6,0,P|17:56|12:-6,2,95.9999970703126,12|0|0,0:0|0:0|0:0,0:0:0:0:
63,177,137196,2,0,P|59:224|48:271,2,95.9999970703126,12|0|0,0:0|0:0|0:0,0:0:0:0:
127,113,137660,5,12,0:0:0:0:
197,166,137814,1,2,0:0:0:0:
256,98,137969,2,0,L|356:108,1,95.9999970703126,12|0,0:0|0:0,0:0:0:0:
402,194,138278,5,2,0:0:0:0:
402,194,138433,1,2,0:0:0:0:
495,155,138588,2,0,P|503:214|478:261,1,95.9999970703126,0|0,0:0|0:0,0:0:0:0:
396,285,138897,2,0,P|388:226|413:179,1,95.9999970703126,8|0,0:0|0:0,0:0:0:0:
425,108,139206,6,0,L|407:24,1,80,4|0,0:3|0:0,0:0:0:0:
330,13,139515,1,2,0:2:0:0:
261,56,139670,1,0,0:0:0:0:
261,56,139825,2,0,L|174:47,1,80,2|0,0:2|0:0,0:0:0:0:
118,98,140134,2,0,L|38:106,1,80,2|0,0:2|0:0,0:0:0:0:
0,183,140443,6,0,P|1:230|19:269,1,80,2|0,0:2|0:0,0:0:0:0:
83,303,140753,2,0,L|167:293,1,80,2|0,0:2|0:0,0:0:0:0:
240,314,141062,1,2,0:2:0:0:
289,256,141217,2,0,L|279:172,1,80,0|2,0:0|0:2,0:0:0:0:
325,111,141526,6,0,P|372:112|413:131,2,80,0|2|0,0:0|0:2|0:0,0:0:0:0:
264,63,141990,1,2,0:2:0:0:
192,96,142144,2,0,P|148:96|111:88,1,80,0|2,0:0|0:2,0:0:0:0:
58,147,142454,2,0,P|58:191|50:228,1,80,0|2,0:0|0:2,0:0:0:0:
84,294,142763,6,0,P|40:285|1:297,2,80,0|2|0,0:0|0:2|0:0,0:0:0:0:
167,300,143227,2,0,P|155:334|158:382,1,80,2|0,0:2|0:0,0:0:0:0:
238,384,143536,2,0,P|250:346|248:306,1,80,2|0,0:2|0:0,0:0:0:0:
313,260,143845,2,0,P|354:272|399:267,1,80,2|0,0:2|0:0,0:0:0:0:
456,223,144155,6,0,L|465:125,1,80,2|0,0:2|0:0,0:0:0:0:
384,142,144464,2,0,L|393:44,1,80,2|0,0:2|0:0,0:0:0:0:
294,36,144773,6,0,P|295:88|297:136,1,80,2|0,0:2|0:0,0:0:0:0:
219,93,145082,2,0,P|220:145|222:193,1,80,2|0,0:2|0:0,0:0:0:0:
143,145,145392,2,0,P|144:197|146:245,1,80,2|0,0:2|0:0,0:0:0:0:
199,283,145701,2,0,P|244:284|289:285,1,80,2|0,0:2|0:0,0:0:0:0:
357,306,146010,6,0,P|349:338|353:394,2,80,2|0|2,0:2|0:0|0:2,0:0:0:0:
400,238,146474,1,0,0:0:0:0:
352,177,146629,1,2,0:2:0:0:
397,97,146784,6,0,P|353:99|301:86,1,80,0|2,0:0|0:2,0:0:0:0:
228,79,147093,1,0,0:0:0:0:
228,79,147247,2,0,P|224:127|224:173,1,80,2|0,0:2|0:0,0:0:0:0:
237,241,147557,2,0,P|233:289|233:335,1,80,2|0,0:2|0:0,0:0:0:0:
157,373,147866,6,0,P|117:369|78:359,1,80,2|0,0:2|0:0,0:0:0:0:
33,297,148175,2,0,P|23:254|20:209,1,80,2|0,0:2|0:0,0:0:0:0:
70,148,148485,2,0,P|109:151|148:161,1,80,2|0,0:0|0:0,0:0:0:0:
208,215,148794,2,0,P|247:211|286:201,1,80,2|0,0:0|0:0,0:0:0:0:
354,161,149103,5,2,0:0:0:0:
354,161,149567,6,0,L|357:98,1,64
337,23,150031,1,0,0:0:0:0:
321,28,150340,1,2,0:0:0:0:
321,28,150959,5,2,0:0:0:0:
277,95,151113,2,0,L|235:93,1,32,0|0,0:0|0:0,0:0:0:0:
194,35,151423,2,0,L|152:33,1,32,0|0,0:0|0:0,0:0:0:0:
162,33,151887,5,0,0:0:0:0:
111,91,152041,2,0,P|105:107|97:164,2,64,2|2|0,0:0|0:0|0:0,0:0:0:0:
201,148,153433,6,0,L|204:184,1,32,2|0,0:0|0:0,0:0:0:0:
266,231,153742,2,0,L|263:267,1,32
267,346,154052,6,0,P|151:290|266:231,1,320,2|0,0:0|0:0,0:0:0:0:
265,230,155907,6,0,P|293:225|307:227,1,32,0|0,0:0|0:0,0:0:0:0:
362,262,156217,2,0,P|377:262|393:266,1,32,0|0,0:0|0:0,0:0:0:0:
474,297,156526,6,0,B|440:295|409:314|409:314|448:261|428:192,1,192,0|0,0:0|0:0,0:0:0:0:
423,174,157608,1,0,0:0:0:0:
412,151,157763,2,0,B|286:204|275:107|164:149,1,256,0|0,0:0|0:0,0:0:0:0:
163,149,170753,5,0,0:0:0:0:
159,135,171062,1,0,0:0:0:0:
155,121,171371,1,2,0:1:0:0:
153,110,171680,5,2,0:3:0:0:
258,56,171835,1,0,0:0:0:0:
258,56,172144,5,0,0:0:0:0:
370,121,172299,1,8,0:0:0:0:
370,121,172608,6,0,B|260:162|273:75|153:108,1,223.999993164063,4|10,0:0|0:1,0:0:0:0:
60,155,173072,1,0,0:0:0:0:
154,210,173227,2,0,P|173:160|152:105,1,111.999996582031,2|0,0:1|0:0,0:0:0:0:
60,155,173536,2,0,P|40:206|59:257,1,111.999996582031,10|0,0:1|0:0,0:0:0:0:
160,317,173845,6,0,B|260:286|261:369|396:321,1,223.999993164063,2|10,0:1|0:1,0:0:0:0:
479,352,174309,2,0,P|464:263|329:233,1,223.999993164063,2|0,0:0|0:0,0:0:0:0:
268,139,174773,2,0,P|325:112|395:123,1,111.999996582031,10|0,0:1|0:0,0:0:0:0:
459,36,175082,6,0,L|327:21,1,111.999996582031,2|0,0:1|0:0,0:0:0:0:
264,41,175392,2,0,L|132:56,1,111.999996582031,10|0,0:1|0:0,0:0:0:0:
76,123,175701,5,2,0:1:0:0:
76,123,175856,1,0,0:0:0:0:
100,208,176010,2,0,P|158:205|217:205,1,111.999996582031,8|0,0:1|0:0,0:0:0:0:
305,252,176320,6,0,P|317:201|290:128,1,111.999996582031,4|0,0:0|0:0,0:0:0:0:
211,205,176629,2,0,P|195:258|207:312,1,111.999996582031,10|0,0:1|0:0,0:0:0:0:
309,362,176938,5,2,0:1:0:0:
309,362,177093,1,0,0:0:0:0:
411,348,177247,1,10,0:1:0:0:
411,348,177402,1,0,0:0:0:0:
451,260,177557,2,0,P|447:210|453:140,1,111.999996582031,0|0,0:0|0:0,0:0:0:0:
464,48,177866,6,0,P|413:48|354:108,1,111.999996582031,10|0,0:1|0:0,0:0:0:0:
349,187,178175,2,0,P|372:142|351:61,1,111.999996582031,2|0,0:1|0:0,0:0:0:0:
285,16,178485,2,0,P|310:59|391:80,1,111.999996582031,10|0,0:1|0:0,0:0:0:0:
349,187,178794,6,0,P|422:184|465:192,2,111.999996582031,12|0|0,0:0|0:0|0:0,0:0:0:0:
269,212,179258,2,0,P|196:209|153:217,2,111.999996582031,12|0|0,0:0|0:0|0:0,0:0:0:0:
336,275,179722,1,12,0:0:0:0:
314,367,179876,1,2,0:0:0:0:
314,367,179954,1,2,0:0:0:0:
314,367,180031,2,0,L|431:359,1,111.999996582031,2|8,0:0|0:0,0:0:0:0:
503,320,180340,5,0,0:0:0:0:
512,235,180495,2,0,L|504:118,1,111.999996582031,2|0,0:0|0:0,0:0:0:0:
447,66,180804,5,2,0:0:0:0:
368,91,180959,1,10,0:0:0:0:
420,156,181113,1,2,0:0:0:0:
333,171,181268,6,0,B|277:142|277:142|147:168,1,167.999994873047,4|0,0:0|0:0,0:0:0:0:
146,167,181577,2,0,P|119:225|169:291,1,111.999996582031,10|0,0:1|0:0,0:0:0:0:
192,321,181887,1,2,0:1:0:0:
269,302,182041,1,0,0:0:0:0:
335,346,182196,2,0,L|460:350,1,111.999996582031,10|0,0:1|0:0,0:0:0:0:
490,251,182505,6,0,B|375:217|379:302|265:255,1,223.999993164063,2|10,0:1|0:1,0:0:0:0:
164,263,182969,2,0,P|224:163|337:178,1,223.999993164063,2|0,0:0|0:0,0:0:0:0:
421,148,183433,2,0,P|399:104|323:75,1,111.999996582031,8|0,0:0|0:0,0:0:0:0:
252,59,183742,6,0,B|160:40|160:40|114:72|114:72|16:52,1,223.999993164063,2|10,0:1|0:1,0:0:0:0:
41,57,184361,5,2,0:1:0:0:
13,138,184515,1,0,0:0:0:0:
77,199,184670,1,10,0:1:0:0:
50,278,184825,1,0,0:0:0:0:
104,351,184979,2,0,P|170:338|228:333,1,111.999996582031,2|0,0:1|0:0,0:0:0:0:
303,367,185289,5,10,0:1:0:0:
381,323,185443,2,0,L|438:329,2,55.9999982910157,2|0|2,0:0|0:0|0:0,0:0:0:0:
303,276,185753,1,0,0:0:0:0:
349,133,185907,1,10,0:1:0:0:
376,217,186062,1,0,0:0:0:0:
265,186,186217,6,0,B|161:230|173:132|48:175,1,223.999993164063,4|10,0:0|0:1,0:0:0:0:
94,268,186680,2,0,P|203:232|262:344,1,223.999993164063,2|0,0:0|0:0,0:0:0:0:
376,343,187144,2,0,P|371:273|340:232,1,111.999996582031,10|0,0:1|0:0,0:0:0:0:
288,162,187454,5,2,0:1:0:0:
288,162,187608,1,0,0:0:0:0:
383,149,187763,5,10,0:1:0:0:
383,149,187918,1,0,0:0:0:0:
457,88,188072,5,2,0:1:0:0:
366,62,188227,1,0,0:0:0:0:
274,74,188381,1,10,0:1:0:0:
197,117,188536,1,0,0:0:0:0:
174,209,188691,6,0,B|132:192|86:206|86:206|122:138|101:89|101:89|33:101|7:179,1,335.999989746094,4|0,0:3|0:0,0:0:0:0:
4,256,189928,6,0,P|0:300|-1:324,2,47.9999985351563,8|2|2,0:0|0:3|0:3,0:0:0:0:
91,337,190392,6,0,P|89:313|87:289,2,47.9999985351563,8|2|2,0:0|0:3|0:3,0:0:0:0:
174,312,190856,5,10,0:1:0:0:
