osu file format v14

[General]
AudioFilename: audio.mp3
AudioLeadIn: 0
PreviewTime: 49562
Countdown: 0
SampleSet: Soft
StackLeniency: 0.5
Mode: 0
LetterboxInBreaks: 0
WidescreenStoryboard: 0

[Editor]
DistanceSpacing: 1.1
BeatDivisor: 4
GridSize: 32
TimelineZoom: 3.699998

[Metadata]
Title:YOU AND I
TitleUnicode:YOU AND I
Artist:Dreamcatcher
ArtistUnicode:드림캐쳐
Creator:Yamakudzi
Version:tatemae's Insane
Source:
Tags:krock korean kpop k-pop 지유 수아 시연 한동 유현 다미 가현 ji-u su-a siyeon handong yoohyun dami Gahyeon Agatsu Cris- Haruto Haruto_Aizawa TheMefisto Akitoshi Corinn tatemae Anishina_Kodoku Loreley Hazu-
BeatmapID:1925323
BeatmapSetID:901170

[Difficulty]
HPDrainRate:6
CircleSize:4
OverallDifficulty:7.5
ApproachRate:9
SliderMultiplier:1.65
SliderTickRate:1

[Events]
//Background and Video events
0,0,"aFxoowCqHU.png",0,0
//Break Periods
//Storyboard Layer 0 (Background)
//Storyboard Layer 1 (Fail)
//Storyboard Layer 2 (Pass)
//Storyboard Layer 3 (Foreground)
//Storyboard Layer 4 (Overlay)
//Storyboard Sound Samples

[TimingPoints]
706,309.278350515464,4,2,1,40,1,0
706,-133.333333333333,4,2,1,40,0,0
3180,-200,4,2,1,40,0,0
5654,-133.333333333333,4,2,1,45,0,0
6891,-133.333333333333,4,2,1,55,0,0
7200,-133.333333333333,4,2,1,60,0,0
7510,-133.333333333333,4,2,1,65,0,0
7819,-133.333333333333,4,2,1,70,0,0
8128,-133.333333333333,4,2,1,75,0,0
8437,-133.333333333333,4,2,1,80,0,0
8747,-133.333333333333,4,2,1,85,0,0
9056,-133.333333333333,4,2,1,90,0,0
9365,-133.333333333333,4,2,1,95,0,0
9675,-133.333333333333,4,2,1,100,0,0
9984,-133.333333333333,4,2,1,5,0,0
10602,-500,4,2,1,60,0,0
16788,-250,4,2,1,60,0,0
17716,-133.333333333333,4,2,1,60,0,0
17948,-133.333333333333,4,2,1,5,0,0
18025,-100,4,2,1,60,0,0
18257,-100,4,2,1,5,0,0
18334,-500,4,2,1,60,0,0
19262,-250,4,2,1,60,0,0
20499,-133.333333333333,4,2,1,65,0,0
22974,-200,4,2,1,65,0,0
23901,-133.333333333333,4,2,1,65,0,0
30396,-500,4,2,1,45,0,0
31633,-133.333333333333,4,2,1,45,0,0
32870,-500,4,2,1,45,0,0
34108,-133.333333333333,4,2,1,45,0,0
35345,-200,4,2,1,45,0,0
36582,-133.333333333333,4,2,1,45,0,0
37819,-500,4,2,1,45,0,0
40293,-111.111111111111,4,2,1,70,0,0
45242,-111.111111111111,4,2,1,75,0,0
47716,-99.9999999999999,4,2,1,75,0,0
48025,-83.3333333333333,4,2,1,75,0,0
48334,-71.4285714285714,4,2,1,75,0,0
49417,-133.333333333333,4,2,1,75,0,0
49571,-71.4285714285714,4,2,1,80,0,0
50190,-90.9090909090909,4,2,1,80,0,1
59468,-90.9090909090909,4,2,1,80,0,0
60087,-90.9090909090909,4,2,1,80,0,1
69984,-100,4,2,1,80,0,0
77407,-166.666666666667,4,2,1,80,0,0
78616,309.278350515464,4,2,1,80,1,0
78616,-111.111111111111,4,2,1,80,0,0

[Colours]
Combo1 : 213,227,227
Combo2 : 174,187,172
Combo3 : 15,213,255
Combo4 : 176,180,120

[HitObjects]
56,102,706,6,0,L|258:69,2,185.625007081032,2|0|2,0:0|0:0|0:0,0:0:0:0:
56,102,1943,6,0,P|53:132|60:162,1,61.875002360344,0|0,0:0|0:0,0:0:0:0:
123,230,2252,2,0,P|148:247|177:256,1,61.875002360344,0|0,0:0|0:0,0:0:0:0:
56,102,2561,6,0,P|53:132|60:162,1,61.875002360344,0|0,0:0|0:0,0:0:0:0:
193,257,2870,2,0,P|221:244|242:222,1,61.875002360344,2|0,0:0|0:0,0:0:0:0:
251,125,3180,6,0,L|202:137,1,41.25,0|0,0:0|0:0,0:0:0:0:
394,93,3489,2,0,L|345:105,1,41.25,0|0,0:0|0:0,0:0:0:0:
251,125,3798,6,0,L|202:137,1,41.25,0|0,0:0|0:0,0:0:0:0:
472,73,4107,2,0,L|423:85,1,41.25,2|0,0:0|0:0,0:0:0:0:
347,180,4417,6,0,B|343:224|343:224|362:257,1,82.5,0|2,0:0|0:0,0:0:0:0:
433,300,5035,1,0,0:0:0:0:
433,300,5345,1,2,0:0:0:0:
312,348,5654,6,0,P|231:332|110:340,2,185.625007081032,2|2|2,0:0|0:0|0:0,0:0:0:0:
256,192,6891,12,0,9984,0:0:0:0:
113,349,10602,6,0,L|108:316,1,33,6|2,1:3|0:0,0:0:0:0:
69,213,11066,1,0,0:0:0:0:
21,271,11221,2,0,L|25:303,1,33,10|10,1:2|1:0,0:0:0:0:
430,303,11840,6,0,L|431:281,1,16.5,2|0,0:0|1:2,0:0:0:0:
403,200,12149,1,2,1:2:0:0:
339,275,12303,2,0,L|338:242,1,33,2|0,0:0|0:0,0:0:0:0:
463,133,12767,2,0,L|463:116,1,16.5,0|2,1:2|0:0,0:0:0:0:
387,21,13077,6,0,L|385:53,1,33,2|0,1:2|0:0,0:0:0:0:
333,117,13541,1,2,1:2:0:0:
280,63,13696,2,0,L|281:45,2,16.5,0|2|10,1:2|0:0|1:0,0:0:0:0:
38,103,14315,6,0,L|36:84,1,16.5,2|0,0:0|0:0,0:0:0:0:
124,137,14623,2,0,L|126:118,1,16.5,2|0,1:2|0:0,0:0:0:0:
144,38,14932,2,0,L|107:44,1,33,2|2,0:0|1:2,0:0:0:0:
52,324,15551,5,2,1:2:0:0:
131,364,15860,1,0,0:0:0:0:
131,364,16015,1,2,1:2:0:0:
207,336,16169,1,0,1:2:0:0:
207,336,16324,1,2,0:0:0:0:
337,359,16479,2,0,L|317:361,1,16.5,8|0,1:0|0:0,0:0:0:0:
283,285,16788,5,2,0:0:0:0:
283,285,16943,1,0,1:2:0:0:
283,285,17097,2,0,L|269:253,1,33,2|0,1:2|0:0,0:0:0:0:
360,264,17407,2,0,L|344:214,1,49.5,2|0,0:0|0:0,0:0:0:0:
288,146,17716,6,0,P|241:158|175:183,1,92.812503540516,2|0,1:2|0:0,0:0:0:0:
187,185,18025,6,0,P|246:169|327:136,1,123.75,2|0,1:2|0:0,0:0:0:0:
379,148,18334,6,0,L|400:143,2,16.5,0|2|2,0:0|1:2|1:2,0:0:0:0:
475,122,18953,2,0,L|473:105,1,16.5,10|0,1:0|0:0,0:0:0:0:
406,40,19262,5,2,0:0:0:0:
406,40,19417,1,0,1:2:0:0:
406,40,19571,2,0,L|371:32,1,33,2|0,1:2|0:0,0:0:0:0:
303,78,19881,2,0,L|235:69,1,66,2|2,3:0|1:2,0:0:0:0:
155,30,20345,5,0,3:0:0:0:
155,30,20422,1,0,3:0:0:0:
155,30,20499,2,0,P|114:76|100:159,1,123.750004720688,6|0,3:2|0:0,0:0:0:0:
158,224,20963,1,2,0:0:0:0:
78,124,21118,2,0,P|98:182|162:235,1,123.750004720688,10|2,1:0|1:2,0:0:0:0:
307,346,21582,1,0,0:0:0:0:
221,347,21736,6,0,P|213:288|266:267,2,123.750004720688,2|2|10,0:0|1:2|1:0,0:0:0:0:
307,346,22664,1,2,1:2:0:0:
379,87,22974,6,0,P|405:117|414:171,1,82.5,2|0,1:2|0:0,0:0:0:0:
364,236,23438,1,2,0:0:0:0:
434,163,23593,2,0,P|420:200|379:235,1,82.5,10|0,1:0|0:0,0:0:0:0:
206,151,24056,1,0,0:0:0:0:
276,197,24211,6,0,P|288:139|246:80,2,123.750004720688,2|2|10,0:0|1:2|1:0,0:0:0:0:
223,259,25139,1,2,1:2:0:0:
41,53,25448,5,2,1:2:0:0:
41,53,25757,1,0,0:0:0:0:
89,120,25912,1,2,0:0:0:0:
42,183,26066,2,0,P|19:159|13:122,1,61.875002360344,10|0,1:0|0:0,0:0:0:0:
133,266,26376,2,0,P|154:244|162:214,1,61.875002360344,2|0,1:2|0:0,0:0:0:0:
38,372,26685,6,0,P|5:320|7:259,2,123.750004720688,2|2|10,0:0|1:2|1:0,0:0:0:0:
38,372,27613,2,0,L|109:359,1,61.875002360344,2|0,1:2|0:0,0:0:0:0:
257,340,27922,5,2,1:2:0:0:
257,340,28231,2,0,L|328:327,1,61.875002360344,0|2,0:0|0:0,0:0:0:0:
479,307,28541,1,10,1:0:0:0:
479,307,28850,6,0,P|474:268|481:230,1,61.875002360344,2|0,1:2|0:0,0:0:0:0:
355,251,29159,2,0,P|376:218|406:193,1,61.875002360344,2|0,0:0|0:0,0:0:0:0:
461,305,29468,6,0,P|463:265|476:229,1,61.875002360344,2|0,1:2|0:0,0:0:0:0:
349,132,29778,2,0,P|386:121|467:162,1,123.750004720688,14|0,1:0|0:0,0:0:0:0:
459,153,30396,6,0,L|463:131,2,16.5,2|0|2,1:2|0:0|0:0,0:0:0:0:
484,44,31015,2,0,L|488:22,2,16.5,2|0|2,0:0|0:0|0:0,0:0:0:0:
400,103,31633,6,0,B|358:88|339:36|339:36|346:90|319:125,1,185.625007081032,2|0,0:0|0:0,0:0:0:0:
321,219,32252,2,0,P|305:130|235:72,1,185.625007081032,2|0,0:0|0:0,0:0:0:0:
53,153,32870,6,0,L|50:136,2,16.5,2|0|2,0:0|0:0|0:0,0:0:0:0:
28,44,33489,2,0,L|24:22,2,16.5,2|0|2,0:0|0:0|0:0,0:0:0:0:
117,89,34108,6,0,B|128:55|128:55|175:26|175:26|207:78|207:78|195:109,1,185.625007081032,2|0,0:0|0:0,0:0:0:0:
260,175,34726,2,0,B|190:192|190:192|154:180|154:180|80:199,1,185.625007081032,2|0,0:0|0:0,0:0:0:0:
3,213,35654,6,0,L|11:254,1,41.25,2|0,0:0|0:0,0:0:0:0:
80,198,35963,2,0,L|88:239,1,41.25,2|0,0:0|0:0,0:0:0:0:
179,352,36273,2,0,L|187:310,1,41.25,2|0,0:0|0:0,0:0:0:0:
256,367,36582,6,0,L|270:298,1,61.875002360344,2|0,0:0|0:0,0:0:0:0:
304,173,36891,2,0,L|318:104,1,61.875002360344,2|0,0:0|0:0,0:0:0:0:
208,59,37200,6,0,L|220:119,1,61.875002360344,2|0,0:0|0:0,0:0:0:0:
256,245,37509,2,0,L|268:305,1,61.875002360344,2|0,0:0|0:0,0:0:0:0:
404,348,37819,6,0,P|426:341|400:334,1,66,2|0,0:0|0:0,0:0:0:0:
268,305,38747,1,2,0:0:0:0:
404,348,39056,6,0,P|426:341|400:334,1,66,2|0,0:0|0:0,0:0:0:0:
101,244,40293,6,0,P|66:235|30:240,2,74.2499977340699,4|0|2,0:3|0:0|0:0,0:0:0:0:
62,316,40757,1,0,1:2:0:0:
188,238,40912,6,0,P|214:212|227:177,2,74.2499977340699,0|0|2,1:2|0:0|1:2,0:0:0:0:
146,167,41376,1,0,0:0:0:0:
254,357,41530,5,2,1:2:0:0:
177,333,41685,2,0,P|223:277|298:281,1,148.49999546814,2|0,1:2|0:0,0:0:0:0:
296,281,42071,1,0,0:0:0:0:
305,290,42149,2,0,P|233:292|187:236,1,148.49999546814,10|2,1:2|1:2,0:0:0:0:
213,155,42613,1,0,0:0:0:0:
396,123,42767,6,0,P|400:87|390:52,2,74.2499977340699,6|0|2,0:3|0:0|0:0,0:0:0:0:
319,94,43231,1,0,1:2:0:0:
414,208,43386,6,0,P|443:230|479:238,2,74.2499977340699,2|0|2,1:2|0:0|1:2,0:0:0:0:
478,156,43850,1,0,0:0:0:0:
305,290,44004,5,2,1:2:0:0:
318,210,44159,2,0,P|379:247|386:322,1,148.49999546814,2|0,1:2|0:0,0:0:0:0:
382,325,44545,1,0,0:0:0:0:
378,331,44623,2,0,P|365:259|415:206,1,148.49999546814,10|2,1:2|0:0,0:0:0:0:
499,221,45087,1,0,1:2:0:0:
348,133,45242,6,0,L|481:109,1,111.374996601105,2|0,1:2|0:0,0:0:0:0:
460,104,45551,2,0,L|375:119,1,74.2499977340699,2|0,1:2|1:2,0:0:0:0:
260,141,45860,2,0,L|175:156,1,74.2499977340699,2|0,1:2|1:2,0:0:0:0:
4,185,46169,2,0,L|78:173,1,74.2499977340699,2|0,1:2|0:0,0:0:0:0:
149,246,46479,5,2,1:2:0:0:
149,246,46633,1,0,1:2:0:0:
78,328,46788,5,2,1:2:0:0:
78,328,46943,1,2,1:2:0:0:
78,328,47097,2,0,P|59:283|56:246,1,74.2499977340699,2|0,1:2|0:0,0:0:0:0:
223,362,47407,2,0,P|243:317|246:280,1,74.2499977340699,2|0,1:2|0:0,0:0:0:0:
233,210,47716,6,0,L|248:308,1,82.5,2|0,1:2|1:2,0:0:0:0:
220,187,48025,6,0,L|267:273,1,98.9999969787599,2|0,1:2|1:2,0:0:0:0:
206,170,48334,6,0,L|295:248,1,115.49999647522,2|0,1:2|1:2,0:0:0:0:
361,298,48644,1,2,1:2:0:0:
416,158,48798,1,2,1:2:0:0:
474,347,48953,5,2,3:2:0:0:
474,347,49417,2,0,L|477:317,2,30.937501180172,2|0|6,1:2|1:2|0:1,0:0:0:0:
95,19,50190,6,0,P|67:99|137:148,1,181.500005538941,6|8,0:0|0:0,0:0:0:0:
208,85,50654,2,0,P|155:161|127:246,1,181.500005538941,2|0,0:0|1:2,0:0:0:0:
176,311,51118,2,0,P|214:280|195:225,1,90.7500027694703,10|0,0:0|0:0,0:0:0:0:
4,279,51427,6,0,P|89:272|185:318,1,181.500005538941,2|8,1:2|0:0,0:0:0:0:
342,335,51891,1,2,1:2:0:0:
406,278,52046,2,0,P|353:263|310:258,1,90.7500027694703,2|0,0:0|1:2,0:0:0:0:
346,179,52355,2,0,P|391:185|435:199,1,90.7500027694703,10|0,0:0|0:0,0:0:0:0:
495,301,52664,6,0,P|480:211|485:121,1,181.500005538941,2|8,1:2|0:0,0:0:0:0:
285,66,53128,2,0,B|332:12|407:29|407:29|376:31|365:46,1,181.500005538941,2|0,1:2|1:2,0:0:0:0:
408,117,53592,2,0,P|366:74|369:31,1,90.7500027694703,10|0,0:0|0:0,0:0:0:0:
483,40,53901,6,0,P|450:124|430:213,1,181.500005538941,2|10,1:2|0:0,0:0:0:0:
351,217,54365,1,0,0:0:0:0:
319,287,54520,2,0,B|410:324|396:226|499:270,1,181.500005538941,2|10,1:2|0:0,0:0:0:0:
81,360,55138,6,0,P|53:279|93:187,1,181.500005538941,2|8,1:2|0:0,0:0:0:0:
72,117,55602,2,0,B|117:108|146:69|146:69|137:117|158:158,1,181.500005538941,2|0,0:0|1:2,0:0:0:0:
313,98,56066,2,0,P|269:85|226:96,1,90.7500027694703,10|0,0:0|0:0,0:0:0:0:
31,37,56375,6,0,P|109:80|157:156,1,181.500005538941,2|8,1:2|0:0,0:0:0:0:
123,294,56839,1,2,1:2:0:0:
71,358,56994,2,0,P|49:318|46:273,1,90.7500027694703,2|0,0:0|1:2,0:0:0:0:
202,274,57303,2,0,P|199:318|177:358,1,90.7500027694703,10|0,0:0|0:0,0:0:0:0:
71,358,57612,6,0,P|155:325|245:311,1,181.500005538941,2|8,1:2|0:0,0:0:0:0:
430,344,58076,2,0,B|409:275|326:261|326:261|336:325,1,181.500005538941,2|0,1:2|1:2,0:0:0:0:
233,221,58540,2,0,L|245:311,1,90.7500027694703,10|0,0:0|0:0,0:0:0:0:
341,376,58849,6,0,L|357:196,1,181.500005538941,2|10,1:2|0:0,0:0:0:0:
294,111,59313,1,0,1:2:0:0:
290,109,59391,1,0,1:2:0:0:
286,107,59468,1,2,1:2:0:0:
417,57,59623,1,0,1:2:0:0:
199,21,59778,1,10,0:0:0:0:
199,21,60087,6,0,P|179:98|213:223,1,181.500005538941,6|8,0:0|0:0,0:0:0:0:
279,212,60551,2,0,B|265:240|265:240|143:230|143:230|116:272,1,181.500005538941,2|0,0:0|1:2,0:0:0:0:
161,327,61015,2,0,B|116:340|116:340|79:315,1,90.7500027694703,10|0,0:0|0:0,0:0:0:0:
45,197,61324,6,0,P|116:243|163:340,1,181.500005538941,2|8,1:2|0:0,0:0:0:0:
338,356,61788,1,2,1:2:0:0:
263,351,61943,2,0,P|282:299|327:285,1,90.7500027694703,2|0,0:0|1:2,0:0:0:0:
278,211,62252,2,0,P|321:200|360:222,1,90.7500027694703,10|0,0:0|0:0,0:0:0:0:
431,340,62561,6,0,P|396:271|421:158,1,181.500005538941,2|8,1:2|0:0,0:0:0:0:
396,95,63025,2,0,P|474:75|491:158,1,181.500005538941,2|0,1:2|1:2,0:0:0:0:
412,171,63489,2,0,P|356:163|326:129,1,90.7500027694703,10|0,0:0|0:0,0:0:0:0:
268,72,63798,6,0,P|278:139|277:207,1,136.125004154205,2|0,1:2|0:0,0:0:0:0:
270,217,64108,1,10,0:0:0:0:
203,148,64262,1,0,1:2:0:0:
186,298,64417,2,0,L|83:285,1,90.7500027694703,2|2,0:0|1:2,0:0:0:0:
353,319,64726,2,0,L|250:306,1,90.7500027694703,10|0,0:0|0:0,0:0:0:0:
65,362,65035,6,0,P|58:294|27:168,1,181.500005538941,2|8,1:2|0:0,0:0:0:0:
32,183,65654,1,2,1:2:0:0:
131,170,65809,1,0,1:2:0:0:
120,71,65963,1,8,0:0:0:0:
21,84,66118,1,2,0:0:0:0:
198,113,66273,6,0,P|253:123|310:246,2,181.500005538941,2|8|2,1:2|0:0|0:0,0:0:0:0:
256,15,67046,1,0,1:2:0:0:
344,41,67200,2,0,P|314:75|299:117,1,90.7500027694703,14|0,0:0|0:0,0:0:0:0:
351,313,67510,6,0,P|360:245|397:108,1,181.500005538941,14|0,0:0|1:2,0:0:0:0:
438,73,67974,1,14,0:0:0:0:
477,149,68128,1,0,1:2:0:0:
477,149,68283,1,0,1:2:0:0:
334,69,68437,5,14,0:0:0:0:
295,145,68591,1,0,1:2:0:0:
438,73,68747,5,14,0:0:0:0:
384,221,68901,1,0,1:2:0:0:
385,7,69056,1,10,0:3:0:0:
295,145,69211,2,0,L|204:138,1,90.7500027694703,8|0,0:3|0:0,0:0:0:0:
153,18,69520,1,6,0:0:0:0:
75,31,69675,2,0,B|59:72|59:72|72:116,1,90.7500027694703,8|2,0:0|1:2,0:0:0:0:
186,242,69984,6,0,B|131:239|131:239|94:199|94:199|38:197,2,165,6|10|2,0:0|0:0|0:0,0:0:0:0:
257,342,70757,1,0,1:2:0:0:
176,336,70912,2,0,L|80:332,1,82.5,8|2,0:0|0:0,0:0:0:0:
172,162,71221,6,0,B|266:156|240:210|351:197,1,165,2|10,1:2|0:0,0:0:0:0:
309,120,71685,1,0,1:2:0:0:
394,245,71840,2,0,P|404:203|392:150,1,82.5,2|0,0:0|1:2,0:0:0:0:
253,200,72149,2,0,P|247:240|257:280,1,82.5,8|2,0:0|0:0,0:0:0:0:
309,120,72458,6,0,L|305:33,1,82.5,2|0,1:2|0:0,0:0:0:0:
199,37,72767,1,10,0:0:0:0:
199,37,72922,1,0,1:2:0:0:
78,152,73077,1,2,0:0:0:0:
67,73,73231,2,0,B|127:79|127:79|153:116|153:116|217:123,1,165,0|0,1:2|0:0,0:0:0:0:
309,120,73695,5,2,1:2:0:0:
309,120,73850,1,0,1:2:0:0:
254,186,74004,5,10,0:0:0:0:
305,37,74159,1,2,1:2:0:0:
351,231,74314,5,0,1:2:0:0:
309,120,74468,1,2,1:2:0:0:
276,266,74623,2,0,P|235:270|197:256,1,82.5,14|0,0:0|1:2,0:0:0:0:
419,313,74932,6,0,P|436:232|415:154,2,165,6|10|2,0:0|0:0|0:0,0:0:0:0:
302,358,75706,1,0,1:2:0:0:
221,352,75861,2,0,L|125:348,1,82.5,8|2,0:0|0:0,0:0:0:0:
52,234,76170,6,0,B|146:228|120:282|231:269,1,165,2|10,1:2|0:0,0:0:0:0:
335,236,76634,1,0,1:2:0:0:
264,202,76789,2,0,P|222:189|169:199,1,82.5,2|0,0:0|1:2,0:0:0:0:
40,118,77097,2,0,P|81:130|134:120,1,82.5,10|0,0:0|0:0,0:0:0:0:
227,67,77407,6,0,B|208:353|208:353|211:322|237:278,1,358.874989048004,6|0,0:0|0:0,0:0:0:0:
242,285,78616,5,14,0:0:0:0:
360,335,78770,2,0,L|265:356,1,74.2499977340699,0|0,1:2|1:2,0:0:0:0:
346,217,79080,5,14,0:0:0:0:
370,344,79234,2,0,L|304:272,1,74.2499977340699,0|0,1:2|1:2,0:0:0:0:
427,215,79543,6,0,L|376:375,1,148.49999546814,14|0,3:2|0:0,0:0:0:0:
