osu file format v14

[General]
AudioFilename: audio.mp3
AudioLeadIn: 0
PreviewTime: 49562
Countdown: 0
SampleSet: Soft
StackLeniency: 0.3
Mode: 0
LetterboxInBreaks: 0
WidescreenStoryboard: 0

[Editor]
DistanceSpacing: 0.9
BeatDivisor: 4
GridSize: 4
TimelineZoom: 3.099999

[Metadata]
Title:YOU AND I
TitleUnicode:YOU AND I
Artist:Dreamcatcher
ArtistUnicode:드림캐쳐
Creator:Yamakudzi
Version:Cris' Normal
Source:
Tags:krock korean kpop k-pop 지유 수아 시연 한동 유현 다미 가현 ji-u su-a siyeon handong yoohyun dami Gahyeon Agatsu Cris- Haruto Haruto_Aizawa TheMefisto Akitoshi Corinn tatemae Anishina_Kodoku Loreley Hazu-
BeatmapID:1951649
BeatmapSetID:901170

[Difficulty]
HPDrainRate:4
CircleSize:3.5
OverallDifficulty:4.5
ApproachRate:5
SliderMultiplier:1.1
SliderTickRate:1

[Events]
//Background and Video events
0,0,"aFxoowCqHU.png",0,0
//Break Periods
2,30596,39093
//Storyboard Layer 0 (Background)
//Storyboard Layer 1 (Fail)
//Storyboard Layer 2 (Pass)
//Storyboard Layer 3 (Foreground)
//Storyboard Layer 4 (Overlay)
//Storyboard Sound Samples

[TimingPoints]
706,309.278350515464,4,2,1,40,1,0
706,-100,4,2,1,40,0,0
5654,-100,4,2,1,45,0,0
6891,-100,4,2,1,55,0,0
7200,-100,4,2,1,60,0,0
7510,-100,4,2,1,65,0,0
7819,-100,4,2,1,70,0,0
8128,-100,4,2,1,75,0,0
8437,-100,4,2,1,80,0,0
8747,-100,4,2,1,85,0,0
9056,-100,4,2,1,90,0,0
9365,-100,4,2,1,95,0,0
9675,-100,4,2,1,100,0,0
9984,-100,4,2,1,5,0,0
10602,-100,4,2,1,60,0,0
20499,-100,4,2,1,65,0,0
30396,-100,4,2,1,45,0,0
40293,-100,4,2,1,70,0,0
45242,-100,4,2,1,75,0,0
49571,-100,4,2,1,80,0,0
50190,-100,4,2,1,80,0,1
59468,-100,4,2,1,80,0,0
60087,-100,4,2,1,80,0,1
67200,-100,4,2,1,80,0,0
67510,-100,4,2,1,80,0,1
67664,-100,4,2,1,80,0,0
67974,-100,4,2,1,80,0,1
68128,-100,4,2,1,80,0,0
68437,-100,4,2,1,80,0,1
68592,-100,4,2,1,80,0,0
68747,-100,4,2,1,80,0,1
68901,-100,4,2,1,80,0,0
69984,-100,4,2,1,80,0,1
74314,-100,4,2,1,80,0,0
74932,-100,4,2,1,80,0,1
77407,-97.0873786407767,4,2,1,80,0,0
78616,309.278350515464,4,2,1,80,1,1
78616,-100,4,2,1,80,0,1
79543,-100,4,2,1,80,0,0
79853,-100,4,2,1,80,0,0

[Colours]
Combo1 : 190,193,145
Combo2 : 156,173,154
Combo3 : 238,193,173
Combo4 : 166,198,198

[HitObjects]
256,192,6891,12,0,9984,0:0:0:0:
120,152,10602,6,0,P|172:168|224:152,1,110,6|2,1:3|0:0,0:0:0:0:
268,132,11066,1,0,0:0:0:0:
312,108,11221,2,0,P|364:92|416:108,1,110,2|10,1:2|1:0,0:0:0:0:
504,156,11840,2,0,L|511:101,2,55,2|0|2,0:0|1:2|1:2,0:0:0:0:
496,204,12303,2,0,L|480:312,1,110,2|0,0:0|0:0,0:0:0:0:
472,360,12767,1,0,1:2:0:0:
384,316,13077,6,0,P|332:300|280:316,1,110,2|0,1:2|0:0,0:0:0:0:
236,336,13541,1,2,1:2:0:0:
192,360,13695,2,0,P|140:376|88:360,1,110,0|10,1:2|1:0,0:0:0:0:
16,292,14314,2,0,L|24:236,1,55,2|0,0:0|1:2,0:0:0:0:
32,188,14623,1,2,1:2:0:0:
88,104,14932,2,0,P|139:88|191:104,1,110,2|2,0:0|1:2,0:0:0:0:
248,188,15551,6,0,L|356:172,1,110,2|0,1:2|0:0,0:0:0:0:
404,164,16015,1,2,1:2:0:0:
452,156,16169,2,0,P|467:207|451:259,1,110,0|10,1:2|1:0,0:0:0:0:
404,348,16788,2,0,L|348:356,1,55,2|0,0:0|1:2,0:0:0:0:
300,364,17097,2,0,L|244:356,1,55,2|0,1:2|0:0,0:0:0:0:
196,348,17407,2,0,P|180:296|196:244,1,110,2|2,0:0|1:2,0:0:0:0:
244,156,18025,6,0,P|259:104|243:52,1,110,2|0,1:2|0:0,0:0:0:0:
200,28,18489,1,2,1:2:0:0:
156,52,18644,2,0,P|140:103|156:155,1,110,2|10,1:2|1:0,0:0:0:0:
196,244,19262,2,0,L|250:251,1,55,2|0,0:0|1:2,0:0:0:0:
300,260,19571,2,0,L|354:252,1,55,2|0,1:2|0:0,0:0:0:0:
404,244,19881,2,0,P|419:192|403:140,1,110,2|2,3:0|1:2,0:0:0:0:
340,64,20499,6,0,L|232:80,1,110,6|0,3:2|0:0,0:0:0:0:
184,88,20963,1,2,0:0:0:0:
136,96,21118,2,0,P|121:148|137:200,1,110,10|2,1:0|1:2,0:0:0:0:
196,280,21736,2,0,L|250:272,1,55,2|0,0:0|1:2,0:0:0:0:
300,264,22046,2,0,L|408:280,1,110,2|10,1:2|1:0,0:0:0:0:
472,204,22664,1,2,1:2:0:0:
432,112,22974,6,0,L|324:96,1,110,2|0,1:2|0:0,0:0:0:0:
276,88,23437,1,2,0:0:0:0:
228,96,23592,2,0,L|120:112,1,110,10|2,1:0|1:2,0:0:0:0:
48,184,24211,2,0,L|55:238,1,55,2|0,0:0|1:2,0:0:0:0:
64,288,24520,2,0,B|116:308|116:308|166:288,1,110,2|10,1:2|1:0,0:0:0:0:
232,212,25138,1,2,1:2:0:0:
296,288,25448,6,0,B|348:308|348:308|398:288,1,110,2|0,1:2|0:0,0:0:0:0:
444,268,25912,1,2,0:0:0:0:
488,244,26066,2,0,P|503:192|487:140,1,110,10|2,1:0|1:2,0:0:0:0:
424,64,26685,2,0,L|370:72,1,55,2|2,0:0|1:2,0:0:0:0:
320,80,26994,2,0,L|212:64,1,110,2|10,1:2|1:0,0:0:0:0:
136,0,27613,1,2,1:2:0:0:
60,64,27922,6,0,P|45:116|61:168,1,110,2|0,1:2|0:0,0:0:0:0:
88,212,28386,1,2,0:0:0:0:
112,256,28541,2,0,P|127:308|111:360,1,110,10|2,1:0|1:2,0:0:0:0:
12,360,29159,2,0,P|-3:308|13:256,1,110,2|2,0:0|1:2,0:0:0:0:
61,168,29778,2,0,P|113:153|165:169,1,110,14|0,1:0|0:0,0:0:0:0:
216,256,30396,5,2,1:2:0:0:
212,296,40293,6,0,B|292:332|292:260|370:296,2,165,4|0|2,0:3|1:2|1:2,0:0:0:0:
132,236,41530,2,0,L|139:182,1,55,2|2,1:2|1:2,0:0:0:0:
148,132,41840,1,0,0:0:0:0:
212,56,42149,2,0,P|264:41|316:57,1,110,10|2,1:2|1:2,0:0:0:0:
380,132,42767,6,0,B|416:212|344:212|380:290,2,165,6|0|2,0:3|1:2|1:2,0:0:0:0:
316,57,44004,2,0,L|262:64,1,55,2|2,1:2|1:2,0:0:0:0:
212,73,44314,1,0,0:0:0:0:
131,132,44623,2,0,P|116:184|132:236,1,110,10|2,1:2|0:0,0:0:0:0:
212,296,45242,6,0,P|264:312|316:296,1,110,2|2,1:2|1:2,0:0:0:0:
360,276,45706,1,0,1:2:0:0:
404,252,45860,2,0,P|420:200|404:148,1,110,2|2,1:2|1:2,0:0:0:0:
348,68,46479,2,0,L|294:75,1,55,2|0,1:2|1:2,0:0:0:0:
244,84,46788,2,0,L|190:76,1,55,2|2,1:2|1:2,0:0:0:0:
140,68,47097,2,0,L|124:176,1,110,2|2,1:2|1:2,0:0:0:0:
108,276,47716,6,0,L|54:269,2,55,2|0|2,1:2|1:2|1:2,0:0:0:0:
156,284,48180,1,0,1:2:0:0:
204,292,48334,2,0,L|258:299,1,55,2|0,1:2|1:2,0:0:0:0:
308,308,48644,2,0,L|315:254,1,55,2|2,1:2|1:2,0:0:0:0:
324,204,48953,1,2,3:2:0:0:
472,220,49417,2,0,L|465:274,1,55,2|6,1:2|0:1,0:0:0:0:
412,84,50190,6,0,P|360:69|308:85,1,110,6|8,0:0|0:0,0:0:0:0:
264,108,50654,2,0,P|212:123|160:107,1,110,2|0,0:0|1:2,0:0:0:0:
116,84,51118,1,10,0:0:0:0:
36,144,51427,2,0,L|52:252,1,110,2|8,1:2|0:0,0:0:0:0:
60,300,51891,1,2,1:2:0:0:
68,348,52046,2,0,L|122:341,1,55,2|0,0:0|1:2,0:0:0:0:
172,332,52355,1,10,0:0:0:0:
268,316,52664,6,0,B|288:264|288:264|268:214,1,110,2|8,1:2|0:0,0:0:0:0:
244,168,53128,2,0,B|224:116|224:116|244:66,1,110,2|0,1:2|1:2,0:0:0:0:
268,20,53592,1,10,0:0:0:0:
356,68,53901,2,0,L|349:122,2,55,2|0|10,1:2|1:2|0:0,0:0:0:0:
396,36,54365,1,0,0:0:0:0:
436,68,54520,2,0,L|443:122,1,55,2|0,1:2|1:2,0:0:0:0:
452,172,54829,1,10,0:0:0:0:
468,268,55138,6,0,P|416:283|364:267,1,110,2|8,1:2|0:0,0:0:0:0:
320,244,55602,1,2,0:0:0:0:
276,220,55757,2,0,L|222:227,1,55,0|0,1:2|1:2,0:0:0:0:
172,236,56066,1,10,0:0:0:0:
88,288,56376,2,0,P|73:236|89:184,1,110,2|8,1:2|0:0,0:0:0:0:
112,140,56840,1,2,1:2:0:0:
136,96,56994,2,0,L|129:42,2,55,2|0|10,0:0|1:2|0:0,0:0:0:0:
224,140,57613,6,0,L|332:124,1,110,2|8,1:2|0:0,0:0:0:0:
384,116,58077,2,0,L|400:224,1,110,2|0,1:2|1:2,0:0:0:0:
408,272,58541,1,10,0:0:0:0:
324,324,58850,2,0,L|331:378,2,55,2|0|10,1:2|1:2|0:0,0:0:0:0:
315,274,59314,1,0,1:2:0:0:
307,226,59468,2,0,L|253:233,1,55,2|0,1:2|1:2,0:0:0:0:
203,238,59778,1,10,0:0:0:0:
116,288,60087,6,0,P|101:236|117:184,1,110,6|8,0:0|0:0,0:0:0:0:
140,140,60551,2,0,L|248:124,1,110,2|0,0:0|1:2,0:0:0:0:
296,116,61015,1,10,0:0:0:0:
280,20,61324,2,0,L|172:36,1,110,2|8,1:2|0:0,0:0:0:0:
124,44,61788,1,2,1:2:0:0:
76,52,61943,2,0,L|83:106,1,55,2|0,0:0|1:2,0:0:0:0:
92,156,62252,1,10,0:0:0:0:
108,252,62561,6,0,L|216:236,1,110,2|8,1:2|0:0,0:0:0:0:
264,228,63025,2,0,L|372:244,1,110,2|0,1:2|1:2,0:0:0:0:
420,252,63489,1,10,0:0:0:0:
436,156,63798,2,0,L|490:163,2,55,2|0|10,1:2|1:2|0:0,0:0:0:0:
388,148,64262,1,0,1:2:0:0:
340,140,64417,2,0,L|286:133,1,55,2|2,0:0|1:2,0:0:0:0:
236,124,64726,1,10,0:0:0:0:
152,72,65035,6,0,P|137:124|153:176,1,110,2|8,1:2|0:0,0:0:0:0:
176,220,65499,1,0,0:0:0:0:
200,264,65654,2,0,L|193:318,1,55,2|0,1:2|1:2,0:0:0:0:
184,368,65963,1,8,0:0:0:0:
284,380,66273,2,0,L|300:272,1,110,2|8,1:2|0:0,0:0:0:0:
308,224,66736,1,2,1:2:0:0:
316,176,66891,2,0,L|370:183,2,55,2|0|14,0:0|1:2|0:0,0:0:0:0:
220,160,67510,6,0,L|213:214,2,55,14|0|0,0:0|1:2|1:2,0:0:0:0:
228,112,67974,1,14,0:0:0:0:
236,64,68128,2,0,L|182:57,1,55,0|0,1:2|1:2,0:0:0:0:
132,48,68437,2,0,L|78:55,1,55,14|0,0:0|1:2,0:0:0:0:
28,64,68747,1,14,0:0:0:0:
40,164,69056,2,0,L|94:157,1,55,10|8,0:3|0:3,0:0:0:0:
108,256,69520,2,0,L|54:263,1,55,6|8,0:0|0:0,0:0:0:0:
60,312,69829,1,2,1:2:0:0:
68,360,69984,6,0,L|176:344,1,110,6|10,0:0|0:0,0:0:0:0:
252,276,70602,2,0,L|306:269,1,55,2|0,0:0|1:2,0:0:0:0:
356,260,70912,1,8,0:0:0:0:
440,312,71221,2,0,P|455:260|439:208,1,110,2|10,1:2|0:0,0:0:0:0:
416,164,71685,1,0,1:2:0:0:
392,120,71840,2,0,L|399:66,2,55,2|0|8,0:0|1:2|0:0,0:0:0:0:
304,164,72458,6,0,L|196:148,1,110,2|10,1:2|0:0,0:0:0:0:
96,132,73077,2,0,L|89:186,1,55,2|0,0:0|1:2,0:0:0:0:
80,236,73386,1,10,0:0:0:0:
64,332,73695,2,0,L|118:339,1,55,2|0,1:2|1:2,0:0:0:0:
168,348,74004,2,0,L|222:341,1,55,10|2,0:0|1:2,0:0:0:0:
272,336,74314,2,0,L|326:343,1,55,0|2,1:2|1:2,0:0:0:0:
376,352,74623,1,14,0:0:0:0:
452,288,74932,6,0,P|467:236|451:184,1,110,6|10,0:0|0:0,0:0:0:0:
376,116,75551,2,0,L|322:123,1,55,2|0,0:0|1:2,0:0:0:0:
272,132,75860,1,8,0:0:0:0:
260,32,76169,2,0,L|368:16,1,110,2|10,1:2|0:0,0:0:0:0:
416,8,76633,1,0,1:2:0:0:
464,0,76788,2,0,L|471:54,1,55,2|0,0:0|1:2,0:0:0:0:
480,104,77097,1,10,0:0:0:0:
488,204,77407,6,0,B|444:224|404:204|404:204|428:236|416:292|392:320|316:320|288:292|280:236|304:204|304:204|259:218|216:204,1,443,6|14,0:0|0:0,0:0:0:0:
172,188,78770,5,0,1:2:0:0:
124,172,78925,2,0,L|131:118,1,55,0|14,1:2|0:0,0:0:0:0:
140,68,79234,2,0,L|194:75,1,55,0|0,1:2|1:2,0:0:0:0:
244,84,79543,2,0,P|296:99|348:83,1,110,14|0,3:2|0:0,0:0:0:0:
