osu file format v14

[General]
AudioFilename: audio.mp3
AudioLeadIn: 0
PreviewTime: 49612
Countdown: 0
SampleSet: Soft
StackLeniency: 0.7
Mode: 3
LetterboxInBreaks: 0
SpecialStyle: 0
WidescreenStoryboard: 1

[Editor]
DistanceSpacing: 0.8
BeatDivisor: 4
GridSize: 32
TimelineZoom: 1.599999

[Metadata]
Title:YOU AND I
TitleUnicode:YOU AND I
Artist:Dreamcatcher
ArtistUnicode:드림캐쳐
Creator:Gahyeonln
Version:_RK's Hard
Source:
Tags:second 2nd mini album 유앤아이 악몽·Escape the ERA 드캐 deukae 유현 yoohyeon 가현 gahyeon 수아 sua 지우 jiu 다미 dami 한동 handong 시연 siyeon k-pop kpop pop korean leez Ollounder Rio1- _Rokii famoss
BeatmapID:3403832
BeatmapSetID:1667016

[Difficulty]
HPDrainRate:7.5
CircleSize:4
OverallDifficulty:7.5
ApproachRate:5
SliderMultiplier:1.4
SliderTickRate:1

[Events]
//Background and Video events
Video,74,"you and i 720p.mp4"
0,0,"YOU AND I BG.png",0,0
//Break Periods
//Storyboard Layer 0 (Background)
//Storyboard Layer 1 (Fail)
//Storyboard Layer 2 (Pass)
//Storyboard Layer 3 (Foreground)
//Storyboard Layer 4 (Overlay)
//Storyboard Sound Samples

[TimingPoints]
10006,309.278350515464,4,2,1,70,1,0
49593,-100,4,2,1,70,0,1
69387,-100,4,2,1,70,0,0
118871,-100,4,2,1,70,0,1
138665,-100,4,2,1,70,0,0
172067,-100,4,2,1,70,0,1
188150,-100,4,2,1,70,0,0

[HitObjects]
64,192,10006,5,2,0:0:0:0:
320,192,10006,1,0,0:0:0:0:
448,192,10006,1,0,0:0:0:0:
192,192,10315,128,0,10469:0:0:0:0:
320,192,10469,1,2,0:0:0:0:
448,192,10469,1,0,0:0:0:0:
320,192,10624,128,2,10779:0:0:0:0:
192,192,10933,1,2,0:0:0:0:
448,192,10933,128,0,11088:0:0:0:70:clap07.wav
64,192,11243,128,0,11397:0:0:0:0:
192,192,11397,1,2,0:0:0:0:
320,192,11397,1,0,0:0:0:0:
320,192,11552,128,2,11707:0:0:0:0:
448,192,11707,128,0,12016:0:0:0:0:
192,192,12170,1,2,0:0:0:0:
448,192,12170,1,0,0:0:0:0:
320,192,12325,128,0,12480:0:0:0:0:
64,192,12480,128,2,12634:0:0:0:0:
192,192,12480,1,0,0:0:0:0:
320,192,12789,1,0,0:0:0:0:
64,192,12944,1,2,0:0:0:0:
448,192,12944,128,0,13098:0:0:0:0:
64,192,13098,1,2,0:0:0:0:
192,192,13253,128,0,13408:0:0:0:0:
320,192,13408,1,2,0:0:0:0:
448,192,13408,128,0,13562:0:0:0:70:clap07.wav
320,192,13717,128,0,13871:0:0:0:0:
64,192,13871,1,2,0:0:0:0:
192,192,13871,1,0,0:0:0:0:
64,192,14026,128,2,14181:0:0:0:0:
192,192,14335,128,0,14490:0:0:0:0:
320,192,14645,128,2,14954:0:0:0:0:
448,192,14645,1,0,0:0:0:0:
64,192,14954,1,2,0:0:0:0:
192,192,14954,1,0,0:0:0:0:
448,192,15263,1,0,0:0:0:0:
64,192,15418,1,2,0:0:0:0:
192,192,15418,1,0,0:0:0:0:
64,192,15573,1,2,0:0:0:0:
320,192,15727,128,0,15882:0:0:0:0:
192,192,15882,1,2,0:0:0:0:
448,192,15882,128,0,16036:0:0:0:70:clap07.wav
64,192,16036,128,0,16191:0:0:0:0:
320,192,16191,128,0,16346:0:0:0:0:
192,192,16346,128,2,16500:0:0:0:0:
448,192,16346,1,0,0:0:0:0:
448,192,16500,128,2,16655:0:0:0:0:
64,192,16655,128,0,16810:0:0:0:0:
320,192,16810,128,0,17119:0:0:0:0:
192,192,17119,1,2,0:0:0:0:
448,192,17119,1,0,0:0:0:0:
64,192,17428,1,2,0:0:0:0:
320,192,17428,1,0,0:0:0:0:
192,192,17892,1,2,0:0:0:0:
448,192,17892,1,0,0:0:0:0:
448,192,18047,1,2,0:0:0:0:
64,192,18201,128,0,18356:0:0:0:0:
192,192,18356,1,2,0:0:0:0:
320,192,18356,128,0,18511:0:0:0:70:clap07.wav
448,192,18511,128,0,18665:0:0:0:0:
192,192,18665,128,0,18820:0:0:0:0:
64,192,18820,1,2,0:0:0:0:
320,192,18820,128,0,18975:0:0:0:0:
64,192,18975,128,2,19129:0:0:0:0:
192,192,19129,128,0,19284:0:0:0:0:
320,192,19284,128,0,19593:0:0:0:0:
192,192,19593,1,2,0:0:0:0:
448,192,19593,1,0,0:0:0:0:
64,192,19902,128,2,20057:0:0:0:0:
320,192,19902,1,0,0:0:0:0:
448,192,20057,128,0,20212:0:0:0:0:
64,192,20366,128,2,20521:0:0:0:0:
192,192,20366,1,0,0:0:0:0:
320,192,20521,1,2,0:0:0:0:
448,192,20521,128,0,20676:0:0:0:70:clap07.wav
64,192,20830,128,2,20985:0:0:0:0:
192,192,20830,1,0,0:0:0:0:
320,192,20985,128,0,21140:0:0:0:0:
448,192,21140,128,0,21294:0:0:0:0:
64,192,21294,1,2,0:0:0:0:
192,192,21294,1,0,0:0:0:0:
192,192,21449,128,2,21603:0:0:0:0:
64,192,21758,128,0,22067:0:0:0:70:clap07.wav
320,192,21758,1,0,0:0:0:0:
192,192,22067,1,2,0:0:0:0:
448,192,22067,1,0,0:0:0:0:
320,192,22377,128,2,22531:0:0:0:0:
448,192,22377,1,0,0:0:0:0:
64,192,22531,128,0,22686:0:0:0:0:
192,192,22686,1,0,0:0:0:0:
320,192,22841,1,2,0:0:0:0:
448,192,22841,128,0,22995:0:0:0:0:
64,192,22995,1,2,0:0:0:0:
192,192,22995,128,0,23150:0:0:0:70:clap07.wav
320,192,23304,1,2,0:0:0:0:
448,192,23304,1,0,0:0:0:0:
64,192,23459,1,0,0:0:0:0:
192,192,23614,128,0,23768:0:0:0:0:
320,192,23768,1,2,0:0:0:0:
448,192,23768,1,0,0:0:0:0:
448,192,23923,128,2,24078:0:0:0:0:
64,192,24232,128,0,24542:0:0:0:70:clap07.wav
320,192,24232,1,0,0:0:0:0:
192,192,24542,1,2,0:0:0:0:
448,192,24542,1,0,0:0:0:0:
64,192,24851,1,2,0:0:0:0:
320,192,24851,1,0,0:0:0:0:
448,192,25160,128,0,25315:0:0:0:0:
192,192,25315,128,2,25469:0:0:0:0:
320,192,25315,1,0,0:0:0:0:
64,192,25469,128,2,25624:0:0:0:0:
448,192,25469,1,0,0:0:0:70:clap07.wav
192,192,25779,1,2,0:0:0:0:
320,192,25779,128,0,25933:0:0:0:0:
64,192,26088,128,0,26243:0:0:0:0:
192,192,26243,1,2,0:0:0:0:
448,192,26243,1,0,0:0:0:0:
448,192,26397,128,2,26552:0:0:0:0:
64,192,26707,1,0,0:0:0:70:clap07.wav
320,192,26707,128,0,26861:0:0:0:0:
192,192,27016,128,2,27325:0:0:0:0:
448,192,27016,1,0,0:0:0:0:
64,192,27325,1,2,0:0:0:0:
320,192,27325,1,0,0:0:0:0:
192,192,27789,1,2,0:0:0:0:
320,192,27789,1,0,0:0:0:0:
64,192,27944,1,2,0:0:0:0:
448,192,27944,1,0,0:0:0:70:clap07.wav
192,192,28253,128,2,28562:0:0:0:0:
320,192,28253,1,0,0:0:0:0:
448,192,28562,128,0,28871:0:0:0:0:
192,192,28871,1,2,0:0:0:0:
320,192,28871,128,0,29181:0:0:0:0:
64,192,29181,128,0,29490:0:0:0:70:clap07.wav
448,192,29181,1,0,0:0:0:0:
192,192,29490,1,2,0:0:0:0:
320,192,29799,1,2,0:0:0:0:
448,192,29799,128,0,29954:0:0:0:0:
64,192,29954,128,0,30109:0:0:0:0:
192,192,30109,128,0,30263:0:0:0:0:
448,192,30418,128,0,30573:0:0:0:0:
64,192,30573,128,0,30727:0:0:0:0:
192,192,30727,128,0,30882:0:0:0:0:
320,192,31036,128,0,31655:0:0:0:0:
64,192,31655,128,0,31964:0:0:0:0:
320,192,32274,128,0,32428:0:0:0:0:
448,192,32428,128,0,32583:0:0:0:0:
192,192,32583,128,0,32737:0:0:0:0:
320,192,32892,128,0,33047:0:0:0:0:
448,192,33047,128,0,33201:0:0:0:0:
192,192,33201,128,0,33356:0:0:0:0:
64,192,33511,128,0,34129:0:0:0:0:
320,192,34129,128,0,34748:0:0:0:0:
320,192,35057,128,0,35212:0:0:0:0:
64,192,35212,128,0,35366:0:0:0:0:
448,192,35366,128,0,35521:0:0:0:0:
192,192,35521,128,0,35676:0:0:0:0:
320,192,35676,128,0,35830:0:0:0:0:
64,192,35830,128,0,35985:0:0:0:0:
448,192,35985,128,0,36294:0:0:0:0:
64,192,36294,128,0,36603:0:0:0:0:
320,192,36603,128,0,36913:0:0:0:0:
192,192,36913,128,0,37222:0:0:0:0:
448,192,37222,128,0,37686:0:0:0:0:
64,192,38150,128,0,38459:0:0:0:0:
320,192,38459,128,0,38923:0:0:0:0:
64,192,39696,1,4,0:0:0:0:
448,192,39696,1,2,0:0:0:0:
448,192,39851,128,0,40006:0:0:0:0:
192,192,40006,128,0,40160:0:0:0:0:
64,192,40160,1,2,0:0:0:0:
320,192,40160,1,0,0:0:0:0:
448,192,40315,1,0,0:0:0:0:
448,192,40469,128,0,40624:0:0:0:0:
64,192,40624,1,2,0:0:0:0:
192,192,40624,128,0,40779:0:0:0:0:
64,192,40933,128,0,41397:0:0:0:0:
320,192,41088,1,2,0:0:0:0:
448,192,41088,1,0,0:0:0:0:
192,192,41397,1,0,0:0:0:0:
320,192,41475,1,0,0:0:0:0:
64,192,41552,1,2,0:0:0:0:
448,192,41552,128,0,41861:0:0:0:0:
192,192,41861,1,2,0:0:0:0:
320,192,41861,1,0,0:0:0:0:
64,192,42170,1,2,0:0:0:0:
448,192,42170,1,0,0:0:0:0:
64,192,42325,128,0,42480:0:0:0:0:
320,192,42480,128,0,42634:0:0:0:0:
192,192,42634,1,2,0:0:0:0:
448,192,42634,1,0,0:0:0:0:
64,192,42789,1,0,0:0:0:0:
64,192,42944,128,0,43098:0:0:0:0:
320,192,43098,128,2,43253:0:0:0:0:
448,192,43098,1,0,0:0:0:0:
192,192,43408,128,0,44026:0:0:0:0:
448,192,43408,1,0,0:0:0:0:
320,192,43562,1,2,0:0:0:0:
64,192,44026,1,2,0:0:0:0:
448,192,44026,128,0,44645:0:0:0:0:
320,192,44335,1,2,0:0:0:0:
64,192,44645,1,2,0:0:0:0:
192,192,44645,1,0,0:0:0:0:
64,192,44954,1,2,0:0:0:0:
192,192,44954,1,0,0:0:0:0:
320,192,45109,1,0,0:0:0:0:
448,192,45109,1,0,0:0:0:0:
64,192,45263,1,2,0:0:0:0:
192,192,45263,1,0,0:0:0:0:
320,192,45573,1,2,0:0:0:0:
448,192,45573,1,0,0:0:0:0:
64,192,45882,1,2,0:0:0:0:
320,192,45882,1,0,0:0:0:0:
192,192,46036,1,0,0:0:0:0:
448,192,46036,1,0,0:0:0:0:
64,192,46191,1,2,0:0:0:0:
320,192,46191,1,0,0:0:0:0:
64,192,46500,1,2,0:0:0:0:
192,192,46500,1,0,0:0:0:0:
192,192,46810,1,2,0:0:0:0:
448,192,46810,1,0,0:0:0:0:
64,192,47119,1,2,0:0:0:0:
320,192,47119,1,8,0:0:0:70:clap07.wav
64,192,47274,1,2,0:0:0:0:
192,192,47274,1,0,0:0:0:0:
192,192,47428,1,2,0:0:0:0:
448,192,47428,1,8,0:0:0:70:clap07.wav
320,192,47583,1,2,0:0:0:0:
448,192,47583,1,0,0:0:0:0:
64,192,47737,1,2,0:0:0:0:
320,192,47737,1,8,0:0:0:70:clap07.wav
64,192,47892,1,2,0:0:0:0:
192,192,47892,1,0,0:0:0:0:
192,192,48047,1,2,0:0:0:0:
448,192,48047,1,8,0:0:0:70:clap07.wav
320,192,48201,1,2,0:0:0:0:
448,192,48201,1,0,0:0:0:0:
64,192,48356,1,4,0:0:0:0:
320,192,48356,1,0,0:0:0:0:
448,192,48820,1,2,0:0:0:0:
320,192,48897,1,2,0:0:0:0:
64,192,48975,128,0,49284:0:0:0:70:echo01.wav
192,192,48975,128,0,49284:0:0:0:0:
64,192,49593,1,2,0:0:0:0:
192,192,49593,1,4,0:0:0:0:
448,192,49593,128,0,49748:0:0:0:0:
64,192,49902,1,8,0:0:0:0:
320,192,49902,1,0,0:0:0:0:
192,192,50057,128,0,50212:0:0:0:0:
320,192,50366,1,2,0:0:0:0:
448,192,50366,1,0,0:0:0:0:
64,192,50521,128,8,50676:0:0:0:0:
192,192,50521,1,0,0:0:0:0:
320,192,50830,1,2,0:0:0:0:
448,192,50830,128,0,50985:0:0:0:0:
64,192,51140,1,8,0:0:0:0:
192,192,51140,1,0,0:0:0:0:
320,192,51294,1,2,0:0:0:0:
64,192,51449,128,0,51603:0:0:0:0:
192,192,51603,1,2,0:0:0:0:
448,192,51603,1,0,0:0:0:0:
64,192,51758,1,8,0:0:0:0:
320,192,51758,128,0,51913:0:0:0:0:
192,192,52067,128,2,52222:0:0:0:0:
448,192,52067,1,0,0:0:0:0:
64,192,52377,1,8,0:0:0:0:
192,192,52377,1,0,0:0:0:0:
448,192,52531,128,0,52686:0:0:0:0:
64,192,52841,1,2,0:0:0:0:
320,192,52841,1,0,0:0:0:0:
192,192,52995,128,8,53150:0:0:0:0:
448,192,52995,1,0,0:0:0:0:
64,192,53304,1,2,0:0:0:0:
320,192,53304,128,0,53459:0:0:0:0:
64,192,53459,1,2,0:0:0:0:
192,192,53614,1,8,0:0:0:0:
448,192,53614,1,0,0:0:0:0:
64,192,53768,1,2,0:0:0:0:
320,192,53768,1,0,0:0:0:0:
448,192,53923,128,0,54078:0:0:0:0:
192,192,54078,1,2,0:0:0:0:
320,192,54078,1,0,0:0:0:0:
64,192,54232,1,8,0:0:0:0:
448,192,54232,1,0,0:0:0:0:
192,192,54542,128,2,54696:0:0:0:0:
320,192,54542,1,0,0:0:0:0:
64,192,54851,1,8,0:0:0:0:
448,192,54851,1,0,0:0:0:0:
320,192,55006,128,0,55160:0:0:0:0:
192,192,55160,1,0,0:0:0:0:
320,192,55315,1,2,0:0:0:0:
448,192,55315,1,0,0:0:0:0:
64,192,55469,128,8,55624:0:0:0:0:
192,192,55469,1,0,0:0:0:0:
320,192,55779,128,2,55933:0:0:0:0:
448,192,55779,1,0,0:0:0:0:
64,192,56088,1,8,0:0:0:0:
192,192,56088,1,0,0:0:0:0:
320,192,56243,1,2,0:0:0:0:
448,192,56243,1,0,0:0:0:0:
192,192,56397,128,0,56552:0:0:0:0:
64,192,56552,1,2,0:0:0:0:
320,192,56552,1,0,0:0:0:0:
192,192,56707,1,8,0:0:0:0:
448,192,56707,128,0,56861:0:0:0:0:
64,192,57016,1,2,0:0:0:0:
320,192,57016,128,0,57170:0:0:0:0:
192,192,57325,1,8,0:0:0:0:
320,192,57325,1,0,0:0:0:0:
64,192,57480,128,0,57634:0:0:0:0:
448,192,57634,1,0,0:0:0:0:
64,192,57789,1,2,0:0:0:0:
320,192,57789,1,0,0:0:0:0:
192,192,57944,1,8,0:0:0:0:
448,192,57944,128,0,58098:0:0:0:0:
64,192,58253,128,2,58408:0:0:0:0:
320,192,58253,1,0,0:0:0:0:
320,192,58408,1,2,0:0:0:0:
64,192,58562,1,8,0:0:0:0:
448,192,58562,1,0,0:0:0:0:
320,192,58717,1,2,0:0:0:0:
192,192,58794,1,0,0:0:0:70:tom2.wav
64,192,58871,1,0,0:0:0:70:tom1.wav
448,192,58871,1,0,0:0:0:0:
192,192,59026,1,2,0:0:0:0:
320,192,59026,1,0,0:0:0:0:
64,192,59181,1,8,0:0:0:0:
448,192,59181,128,0,59335:0:0:0:0:
64,192,59490,1,4,0:0:0:0:
192,192,59490,128,2,59645:0:0:0:0:
320,192,59490,1,0,0:0:0:0:
320,192,59799,1,8,0:0:0:0:
448,192,59799,1,0,0:0:0:0:
64,192,59954,128,0,60109:0:0:0:0:
192,192,60109,1,0,0:0:0:0:
320,192,60263,1,2,0:0:0:0:
448,192,60263,1,0,0:0:0:0:
64,192,60418,128,8,60573:0:0:0:0:
192,192,60418,1,0,0:0:0:0:
320,192,60727,128,2,60882:0:0:0:0:
448,192,60727,1,0,0:0:0:0:
64,192,61036,1,8,0:0:0:0:
192,192,61036,1,0,0:0:0:0:
320,192,61191,1,2,0:0:0:0:
448,192,61191,1,0,0:0:0:0:
64,192,61346,128,0,61500:0:0:0:0:
192,192,61500,1,2,0:0:0:0:
320,192,61500,1,0,0:0:0:0:
64,192,61655,1,8,0:0:0:0:
448,192,61655,128,0,61810:0:0:0:0:
192,192,61964,1,2,0:0:0:0:
320,192,61964,128,0,62119:0:0:0:0:
64,192,62274,1,8,0:0:0:0:
448,192,62274,1,0,0:0:0:0:
192,192,62428,128,0,62583:0:0:0:0:
448,192,62583,1,0,0:0:0:0:
64,192,62737,1,2,0:0:0:0:
320,192,62737,1,0,0:0:0:0:
192,192,62892,1,8,0:0:0:0:
448,192,62892,128,0,63047:0:0:0:0:
64,192,63201,128,2,63356:0:0:0:0:
320,192,63201,1,0,0:0:0:0:
320,192,63356,1,2,0:0:0:0:
192,192,63511,1,8,0:0:0:0:
448,192,63511,1,0,0:0:0:0:
64,192,63665,1,2,0:0:0:0:
320,192,63665,1,0,0:0:0:0:
448,192,63820,128,0,63975:0:0:0:0:
192,192,63975,128,2,64129:0:0:0:0:
320,192,63975,1,0,0:0:0:0:
64,192,64129,1,8,0:0:0:0:
448,192,64129,1,0,0:0:0:0:
192,192,64438,1,2,0:0:0:0:
320,192,64438,1,0,0:0:0:0:
64,192,64748,1,8,0:0:0:0:
448,192,64748,1,0,0:0:0:0:
64,192,65057,128,0,65212:0:0:0:0:
320,192,65212,1,2,0:0:0:0:
448,192,65212,128,0,65366:0:0:0:0:
64,192,65366,1,8,0:0:0:0:
192,192,65366,128,0,65521:0:0:0:0:
320,192,65521,128,0,65676:0:0:0:0:
64,192,65676,1,2,0:0:0:0:
448,192,65676,1,0,0:0:0:0:
192,192,65985,1,8,0:0:0:0:
448,192,65985,128,0,66140:0:0:0:0:
320,192,66140,1,2,0:0:0:0:
64,192,66294,128,0,66449:0:0:0:0:
192,192,66449,1,2,0:0:0:0:
448,192,66449,1,0,0:0:0:0:
64,192,66603,1,8,0:0:0:0:
320,192,66603,128,0,66758:0:0:0:0:
64,192,66913,1,8,0:0:0:0:
192,192,66913,1,4,0:0:0:0:
448,192,66913,1,0,0:0:0:0:
192,192,67067,1,2,0:0:0:0:
192,192,67222,1,2,0:0:0:0:
64,192,67377,1,8,0:0:0:0:
320,192,67377,1,4,0:0:0:0:
448,192,67377,1,0,0:0:0:0:
320,192,67531,1,2,0:0:0:0:
320,192,67686,1,2,0:0:0:0:
64,192,67841,1,8,0:0:0:0:
192,192,67841,1,4,0:0:0:0:
448,192,67841,1,0,0:0:0:0:
64,192,67995,1,2,0:0:0:0:
192,192,68150,1,8,0:0:0:0:
320,192,68150,1,4,0:0:0:0:
448,192,68150,1,0,0:0:0:0:
320,192,68304,1,2,0:0:0:0:
64,192,68459,1,0,0:0:0:70:tom2.wav
192,192,68459,128,0,68614:0:0:0:0:
320,192,68614,1,0,0:0:0:70:tom1.wav
448,192,68614,128,0,68923:0:0:0:0:
64,192,68923,128,2,69078:0:0:0:0:
192,192,68923,1,0,0:0:0:0:
320,192,69078,128,8,69232:0:0:0:0:
448,192,69078,1,0,0:0:0:0:
192,192,69232,128,0,69387:0:0:0:0:
64,192,69387,1,2,0:0:0:0:
320,192,69387,1,4,0:0:0:0:
448,192,69387,1,0,0:0:0:0:
192,192,69696,1,8,0:0:0:0:
320,192,69696,1,0,0:0:0:0:
448,192,69851,1,0,0:0:0:0:
64,192,70006,1,0,0:0:0:0:
192,192,70160,1,2,0:0:0:0:
448,192,70160,1,0,0:0:0:0:
64,192,70315,1,8,0:0:0:0:
320,192,70315,1,0,0:0:0:0:
448,192,70469,1,0,0:0:0:0:
64,192,70624,1,2,0:0:0:0:
192,192,70624,1,0,0:0:0:0:
320,192,70779,1,0,0:0:0:0:
192,192,70933,1,8,0:0:0:0:
448,192,70933,1,0,0:0:0:0:
64,192,71088,1,2,0:0:0:0:
320,192,71088,1,0,0:0:0:0:
192,192,71243,1,0,0:0:0:0:
320,192,71397,1,2,0:0:0:0:
448,192,71397,1,0,0:0:0:0:
64,192,71552,1,8,0:0:0:0:
192,192,71552,1,0,0:0:0:0:
320,192,71707,1,0,0:0:0:0:
192,192,71861,1,2,0:0:0:0:
448,192,71861,1,0,0:0:0:0:
64,192,72016,1,0,0:0:0:0:
320,192,72170,1,8,0:0:0:0:
448,192,72170,1,0,0:0:0:0:
192,192,72325,1,0,0:0:0:0:
64,192,72480,1,0,0:0:0:0:
320,192,72634,1,2,0:0:0:0:
448,192,72634,1,0,0:0:0:0:
64,192,72789,1,8,0:0:0:0:
192,192,72789,1,0,0:0:0:0:
448,192,72944,1,0,0:0:0:0:
64,192,73098,1,2,0:0:0:0:
320,192,73098,1,0,0:0:0:0:
64,192,73253,1,2,0:0:0:0:
192,192,73408,1,8,0:0:0:0:
448,192,73408,1,0,0:0:0:0:
320,192,73562,1,2,0:0:0:0:
192,192,73640,1,0,0:0:0:0:
64,192,73717,1,0,0:0:0:70:tom1.wav
320,192,73871,128,2,74026:0:0:0:0:
448,192,73871,1,0,0:0:0:0:
64,192,74026,128,8,74181:0:0:0:0:
192,192,74026,1,0,0:0:0:0:
448,192,74181,128,0,74335:0:0:0:0:
64,192,74335,1,2,0:0:0:0:
192,192,74335,1,4,0:0:0:0:
320,192,74335,1,0,0:0:0:0:
192,192,74645,1,8,0:0:0:0:
448,192,74645,1,0,0:0:0:0:
320,192,74799,1,0,0:0:0:0:
64,192,74954,1,0,0:0:0:0:
192,192,75109,1,2,0:0:0:0:
448,192,75109,1,0,0:0:0:0:
64,192,75263,1,8,0:0:0:0:
320,192,75263,1,0,0:0:0:0:
192,192,75418,1,0,0:0:0:0:
320,192,75573,1,2,0:0:0:0:
448,192,75573,1,0,0:0:0:0:
64,192,75727,1,0,0:0:0:0:
192,192,75882,1,8,0:0:0:0:
320,192,75882,1,0,0:0:0:0:
64,192,76036,1,2,0:0:0:0:
448,192,76036,1,0,0:0:0:0:
192,192,76191,1,0,0:0:0:0:
320,192,76346,1,2,0:0:0:0:
448,192,76346,1,0,0:0:0:0:
64,192,76500,1,8,0:0:0:0:
192,192,76500,1,0,0:0:0:0:
64,192,76810,128,2,78047:0:0:0:0:
320,192,76810,1,4,0:0:0:0:
448,192,76810,1,0,0:0:0:0:
448,192,78047,128,0,79284:0:0:0:0:
320,192,78665,128,0,78975:0:0:0:0:
64,192,79284,1,2,0:0:0:0:
192,192,79284,1,0,0:0:0:0:
320,192,79593,128,0,79748:0:0:0:0:
192,192,79748,1,2,0:0:0:0:
448,192,79748,128,0,79902:0:0:0:0:
64,192,79902,128,2,80057:0:0:0:0:
320,192,79902,1,0,0:0:0:0:
192,192,80212,128,2,80366:0:0:0:0:
448,192,80212,1,0,0:0:0:70:clap07.wav
320,192,80366,128,0,80521:0:0:0:0:
448,192,80521,128,0,80676:0:0:0:0:
64,192,80676,1,2,0:0:0:0:
192,192,80676,1,0,0:0:0:0:
320,192,80830,128,2,80985:0:0:0:0:
448,192,80830,1,0,0:0:0:0:
64,192,80985,128,0,81140:0:0:0:0:
192,192,81140,128,0,81294:0:0:0:0:
320,192,81449,1,2,0:0:0:0:
448,192,81449,128,0,81603:0:0:0:0:
64,192,81603,128,0,81758:0:0:0:0:
192,192,81758,1,2,0:0:0:0:
320,192,81758,1,0,0:0:0:0:
448,192,82067,1,0,0:0:0:0:
64,192,82222,1,2,0:0:0:0:
320,192,82222,1,0,0:0:0:0:
192,192,82377,1,2,0:0:0:0:
448,192,82377,1,0,0:0:0:0:
64,192,82686,128,2,82841:0:0:0:0:
320,192,82686,1,0,0:0:0:70:clap07.wav
448,192,82995,128,0,83150:0:0:0:0:
192,192,83150,1,2,0:0:0:0:
320,192,83150,1,0,0:0:0:0:
64,192,83304,128,2,83459:0:0:0:0:
448,192,83304,1,0,0:0:0:0:
320,192,83614,128,0,83768:0:0:0:0:
64,192,83923,1,2,0:0:0:0:
448,192,83923,128,0,84232:0:0:0:0:
192,192,84232,1,2,0:0:0:0:
320,192,84232,1,0,0:0:0:0:
448,192,84542,128,0,84696:0:0:0:0:
64,192,84696,128,2,84851:0:0:0:0:
320,192,84696,1,0,0:0:0:0:
192,192,84851,128,2,85006:0:0:0:0:
448,192,84851,1,0,0:0:0:0:
64,192,85160,1,2,0:0:0:0:
320,192,85160,128,0,85315:0:0:0:70:clap07.wav
448,192,85315,128,0,85469:0:0:0:0:
192,192,85469,128,0,85624:0:0:0:0:
64,192,85624,1,2,0:0:0:0:
320,192,85624,1,0,0:0:0:0:
192,192,85779,1,2,0:0:0:0:
448,192,85779,128,0,85933:0:0:0:0:
64,192,85933,128,0,86088:0:0:0:0:
320,192,86088,128,0,86243:0:0:0:0:
192,192,86397,1,2,0:0:0:0:
448,192,86397,128,0,86552:0:0:0:0:
64,192,86552,128,0,86707:0:0:0:0:
320,192,86707,1,2,0:0:0:0:
448,192,86707,1,0,0:0:0:0:
192,192,87016,1,0,0:0:0:0:
320,192,87170,1,2,0:0:0:0:
448,192,87170,1,0,0:0:0:0:
64,192,87325,1,2,0:0:0:0:
192,192,87325,1,0,0:0:0:0:
320,192,87634,128,2,87789:0:0:0:0:
448,192,87634,1,0,0:0:0:70:clap07.wav
64,192,87944,128,0,88098:0:0:0:0:
192,192,88098,1,2,0:0:0:0:
320,192,88098,1,0,0:0:0:0:
64,192,88253,1,2,0:0:0:0:
448,192,88253,128,0,88408:0:0:0:0:
320,192,88562,128,0,88871:0:0:0:0:
64,192,88871,1,2,0:0:0:0:
192,192,88871,1,0,0:0:0:0:
448,192,89026,1,0,0:0:0:0:
320,192,89103,1,0,0:0:0:0:
64,192,89181,1,2,0:0:0:0:
192,192,89181,128,0,89335:0:0:0:0:
448,192,89490,128,0,89645:0:0:0:0:
192,192,89645,1,2,0:0:0:0:
320,192,89645,1,0,0:0:0:0:
64,192,89799,128,2,90031:0:0:0:0:
448,192,89799,1,0,0:0:0:70:clap07.wav
192,192,90031,1,0,0:0:0:0:
320,192,90109,1,2,0:0:0:0:
448,192,90109,128,0,90341:0:0:0:0:
64,192,90341,1,0,0:0:0:0:
192,192,90418,128,0,90573:0:0:0:0:
320,192,90573,1,2,0:0:0:0:
448,192,90573,1,0,0:0:0:0:
320,192,90727,128,2,91036:0:0:0:0:
64,192,91036,1,0,0:0:0:70:clap07.wav
448,192,91036,1,0,0:0:0:0:
192,192,91346,1,2,0:0:0:0:
320,192,91346,1,0,0:0:0:0:
448,192,91578,1,0,0:0:0:0:
64,192,91655,128,2,91810:0:0:0:0:
320,192,91655,1,0,0:0:0:0:
192,192,91964,128,0,92119:0:0:0:0:
320,192,92119,1,2,0:0:0:0:
448,192,92119,1,0,0:0:0:0:
64,192,92274,128,2,92506:0:0:0:0:
192,192,92274,1,0,0:0:0:70:clap07.wav
320,192,92506,1,0,0:0:0:0:
192,192,92583,1,2,0:0:0:0:
448,192,92583,128,0,92737:0:0:0:0:
64,192,92737,128,0,92892:0:0:0:0:
192,192,92892,128,0,93047:0:0:0:0:
320,192,93047,1,2,0:0:0:0:
448,192,93047,1,0,0:0:0:0:
64,192,93201,128,2,93511:0:0:0:0:
320,192,93201,1,0,0:0:0:0:
192,192,93511,1,0,0:0:0:70:clap07.wav
448,192,93511,1,0,0:0:0:0:
64,192,93820,1,2,0:0:0:0:
192,192,93820,1,0,0:0:0:0:
320,192,94129,1,2,0:0:0:0:
448,192,94129,128,0,94361:0:0:0:0:
192,192,94361,128,0,94593:0:0:0:0:
64,192,94593,1,2,0:0:0:0:
320,192,94748,1,2,0:0:0:0:
448,192,94748,128,0,95057:0:0:0:70:clap07.wav
192,192,95057,1,2,0:0:0:0:
320,192,95057,128,0,95212:0:0:0:0:
64,192,95212,1,0,0:0:0:0:
192,192,95366,128,0,95598:0:0:0:0:
64,192,95521,1,2,0:0:0:0:
320,192,95598,128,0,95830:0:0:0:0:
448,192,95676,1,2,0:0:0:0:
192,192,95830,1,0,0:0:0:0:
64,192,95985,128,0,96217:0:0:0:70:clap07.wav
448,192,95985,1,0,0:0:0:0:
192,192,96217,128,0,96449:0:0:0:0:
320,192,96294,1,2,0:0:0:0:
448,192,96449,128,0,96603:0:0:0:0:
64,192,96603,128,2,97067:0:0:0:0:
192,192,96603,1,0,0:0:0:0:
192,192,97067,1,2,0:0:0:0:
320,192,97067,1,0,0:0:0:0:
64,192,97222,1,2,0:0:0:0:
448,192,97222,1,0,0:0:0:70:clap07.wav
192,192,97531,1,2,0:0:0:0:
320,192,97531,128,0,97841:0:0:0:0:
64,192,97841,128,0,98150:0:0:0:0:
192,192,98150,1,2,0:0:0:0:
448,192,98150,1,0,0:0:0:0:
64,192,98459,1,0,0:0:0:70:clap07.wav
320,192,98459,128,0,98768:0:0:0:0:
192,192,98768,128,2,98923:0:0:0:0:
64,192,99078,1,2,0:0:0:0:
448,192,99078,128,0,99232:0:0:0:0:
320,192,99232,128,0,99387:0:0:0:0:
192,192,99387,128,0,99542:0:0:0:0:
448,192,99696,128,0,99851:0:0:0:0:
320,192,99851,128,0,100006:0:0:0:0:
192,192,100006,128,0,100160:0:0:0:0:
64,192,100315,128,0,100933:0:0:0:0:
320,192,100933,128,0,101243:0:0:0:0:
64,192,101552,128,0,101707:0:0:0:0:
320,192,101707,128,0,101861:0:0:0:0:
448,192,101861,128,0,102016:0:0:0:0:
64,192,102170,128,0,102325:0:0:0:0:
320,192,102325,128,0,102480:0:0:0:0:
448,192,102480,128,0,102634:0:0:0:0:
192,192,102789,128,0,103408:0:0:0:0:
448,192,103408,128,0,104026:0:0:0:0:
64,192,104335,128,0,104490:0:0:0:0:
320,192,104490,128,0,104645:0:0:0:0:
448,192,104645,128,0,104799:0:0:0:0:
192,192,104799,128,0,104954:0:0:0:0:
320,192,104954,128,0,105109:0:0:0:0:
448,192,105109,128,0,105263:0:0:0:0:
64,192,105263,128,0,105573:0:0:0:0:
320,192,105573,128,0,105882:0:0:0:0:
448,192,105882,128,0,106191:0:0:0:0:
192,192,106191,128,0,106500:0:0:0:0:
320,192,106500,128,0,107119:0:0:0:0:
192,192,107428,128,0,107737:0:0:0:0:
320,192,107737,128,0,108356:0:0:0:0:
64,192,108975,1,4,0:0:0:0:
320,192,108975,1,2,0:0:0:0:
320,192,109129,128,0,109284:0:0:0:0:
448,192,109284,128,0,109438:0:0:0:0:
64,192,109438,1,0,0:0:0:0:
192,192,109438,1,0,0:0:0:0:
320,192,109593,1,2,0:0:0:0:
448,192,109593,1,0,0:0:0:0:
320,192,109748,128,0,109902:0:0:0:0:
64,192,109902,128,0,110057:0:0:0:0:
192,192,109902,1,0,0:0:0:0:
320,192,110212,1,2,0:0:0:0:
448,192,110212,128,0,110830:0:0:0:0:
64,192,110366,1,0,0:0:0:0:
192,192,110366,1,0,0:0:0:0:
64,192,110830,128,2,111140:0:0:0:0:
320,192,110830,1,0,0:0:0:0:
192,192,111140,1,0,0:0:0:0:
448,192,111140,1,0,0:0:0:0:
64,192,111449,1,2,0:0:0:0:
320,192,111449,1,0,0:0:0:0:
64,192,111603,128,0,111758:0:0:0:0:
320,192,111758,128,0,111913:0:0:0:0:
192,192,111913,1,0,0:0:0:0:
448,192,111913,1,0,0:0:0:0:
64,192,112067,1,2,0:0:0:0:
320,192,112067,1,0,0:0:0:0:
64,192,112222,128,0,112377:0:0:0:0:
192,192,112377,128,0,112531:0:0:0:0:
320,192,112377,1,0,0:0:0:0:
64,192,112686,128,2,113304:0:0:0:0:
320,192,112686,1,0,0:0:0:0:
448,192,112841,1,0,0:0:0:0:
192,192,113304,1,2,0:0:0:0:
448,192,113304,128,0,113923:0:0:0:0:
320,192,113614,1,0,0:0:0:0:
192,192,113768,1,0,0:0:0:0:
64,192,113923,1,2,0:0:0:0:
320,192,113923,1,0,0:0:0:0:
64,192,114232,1,2,0:0:0:0:
192,192,114232,1,0,0:0:0:0:
320,192,114387,1,0,0:0:0:0:
448,192,114387,1,0,0:0:0:0:
64,192,114542,1,2,0:0:0:0:
192,192,114542,1,0,0:0:0:0:
320,192,114851,1,2,0:0:0:0:
448,192,114851,1,0,0:0:0:0:
64,192,115160,1,2,0:0:0:0:
320,192,115160,1,0,0:0:0:0:
192,192,115315,1,0,0:0:0:0:
448,192,115315,1,0,0:0:0:0:
64,192,115469,1,2,0:0:0:0:
320,192,115469,1,0,0:0:0:0:
64,192,115779,1,2,0:0:0:0:
448,192,115779,1,0,0:0:0:0:
192,192,116088,1,2,0:0:0:0:
320,192,116088,1,0,0:0:0:0:
64,192,116397,1,2,0:0:0:0:
192,192,116397,1,0,0:0:0:0:
192,192,116552,1,2,0:0:0:0:
448,192,116552,1,0,0:0:0:0:
64,192,116707,1,2,0:0:0:0:
448,192,116707,1,0,0:0:0:0:
64,192,116861,1,2,0:0:0:0:
320,192,116861,1,0,0:0:0:0:
192,192,117016,1,2,0:0:0:0:
320,192,117016,1,0,0:0:0:0:
192,192,117170,1,2,0:0:0:0:
448,192,117170,1,0,0:0:0:0:
64,192,117325,1,2,0:0:0:0:
448,192,117325,1,0,0:0:0:0:
64,192,117480,1,2,0:0:0:0:
320,192,117480,1,0,0:0:0:0:
192,192,117634,1,4,0:0:0:0:
320,192,117634,1,0,0:0:0:0:
64,192,118098,1,2,0:0:0:0:
192,192,118176,1,2,0:0:0:0:
320,192,118253,1,0,0:0:0:70:echo01.wav
448,192,118253,128,0,118562:0:0:0:0:
64,192,118871,1,4,0:0:0:0:
192,192,118871,1,2,0:0:0:0:
448,192,118871,128,0,119026:0:0:0:0:
64,192,119181,1,8,0:0:0:0:
320,192,119181,1,0,0:0:0:0:
448,192,119335,128,0,119490:0:0:0:0:
64,192,119645,1,2,0:0:0:0:
192,192,119645,1,0,0:0:0:0:
320,192,119799,1,8,0:0:0:0:
448,192,119799,128,0,119954:0:0:0:0:
64,192,120109,128,2,120263:0:0:0:0:
192,192,120109,1,0,0:0:0:0:
320,192,120418,1,8,0:0:0:0:
448,192,120418,1,0,0:0:0:0:
192,192,120573,1,2,0:0:0:0:
64,192,120727,128,0,120882:0:0:0:0:
192,192,120882,1,2,0:0:0:0:
448,192,120882,1,0,0:0:0:0:
64,192,121036,1,8,0:0:0:0:
320,192,121036,128,0,121191:0:0:0:0:
192,192,121346,128,2,121500:0:0:0:0:
448,192,121346,1,0,0:0:0:0:
64,192,121655,1,8,0:0:0:0:
320,192,121655,1,0,0:0:0:0:
448,192,121810,128,0,121964:0:0:0:0:
192,192,122119,1,2,0:0:0:0:
448,192,122119,1,0,0:0:0:0:
64,192,122274,128,8,122428:0:0:0:0:
320,192,122274,1,0,0:0:0:0:
192,192,122583,128,2,122737:0:0:0:0:
448,192,122583,1,0,0:0:0:0:
448,192,122737,1,2,0:0:0:0:
64,192,122892,1,8,0:0:0:0:
192,192,122892,1,0,0:0:0:0:
320,192,123047,1,2,0:0:0:0:
448,192,123047,1,0,0:0:0:0:
192,192,123201,128,0,123356:0:0:0:0:
64,192,123356,1,2,0:0:0:0:
448,192,123356,1,0,0:0:0:0:
192,192,123511,1,8,0:0:0:0:
320,192,123511,1,0,0:0:0:0:
64,192,123820,128,2,123975:0:0:0:0:
448,192,123820,1,0,0:0:0:0:
64,192,124129,1,8,0:0:0:0:
192,192,124129,1,0,0:0:0:0:
448,192,124284,128,0,124438:0:0:0:0:
192,192,124438,1,0,0:0:0:0:
64,192,124593,1,2,0:0:0:0:
320,192,124593,1,0,0:0:0:0:
192,192,124748,128,8,124902:0:0:0:0:
448,192,124748,1,0,0:0:0:0:
64,192,125057,1,2,0:0:0:0:
320,192,125057,128,0,125212:0:0:0:0:
64,192,125366,1,8,0:0:0:0:
192,192,125366,1,0,0:0:0:0:
320,192,125521,1,2,0:0:0:0:
448,192,125521,1,0,0:0:0:0:
64,192,125676,128,0,125830:0:0:0:0:
192,192,125830,1,2,0:0:0:0:
320,192,125830,1,0,0:0:0:0:
64,192,125985,1,8,0:0:0:0:
448,192,125985,128,0,126140:0:0:0:0:
192,192,126294,1,2,0:0:0:0:
320,192,126294,128,0,126449:0:0:0:0:
320,192,126603,1,8,0:0:0:0:
448,192,126603,1,0,0:0:0:0:
64,192,126758,128,0,126913:0:0:0:0:
320,192,126913,1,0,0:0:0:0:
192,192,127067,1,2,0:0:0:0:
448,192,127067,1,0,0:0:0:0:
64,192,127222,1,8,0:0:0:0:
320,192,127222,128,0,127377:0:0:0:0:
64,192,127531,128,2,127686:0:0:0:0:
448,192,127531,1,0,0:0:0:0:
448,192,127686,1,2,0:0:0:0:
64,192,127841,1,8,0:0:0:0:
192,192,127841,1,0,0:0:0:0:
320,192,127995,1,2,0:0:0:0:
192,192,128073,1,0,0:0:0:70:tom2.wav
64,192,128150,1,0,0:0:0:70:tom1.wav
448,192,128150,1,0,0:0:0:0:
192,192,128304,1,2,0:0:0:0:
320,192,128304,1,0,0:0:0:0:
64,192,128459,1,8,0:0:0:0:
448,192,128459,128,0,128614:0:0:0:0:
64,192,128768,1,2,0:0:0:0:
192,192,128768,1,4,0:0:0:0:
320,192,128768,128,0,128923:0:0:0:0:
192,192,129078,1,8,0:0:0:0:
448,192,129078,1,0,0:0:0:0:
64,192,129232,128,0,129387:0:0:0:0:
320,192,129387,1,0,0:0:0:0:
192,192,129542,1,2,0:0:0:0:
448,192,129542,1,0,0:0:0:0:
64,192,129696,128,8,129851:0:0:0:0:
320,192,129696,1,0,0:0:0:0:
192,192,130006,128,2,130160:0:0:0:0:
448,192,130006,1,0,0:0:0:0:
64,192,130315,1,8,0:0:0:0:
320,192,130315,1,0,0:0:0:0:
192,192,130469,1,2,0:0:0:0:
448,192,130469,1,0,0:0:0:0:
64,192,130624,128,0,130779:0:0:0:0:
192,192,130779,1,2,0:0:0:0:
320,192,130779,1,0,0:0:0:0:
64,192,130933,1,8,0:0:0:0:
448,192,130933,128,0,131088:0:0:0:0:
192,192,131243,1,2,0:0:0:0:
320,192,131243,128,0,131397:0:0:0:0:
64,192,131552,1,8,0:0:0:0:
448,192,131552,1,0,0:0:0:0:
192,192,131707,128,0,131861:0:0:0:0:
448,192,131861,1,0,0:0:0:0:
64,192,132016,1,2,0:0:0:0:
192,192,132016,1,0,0:0:0:0:
320,192,132170,1,8,0:0:0:0:
448,192,132170,128,0,132325:0:0:0:0:
64,192,132480,128,2,132634:0:0:0:0:
320,192,132480,1,0,0:0:0:0:
320,192,132634,1,2,0:0:0:0:
192,192,132789,1,8,0:0:0:0:
448,192,132789,1,0,0:0:0:0:
64,192,132944,1,2,0:0:0:0:
320,192,132944,1,0,0:0:0:0:
192,192,133098,128,0,133253:0:0:0:0:
320,192,133253,1,2,0:0:0:0:
448,192,133253,128,0,133408:0:0:0:0:
64,192,133408,1,8,0:0:0:0:
192,192,133408,1,0,0:0:0:0:
64,192,133717,1,2,0:0:0:0:
448,192,133717,1,0,0:0:0:0:
192,192,134026,1,8,0:0:0:0:
320,192,134026,1,0,0:0:0:0:
64,192,134181,1,0,0:0:0:0:
448,192,134335,128,0,134490:0:0:0:0:
64,192,134490,128,2,134645:0:0:0:0:
192,192,134490,1,0,0:0:0:0:
320,192,134645,128,8,134799:0:0:0:0:
448,192,134645,1,0,0:0:0:0:
192,192,134799,128,0,134954:0:0:0:0:
64,192,134954,1,2,0:0:0:0:
448,192,134954,1,0,0:0:0:0:
64,192,135263,1,8,0:0:0:0:
320,192,135263,128,0,135418:0:0:0:0:
192,192,135418,1,2,0:0:0:0:
448,192,135418,1,0,0:0:0:0:
64,192,135573,128,0,135727:0:0:0:0:
192,192,135727,1,2,0:0:0:0:
448,192,135727,1,0,0:0:0:0:
64,192,135882,1,8,0:0:0:0:
320,192,135882,128,0,136036:0:0:0:0:
64,192,136191,1,4,0:0:0:0:
192,192,136191,1,8,0:0:0:0:
448,192,136191,1,0,0:0:0:0:
192,192,136346,1,2,0:0:0:0:
192,192,136500,1,2,0:0:0:0:
64,192,136655,1,4,0:0:0:0:
320,192,136655,1,8,0:0:0:0:
448,192,136655,1,0,0:0:0:0:
448,192,136810,1,2,0:0:0:0:
448,192,136964,1,2,0:0:0:0:
64,192,137119,1,4,0:0:0:0:
192,192,137119,1,8,0:0:0:0:
320,192,137119,1,0,0:0:0:0:
64,192,137274,1,2,0:0:0:0:
64,192,137428,1,4,0:0:0:0:
320,192,137428,1,8,0:0:0:0:
448,192,137428,1,0,0:0:0:0:
320,192,137583,1,2,0:0:0:0:
192,192,137737,1,0,0:0:0:70:tom2.wav
448,192,137737,1,0,0:0:0:0:
64,192,137892,1,0,0:0:0:70:tom1.wav
320,192,137892,1,0,0:0:0:0:
192,192,138047,1,0,0:0:0:0:
320,192,138201,1,2,0:0:0:0:
448,192,138201,1,0,0:0:0:0:
64,192,138356,1,8,0:0:0:0:
192,192,138356,1,0,0:0:0:0:
64,192,138665,1,4,0:0:0:0:
192,192,138665,1,2,0:0:0:0:
448,192,138665,1,0,0:0:0:0:
320,192,138820,1,0,0:0:0:0:
64,192,138975,1,2,0:0:0:0:
320,192,138975,1,0,0:0:0:0:
64,192,139129,1,0,0:0:0:0:
192,192,139284,1,2,0:0:0:0:
448,192,139284,1,0,0:0:0:0:
320,192,139438,1,0,0:0:0:0:
64,192,139593,1,2,0:0:0:0:
320,192,139593,1,0,0:0:0:0:
64,192,139748,1,0,0:0:0:0:
192,192,139902,1,2,0:0:0:0:
448,192,139902,1,0,0:0:0:0:
320,192,140057,1,0,0:0:0:0:
64,192,140212,1,2,0:0:0:0:
320,192,140212,1,0,0:0:0:0:
64,192,140366,1,0,0:0:0:0:
192,192,140521,1,2,0:0:0:0:
320,192,140521,1,0,0:0:0:0:
448,192,140676,1,0,0:0:0:0:
64,192,140830,1,2,0:0:0:0:
448,192,140830,1,0,0:0:0:0:
64,192,140985,1,0,0:0:0:0:
192,192,141140,1,2,0:0:0:0:
320,192,141140,1,0,0:0:0:0:
448,192,141294,1,0,0:0:0:0:
192,192,141449,1,2,0:0:0:0:
448,192,141449,1,0,0:0:0:0:
192,192,141603,1,0,0:0:0:0:
64,192,141758,1,2,0:0:0:0:
320,192,141758,1,0,0:0:0:0:
448,192,141913,1,0,0:0:0:0:
192,192,142067,1,2,0:0:0:0:
448,192,142067,1,0,0:0:0:0:
192,192,142222,1,0,0:0:0:0:
64,192,142377,1,2,0:0:0:0:
320,192,142377,1,0,0:0:0:0:
448,192,142531,1,0,0:0:0:0:
192,192,142686,1,2,0:0:0:0:
448,192,142686,1,0,0:0:0:0:
192,192,142841,1,0,0:0:0:0:
64,192,142995,1,2,0:0:0:0:
320,192,142995,1,0,0:0:0:0:
448,192,143150,1,0,0:0:0:0:
192,192,143304,1,2,0:0:0:0:
448,192,143304,1,0,0:0:0:0:
192,192,143459,1,0,0:0:0:0:
320,192,143614,1,2,0:0:0:0:
448,192,143614,1,0,0:0:0:0:
64,192,143768,1,0,0:0:0:0:
64,192,143923,1,2,0:0:0:0:
320,192,143923,1,0,0:0:0:0:
320,192,144078,1,0,0:0:0:0:
192,192,144232,1,2,0:0:0:0:
448,192,144232,1,0,0:0:0:0:
64,192,144387,1,0,0:0:0:0:
64,192,144542,1,2,0:0:0:0:
320,192,144542,1,0,0:0:0:0:
320,192,144696,1,0,0:0:0:0:
64,192,144851,1,2,0:0:0:0:
192,192,144851,1,0,0:0:0:0:
448,192,145006,1,0,0:0:0:0:
192,192,145160,1,2,0:0:0:0:
448,192,145160,1,0,0:0:0:0:
192,192,145315,1,0,0:0:0:0:
64,192,145469,1,2,0:0:0:0:
320,192,145469,1,0,0:0:0:0:
448,192,145624,1,0,0:0:0:0:
192,192,145779,1,2,0:0:0:0:
448,192,145779,1,0,0:0:0:0:
192,192,145933,1,0,0:0:0:0:
64,192,146088,1,2,0:0:0:0:
320,192,146088,1,0,0:0:0:0:
448,192,146243,1,0,0:0:0:0:
64,192,146397,1,2,0:0:0:0:
448,192,146397,1,0,0:0:0:0:
64,192,146552,1,0,0:0:0:0:
192,192,146707,1,2,0:0:0:0:
320,192,146707,1,0,0:0:0:0:
192,192,146861,1,0,0:0:0:0:
64,192,147016,1,2,0:0:0:0:
448,192,147016,1,0,0:0:0:0:
448,192,147170,1,0,0:0:0:0:
64,192,147325,128,2,147480:0:0:0:0:
320,192,147325,1,0,0:0:0:0:
192,192,147634,128,2,147789:0:0:0:0:
448,192,147634,1,0,0:0:0:0:
64,192,147944,128,2,148098:0:0:0:0:
320,192,147944,128,0,148098:0:0:0:0:
192,192,148253,128,2,148408:0:0:0:0:
448,192,148253,128,0,148408:0:0:0:0:
64,192,148562,128,4,149026:0:0:0:0:
192,192,148562,1,0,0:0:0:0:
320,192,148562,1,0,0:0:0:0:
192,192,149026,128,0,149490:0:0:0:0:
320,192,149490,128,0,149645:0:0:0:0:
64,192,149645,1,0,0:0:0:0:
192,192,149722,1,0,0:0:0:0:
320,192,149799,1,0,0:0:0:0:
448,192,149799,128,0,150109:0:0:0:0:
64,192,150418,128,0,150573:0:0:0:0:
192,192,150418,1,0,0:0:0:0:
448,192,150573,128,0,150882:0:0:0:0:
320,192,150882,128,0,151346:0:0:0:0:
64,192,151036,1,0,0:0:0:0:
192,192,151346,128,0,151500:0:0:0:0:
448,192,151500,128,0,151810:0:0:0:0:
64,192,151810,128,0,152119:0:0:0:0:
320,192,152119,1,0,0:0:0:0:
64,192,152274,1,0,0:0:0:0:
448,192,152274,1,0,0:0:0:0:
64,192,152892,1,0,0:0:0:0:
320,192,152892,128,0,153201:0:0:0:0:
192,192,153201,128,0,153511:0:0:0:0:
448,192,153201,1,0,0:0:0:0:
64,192,153511,128,0,154748:0:0:0:0:
320,192,153511,1,0,0:0:0:0:
192,192,153975,1,0,0:0:0:0:
320,192,154748,1,0,0:0:0:0:
448,192,154748,1,0,0:0:0:0:
320,192,155366,128,0,155676:0:0:0:0:
448,192,155676,128,0,155985:0:0:0:0:
64,192,155985,128,0,156913:0:0:0:0:
192,192,155985,1,0,0:0:0:0:
320,192,156449,1,0,0:0:0:0:
448,192,156913,128,0,157067:0:0:0:0:
320,192,157067,128,0,157222:0:0:0:0:
64,192,157222,1,0,0:0:0:0:
192,192,157222,128,0,157841:0:0:0:0:
448,192,158459,128,0,158923:0:0:0:0:
64,192,158923,128,0,159078:0:0:0:0:
192,192,159232,128,0,159387:0:0:0:0:
320,192,159542,128,0,160315:0:0:0:0:
64,192,160933,128,4,161397:0:0:0:0:
448,192,160933,1,0,0:0:0:0:
320,192,161397,128,0,161861:0:0:0:0:
448,192,161861,128,0,162170:0:0:0:0:
192,192,162170,128,0,162789:0:0:0:0:
64,192,162789,128,0,163098:0:0:0:0:
320,192,163098,128,0,163408:0:0:0:0:
192,192,163408,128,0,163871:0:0:0:0:
448,192,163871,128,0,164335:0:0:0:0:
320,192,164335,128,0,164645:0:0:0:0:
64,192,164645,128,0,164954:0:0:0:0:
448,192,164954,1,0,0:0:0:0:
192,192,165109,1,0,0:0:0:0:
320,192,165263,128,0,165573:0:0:0:0:
64,192,165573,1,0,0:0:0:0:
192,192,165882,128,0,166346:0:0:0:0:
448,192,166346,128,0,166810:0:0:0:0:
64,192,166810,128,0,167119:0:0:0:0:
320,192,167119,128,0,167428:0:0:0:0:
64,192,167583,1,0,0:0:0:0:
192,192,167737,128,0,168047:0:0:0:0:
448,192,168047,128,0,168356:0:0:0:0:
320,192,168356,128,0,168820:0:0:0:0:
64,192,168820,128,0,169284:0:0:0:0:
192,192,169284,128,0,169593:0:0:0:0:
320,192,169593,128,0,169902:0:0:0:0:
64,192,170212,128,0,170521:0:0:0:0:
320,192,170521,128,0,170830:0:0:0:0:
64,192,170830,128,0,170985:0:0:0:0:
192,192,170830,1,0,0:0:0:0:
192,192,171140,1,0,0:0:0:70:tom1.wav
448,192,171140,128,0,171294:0:0:0:0:
64,192,171294,1,0,0:0:0:70:tom2.wav
320,192,171294,128,0,171449:0:0:0:0:
64,192,171603,1,2,0:0:0:0:
192,192,171603,1,0,0:0:0:0:
320,192,171758,128,8,171913:0:0:0:0:
448,192,171758,1,4,0:0:0:0:
64,192,172067,128,2,172222:0:0:0:0:
192,192,172067,1,4,0:0:0:0:
448,192,172067,1,0,0:0:0:0:
192,192,172377,1,8,0:0:0:0:
320,192,172377,1,0,0:0:0:0:
64,192,172531,1,2,0:0:0:0:
448,192,172531,1,0,0:0:0:0:
320,192,172686,128,0,172841:0:0:0:0:
64,192,172841,1,2,0:0:0:0:
192,192,172841,1,0,0:0:0:0:
320,192,172995,1,8,0:0:0:0:
448,192,172995,128,0,173150:0:0:0:0:
64,192,173304,128,2,173459:0:0:0:0:
192,192,173304,1,0,0:0:0:0:
320,192,173614,1,8,0:0:0:0:
448,192,173614,1,0,0:0:0:0:
192,192,173768,128,0,173923:0:0:0:0:
64,192,173923,1,0,0:0:0:0:
320,192,174078,1,2,0:0:0:0:
448,192,174078,1,0,0:0:0:0:
64,192,174232,128,8,174387:0:0:0:0:
192,192,174232,1,0,0:0:0:0:
192,192,174542,1,2,0:0:0:0:
448,192,174542,128,0,174696:0:0:0:0:
192,192,174696,1,2,0:0:0:0:
64,192,174851,1,8,0:0:0:0:
320,192,174851,1,0,0:0:0:0:
192,192,175006,1,2,0:0:0:0:
448,192,175006,1,0,0:0:0:0:
64,192,175160,128,0,175315:0:0:0:0:
320,192,175315,128,2,175469:0:0:0:0:
448,192,175315,1,0,0:0:0:0:
64,192,175469,1,8,0:0:0:0:
192,192,175469,1,0,0:0:0:0:
448,192,175624,1,0,0:0:0:0:
64,192,175779,1,2,0:0:0:0:
320,192,175779,1,0,0:0:0:0:
192,192,175933,1,0,0:0:0:0:
320,192,176088,1,8,0:0:0:0:
448,192,176088,1,0,0:0:0:0:
64,192,176243,1,0,0:0:0:0:
192,192,176397,128,0,176552:0:0:0:0:
64,192,176552,1,2,0:0:0:0:
448,192,176552,128,0,176707:0:0:0:0:
192,192,176707,1,8,0:0:0:0:
320,192,176707,128,0,176861:0:0:0:0:
64,192,176861,128,0,177016:0:0:0:0:
320,192,177016,1,2,0:0:0:0:
448,192,177016,1,0,0:0:0:0:
192,192,177325,128,8,177480:0:0:0:0:
320,192,177325,1,0,0:0:0:0:
64,192,177480,1,2,0:0:0:0:
448,192,177480,1,0,0:0:0:0:
320,192,177634,128,0,177789:0:0:0:0:
64,192,177789,1,2,0:0:0:0:
192,192,177789,1,0,0:0:0:0:
320,192,177944,1,8,0:0:0:0:
448,192,177944,128,0,178098:0:0:0:0:
64,192,178253,1,4,0:0:0:0:
192,192,178253,1,8,0:0:0:0:
448,192,178253,1,0,0:0:0:0:
192,192,178408,1,2,0:0:0:0:
192,192,178562,1,2,0:0:0:0:
64,192,178717,1,4,0:0:0:0:
320,192,178717,1,8,0:0:0:0:
448,192,178717,1,0,0:0:0:0:
320,192,178871,1,2,0:0:0:0:
320,192,179026,1,2,0:0:0:0:
64,192,179181,1,4,0:0:0:0:
192,192,179181,1,8,0:0:0:0:
448,192,179181,1,0,0:0:0:0:
448,192,179335,1,2,0:0:0:0:
448,192,179490,1,2,0:0:0:0:
64,192,179645,1,4,0:0:0:0:
192,192,179645,1,8,0:0:0:0:
320,192,179645,1,0,0:0:0:0:
192,192,179799,1,0,0:0:0:70:tom2.wav
320,192,179954,1,0,0:0:0:70:tom1.wav
448,192,179954,1,0,0:0:0:0:
64,192,180109,1,0,0:0:0:70:tom0.wav
192,192,180263,1,2,0:0:0:0:
320,192,180263,128,0,180418:0:0:0:0:
64,192,180418,1,8,0:0:0:0:
448,192,180418,128,0,180573:0:0:0:0:
192,192,180573,128,0,180727:0:0:0:0:
64,192,180727,1,4,0:0:0:0:
320,192,180727,1,2,0:0:0:0:
448,192,180727,1,0,0:0:0:0:
64,192,181036,1,8,0:0:0:0:
192,192,181036,1,0,0:0:0:0:
320,192,181191,1,0,0:0:0:0:
192,192,181346,1,0,0:0:0:0:
64,192,181500,1,2,0:0:0:0:
448,192,181500,1,0,0:0:0:0:
192,192,181655,1,8,0:0:0:0:
320,192,181655,1,0,0:0:0:0:
448,192,181810,1,0,0:0:0:0:
64,192,181964,1,2,0:0:0:0:
192,192,181964,1,0,0:0:0:0:
320,192,182119,1,0,0:0:0:0:
192,192,182274,1,8,0:0:0:0:
448,192,182274,1,0,0:0:0:0:
64,192,182428,1,2,0:0:0:0:
320,192,182428,1,0,0:0:0:0:
192,192,182583,1,0,0:0:0:0:
320,192,182737,1,2,0:0:0:0:
448,192,182737,1,0,0:0:0:0:
64,192,182892,1,8,0:0:0:0:
192,192,182892,1,0,0:0:0:0:
320,192,183047,1,0,0:0:0:0:
192,192,183201,1,2,0:0:0:0:
448,192,183201,1,0,0:0:0:0:
64,192,183356,1,0,0:0:0:0:
320,192,183511,1,8,0:0:0:0:
448,192,183511,1,0,0:0:0:0:
192,192,183665,1,0,0:0:0:0:
64,192,183820,1,0,0:0:0:0:
192,192,183975,1,2,0:0:0:0:
320,192,183975,1,0,0:0:0:0:
64,192,184129,1,8,0:0:0:0:
448,192,184129,1,0,0:0:0:0:
192,192,184284,1,0,0:0:0:0:
320,192,184438,1,2,0:0:0:0:
448,192,184438,1,0,0:0:0:0:
320,192,184593,1,2,0:0:0:0:
64,192,184748,1,8,0:0:0:0:
192,192,184748,1,0,0:0:0:0:
448,192,184902,1,2,0:0:0:0:
320,192,184980,1,0,0:0:0:0:
192,192,185057,1,0,0:0:0:70:tom1.wav
64,192,185212,128,2,185366:0:0:0:0:
320,192,185212,1,0,0:0:0:0:
192,192,185366,1,8,0:0:0:0:
448,192,185366,128,0,185521:0:0:0:0:
320,192,185521,128,0,185676:0:0:0:0:
64,192,185676,1,4,0:0:0:0:
192,192,185676,1,2,0:0:0:0:
448,192,185676,1,0,0:0:0:0:
320,192,185985,1,8,0:0:0:0:
448,192,185985,1,0,0:0:0:0:
64,192,186140,1,0,0:0:0:0:
192,192,186294,1,0,0:0:0:0:
64,192,186449,1,2,0:0:0:0:
320,192,186449,1,0,0:0:0:0:
192,192,186603,1,8,0:0:0:0:
448,192,186603,1,0,0:0:0:0:
320,192,186758,1,0,0:0:0:0:
64,192,186913,1,2,0:0:0:0:
192,192,186913,1,0,0:0:0:0:
448,192,187067,1,0,0:0:0:0:
64,192,187222,1,8,0:0:0:0:
320,192,187222,1,0,0:0:0:0:
192,192,187377,1,2,0:0:0:0:
448,192,187377,1,0,0:0:0:0:
320,192,187531,1,0,0:0:0:0:
64,192,187686,1,2,0:0:0:0:
192,192,187686,1,0,0:0:0:0:
320,192,187841,1,8,0:0:0:0:
448,192,187841,1,0,0:0:0:0:
192,192,187995,1,0,0:0:0:0:
64,192,188150,128,4,189310:0:0:0:0:
320,192,188150,1,2,0:0:0:0:
448,192,188150,1,0,0:0:0:0:
64,192,189387,1,8,0:0:0:0:
192,192,189387,1,4,0:0:0:0:
448,192,189387,1,0,0:0:0:0:
192,192,189542,1,2,0:0:0:0:
192,192,189696,1,2,0:0:0:0:
64,192,189851,1,8,0:0:0:0:
320,192,189851,1,4,0:0:0:0:
448,192,189851,1,0,0:0:0:0:
320,192,190006,1,2,0:0:0:0:
320,192,190160,1,2,0:0:0:0:
64,192,190315,1,8,0:0:0:0:
192,192,190315,1,4,0:0:0:0:
448,192,190315,1,0,0:0:0:0:
