osu file format v14

[General]
AudioFilename: audio.mp3
AudioLeadIn: 0
PreviewTime: 126968
Countdown: 0
SampleSet: Soft
StackLeniency: 0.5
Mode: 0
LetterboxInBreaks: 0
WidescreenStoryboard: 1

[Editor]
Bookmarks: 406,7072,20406,47489,60406,73739,87072,114156,127072,140406,153739,182072,195406,208739
DistanceSpacing: 1
BeatDivisor: 4
GridSize: 4
TimelineZoom: 1

[Metadata]
Title:Wake up
TitleUnicode:Wake up
Artist:Dreamcatcher
ArtistUnicode:드림캐쳐
Creator:Natsu
Version:Normal
Source:
Tags:지유 수아 시연 한동 유현 다미 가현 Ji-U Su-A SiYeon Handong YooHyun DaMi Gahyeon Happy Face Entertainment Prequel 1st mini album kpop k-pop rock
BeatmapID:1389996
BeatmapSetID:645662

[Difficulty]
HPDrainRate:4
CircleSize:3.5
OverallDifficulty:4
ApproachRate:5
SliderMultiplier:1
SliderTickRate:1

[Events]
//Background and Video events
0,0,"KakaoTalk_20170814_093217496.png",0,0
//Break Periods
//Storyboard Layer 0 (Background)
//Storyboard Layer 1 (Fail)
//Storyboard Layer 2 (Pass)
//Storyboard Layer 3 (Foreground)
//Storyboard Sound Samples

[TimingPoints]
406,416.666666666667,4,2,1,25,1,0
2072,-100,4,2,1,30,0,0
3739,-100,4,2,1,35,0,0
5406,-100,4,2,1,40,0,0
6239,-100,4,2,1,50,0,0
20197,-100,4,2,1,40,0,0
47489,-100,4,2,1,50,0,1
58739,-100,4,2,1,50,0,0
59156,-100,4,2,1,5,0,0
59364,-100,4,2,1,30,0,0
60406,-100,4,2,1,50,0,1
73739,-100,4,2,1,50,0,0
87072,-100,4,2,1,40,0,0
112281,-100,4,2,1,25,0,0
114156,-100,4,2,1,50,0,1
125406,-100,4,2,1,50,0,0
125822,-100,4,2,1,5,0,0
126031,-100,4,2,1,30,0,0
127072,-100,4,2,1,50,0,1
139572,-100,4,2,1,50,0,0
140822,-100,4,2,1,35,0,0
143739,-100,4,2,1,50,0,0
144156,-100,4,2,1,35,0,0
147072,-100,4,2,1,50,0,0
147489,-100,4,2,1,35,0,0
150406,-100,4,2,1,50,0,0
150822,-100,4,2,1,35,0,0
152072,-100,4,2,1,50,0,0
152489,-100,4,2,1,5,0,0
153322,-100,4,2,1,20,0,0
153739,-100,4,2,1,25,0,0
178635,-100,4,2,1,10,0,0
180406,-100,4,2,1,25,0,0
182072,-100,4,2,1,50,0,0
188739,-100,4,2,1,50,0,1
195301,-100,4,2,1,5,0,1
195406,-100,4,2,1,50,0,0
208739,-100,4,2,1,5,0,0

[Colours]
Combo1 : 210,210,210
Combo2 : 63,94,152
Combo3 : 155,155,155
Combo4 : 124,154,186
SliderBorder : 91,163,234
SliderTrackOverride : 30,30,30

[HitObjects]
0,54,406,38,0,P|52:38|105:51,1,100,2|0,0:1|0:0,0:0:0:0:
144,73,1031,1,0,0:0:0:0:
144,73,1239,2,0,P|196:85|249:70,1,100,0|0,0:0|0:0,0:0:0:0:
324,19,2072,2,0,P|340:71|327:124,1,100,2|0,0:1|0:0,0:0:0:0:
304,157,2697,1,0,0:0:0:0:
304,157,2905,2,0,P|292:209|307:262,1,100,0|0,0:0|0:0,0:0:0:0:
357,337,3739,6,0,P|305:353|252:340,1,100,2|0,0:1|0:0,0:0:0:0:
223,321,4364,1,0,0:0:0:0:
223,321,4572,2,0,P|171:309|118:324,1,100,0|0,0:0|0:0,0:0:0:0:
39,369,5406,2,0,P|27:317|42:264,1,100,2|0,0:1|0:0,0:0:0:0:
116,210,6239,6,0,L|169:203,1,50,8|8,1:2|1:2,0:0:0:0:
194,244,6656,2,0,L|247:237,1,50,8|8,1:2|1:2,0:0:0:0:
301,238,7072,5,6,1:2:0:0:
301,238,7281,1,8,0:0:0:0:
301,238,7489,2,0,P|293:287|313:344,2,100,2|2|2,0:0|0:0|1:2,0:0:0:0:
386,182,8739,37,6,0:0:0:0:
386,182,8948,1,8,0:0:0:0:
386,182,9156,2,0,P|394:133|368:76,2,100,2|2|2,0:0|0:0|1:2,0:0:0:0:
302,150,10406,5,6,0:0:0:0:
302,150,10615,1,8,0:0:0:0:
302,150,10823,2,0,L|191:143,2,100,2|2|2,0:0|0:0|1:2,0:0:0:0:
371,237,12072,37,6,0:0:0:0:
371,237,12281,1,8,0:0:0:0:
371,237,12489,2,0,L|482:244,2,100,2|2|2,0:0|0:0|1:2,0:0:0:0:
279,255,13739,5,6,0:0:0:0:
279,255,13948,1,8,0:0:0:0:
279,255,14156,2,0,B|290:305|290:305|272:366,2,100,2|2|2,0:0|0:0|1:2,0:0:0:0:
210,195,15406,37,6,0:0:0:0:
210,195,15615,1,8,0:0:0:0:
210,195,15823,2,0,B|198:144|198:144|217:84,2,100,2|2|2,0:0|0:0|1:2,0:0:0:0:
318,207,17072,5,6,0:0:0:0:
318,207,17281,1,8,0:0:0:0:
318,207,17489,2,0,P|363:197|420:213,1,100,2|2,0:0|0:0,0:0:0:0:
490,294,18322,37,2,1:2:0:0:
490,294,18531,1,8,0:0:0:0:
490,294,18739,2,0,L|498:373,2,75,6|6|6,0:0|0:0|0:0,0:0:0:0:
334,168,20197,37,2,0:0:0:0:
334,168,20406,2,0,L|223:155,2,100,6|8|2,0:0|0:0|0:0,0:0:0:0:
388,177,21447,37,2,0:0:0:0:
388,177,21656,2,0,P|378:134|392:97,2,75,8|2|2,0:0|0:1|0:0,0:0:0:0:
422,212,22489,2,0,L|488:212,2,50,8|2|2,0:0|0:0|0:0,0:0:0:0:
321,212,23322,5,8,0:0:0:0:
231,168,23739,2,0,P|221:220|246:279,2,100,2|8|2,0:0|0:0|0:0,0:0:0:0:
272,139,24781,37,2,0:0:0:0:
272,139,24989,2,0,L|356:140,2,75,8|2|2,0:0|0:1|0:0,0:0:0:0:
227,116,25822,2,0,L|113:114,2,100,8|2|8,0:0|0:0|0:0,0:0:0:0:
196,211,27072,6,0,P|181:256|200:310,2,100,2|8|2,0:0|0:0|0:0,0:0:0:0:
237,182,28114,37,2,0:0:0:0:
237,182,28322,2,0,L|330:173,2,75,8|2|2,0:0|0:1|0:0,0:0:0:0:
194,155,29156,2,0,L|142:149,2,50,8|2|2,0:0|0:0|0:0,0:0:0:0:
267,86,29989,6,0,L|374:79,1,100,8|2,0:0|0:0,0:0:0:0:
416,75,30614,2,0,P|408:46|414:22,2,50,2|8|2,0:0|0:0|0:0,0:0:0:0:
436,120,31239,2,0,P|446:154|432:203,2,75,2|2|2,0:0|0:1|0:0,0:0:0:0:
386,115,32072,38,0,L|267:107,1,100,2|8,0:0|0:0,0:0:0:0:
200,55,32906,2,0,P|185:99|203:166,1,100,2|8,0:0|0:0,0:0:0:0:
256,229,33739,1,2,0:0:0:0:
331,163,34156,6,0,L|383:157,1,50,8|2,0:0|0:0,0:0:0:0:
430,155,34572,2,0,P|419:205|439:252,1,100,2|8,0:0|0:0,0:0:0:0:
390,338,35406,38,0,P|436:350|494:331,2,100,2|8|2,0:0|0:0|0:0,0:0:0:0:
354,312,36447,1,2,0:0:0:0:
354,312,36656,2,0,P|308:300|250:319,1,100,8|2,0:0|0:0,0:0:0:0:
162,342,37489,6,0,L|153:285,1,50,8|2,0:0|0:0,0:0:0:0:
104,286,37906,2,0,L|88:179,1,100,2|8,0:0|0:0,0:0:0:0:
187,167,38739,38,0,L|196:224,1,50,2|2,0:0|0:0,0:0:0:0:
245,223,39156,2,0,L|261:330,1,100,8|2,0:0|0:0,0:0:0:0:
352,360,39989,1,8,0:0:0:0:
429,295,40406,6,0,P|442:248|428:201,1,100,2|8,0:0|0:0,0:0:0:0:
385,175,41031,1,2,0:0:0:0:
385,175,41239,2,0,B|311:213|310:145|219:181,1,150,2|0,0:0|0:0,0:0:0:0:
155,228,42281,37,2,0:0:0:0:
155,228,42489,2,0,P|139:178|156:123,1,100,8|2,0:0|0:0,0:0:0:0:
196,114,43114,2,0,P|212:64|195:9,1,100,2|8,0:0|0:0,0:0:0:0:
110,62,43947,5,2,0:0:0:0:
110,62,44156,2,0,L|-9:51,2,100,8|2|8,0:0|0:0|0:0,0:0:0:0:
144,98,45197,38,0,L|263:87,2,100,2|8|8,0:0|0:0|0:0,0:0:0:0:
112,136,46239,2,0,P|107:163|113:195,1,50,8|2,0:0|0:0,0:0:0:0:
148,216,46656,2,0,P|161:265|142:317,1,100,2|2,0:0|0:0,0:0:0:0:
234,358,47489,38,0,L|348:349,1,100,6|2,1:2|1:2,0:0:0:0:
388,351,48114,1,8,1:2:0:0:
388,351,48322,2,0,L|398:283,1,50,2|8,1:2|1:2,0:0:0:0:
406,252,48739,38,0,P|444:261|486:252,2,75,6|0|8,1:2|1:2|1:2,0:0:0:0:
368,218,49572,2,0,P|320:205|273:219,1,100,6|2,1:2|1:2,0:0:0:0:
195,282,50406,1,6,1:2:0:0:
151,202,50822,5,2,1:2:0:0:
151,202,51031,1,8,1:2:0:0:
151,202,51239,1,6,1:2:0:0:
99,291,51656,1,2,1:2:0:0:
99,291,51865,1,8,1:2:0:0:
99,291,52072,1,6,1:2:0:0:
207,290,52489,37,2,1:2:0:0:
207,290,52698,1,8,1:2:0:0:
207,290,52906,2,0,P|243:281|293:297,2,75,12|8|0,1:2|1:2|0:0,0:0:0:0:
157,298,53739,6,0,P|107:314|62:300,2,100,6|2|6,1:2|1:2|1:2,0:0:0:0:
183,255,54781,1,8,1:2:0:0:
183,255,54989,2,0,L|189:185,1,50,2|8,1:2|1:2,0:0:0:0:
190,155,55406,38,0,P|152:164|112:153,2,75,6|0|0,1:2|1:2|0:0,0:0:0:0:
239,155,56239,2,0,P|277:164|317:153,2,75,6|0|8,1:2|1:2|1:2,0:0:0:0:
211,113,57072,6,0,P|222:61|207:15,2,100,6|2|6,1:2|1:2|1:2,0:0:0:0:
164,132,58114,2,0,L|52:132,1,100,8|8,1:2|1:2,0:0:0:0:
18,152,58739,38,0,P|48:212|4:294,1,150,6|2,2:1|2:1,0:0:0:0:
261,339,60406,6,0,P|307:326|370:343,1,100,6|2,0:0|0:0,0:0:0:0:
410,353,61031,1,8,0:0:0:0:
410,353,61239,2,0,L|414:243,1,100,2|2,0:0|1:2,0:0:0:0:
415,153,62072,37,6,0:0:0:0:
337,211,62489,1,2,0:0:0:0:
337,211,62697,1,8,0:0:0:0:
337,211,62906,2,0,P|296:219|252:209,2,75,2|2|8,0:0|0:0|0:0,0:0:0:0:
376,179,63739,6,0,P|384:130|367:81,1,100,6|2,1:2|1:2,0:0:0:0:
326,67,64364,1,8,1:2:0:0:
326,67,64572,2,0,L|245:61,2,75,2|2|8,0:0|0:0|0:0,0:0:0:0:
376,68,65406,38,0,L|457:58,2,75,6|2|8,0:0|0:0|0:0,0:0:0:0:
353,112,66239,2,0,P|360:149|351:186,2,75,10|8|8,1:2|1:2|1:2,0:0:0:0:
323,71,67072,1,6,1:2:0:0:
260,148,67489,6,0,P|211:162|152:146,1,100,6|2,0:0|0:0,0:0:0:0:
120,141,68114,1,8,1:2:0:0:
120,141,68322,2,0,L|106:198,1,50,2|8,1:2|1:2,0:0:0:0:
145,223,68739,2,0,L|126:332,1,100,6|2,1:2|1:2,0:0:0:0:
121,375,69364,37,8,1:2:0:0:
121,375,69572,2,0,P|85:362|42:374,2,75,6|0|0,0:0|0:0|0:0,0:0:0:0:
165,361,70406,2,0,P|213:371|267:353,1,100,6|2,1:2|1:2,0:0:0:0:
299,325,71031,5,8,1:2:0:0:
299,325,71239,2,0,L|299:223,1,100,2|2,0:0|0:0,0:0:0:0:
298,179,71864,1,8,0:0:0:0:
298,179,72072,2,0,P|244:186|212:170,2,75,6|6|6,0:0|0:0|0:0,0:0:0:0:
424,98,73322,1,8,2:1:0:0:
476,196,73739,37,6,0:0:0:0:
476,196,73948,1,8,0:0:0:0:
476,196,74156,2,0,P|484:245|464:302,2,100,2|2|2,0:0|0:0|1:2,0:0:0:0:
392,161,75406,5,6,0:0:0:0:
392,161,75615,1,8,0:0:0:0:
392,161,75823,2,0,P|384:112|404:55,2,100,2|2|2,0:0|0:0|1:2,0:0:0:0:
434,263,77073,37,6,0:0:0:0:
434,263,77282,1,8,0:0:0:0:
434,263,77490,2,0,L|328:271,2,100,2|2|2,0:0|0:0|1:2,0:0:0:0:
388,187,78739,5,6,0:0:0:0:
388,187,78948,1,8,0:0:0:0:
388,187,79156,2,0,L|277:194,2,100,2|10|0,0:0|1:2|0:0,0:0:0:0:
471,128,80406,37,14,1:2:0:0:
471,128,80615,1,8,0:0:0:0:
471,128,80823,2,0,B|482:78|482:78|464:17,2,100,2|2|2,0:0|0:0|1:2,0:0:0:0:
415,213,82073,5,6,0:0:0:0:
415,213,82282,1,8,0:0:0:0:
415,213,82490,2,0,B|403:264|403:264|422:324,2,100,2|2|2,0:0|0:0|1:2,0:0:0:0:
457,122,83739,37,2,0:0:0:0:
367,77,84156,1,2,0:0:0:0:
326,168,84572,1,2,0:0:0:0:
415,213,84989,1,2,0:0:0:0:
457,122,85406,6,0,L|475:64,1,50,6|2,0:0|0:0,0:0:0:0:
423,85,85822,2,0,L|404:32,1,50,2|6,0:0|0:0,0:0:0:0:
377,79,86239,2,0,L|331:54,1,50,2|2,0:0|0:0,0:0:0:0:
333,105,86656,1,6,0:0:0:0:
371,197,87073,6,0,P|388:248|366:299,2,100,6|0|0,0:0|0:0|0:0,0:0:0:0:
326,192,88114,5,2,0:0:0:0:
326,192,88323,2,0,P|283:202|246:188,2,75,8|0|0,0:0|0:0|0:0,0:0:0:0:
365,161,89156,2,0,L|360:92,2,50,8|0|2,0:0|0:0|0:0,0:0:0:0:
380,259,89989,37,8,0:0:0:0:
337,349,90406,2,0,P|389:359|448:334,2,100,2|8|2,0:0|0:0|0:0,0:0:0:0:
301,323,91447,5,2,0:0:0:0:
301,323,91656,2,0,P|262:317|226:325,2,75,8|2|2,0:0|0:1|0:0,0:0:0:0:
326,280,92489,2,0,P|311:227|327:178,2,100,8|2|8,0:0|0:0|0:0,0:0:0:0:
413,231,93739,38,0,P|428:276|409:330,2,100,2|8|2,0:0|0:0|0:0,0:0:0:0:
394,184,94781,5,2,0:0:0:0:
394,184,94989,2,0,L|473:174,2,75,8|2|2,0:0|0:1|0:0,0:0:0:0:
343,184,95823,2,0,L|291:178,2,50,8|0|0,0:0|0:0|0:0,0:0:0:0:
356,283,96656,38,0,L|249:272,1,100,8|2,0:0|0:0,0:0:0:0:
206,267,97281,2,0,P|214:296|208:320,2,50,2|0|2,0:0|0:0|0:0,0:0:0:0:
186,222,97906,2,0,P|176:188|190:139,2,75,2|0|0,0:0|0:0|0:0,0:0:0:0:
234,233,98739,6,0,L|340:232,1,100,2|8,0:0|0:0,0:0:0:0:
386,146,99573,2,0,L|279:146,1,100,2|8,0:0|0:0,0:0:0:0:
185,144,100406,1,2,0:0:0:0:
153,242,100822,37,8,0:0:0:0:
153,242,101031,1,2,0:0:0:0:
153,242,101239,1,2,0:0:0:0:
257,227,101656,1,8,0:0:0:0:
257,227,101864,1,2,0:0:0:0:
257,227,102072,1,2,0:0:0:0:
210,320,102489,5,8,0:0:0:0:
210,320,102697,1,2,0:0:0:0:
210,320,102906,1,2,0:0:0:0:
320,332,103322,1,8,0:0:0:0:
320,332,103531,1,8,0:0:0:0:
320,332,103739,2,0,P|365:319|431:343,1,100,2|8,0:0|0:0,0:0:0:0:
469,347,104364,37,2,0:0:0:0:
469,347,104572,2,0,L|475:284,1,50,2|2,0:0|0:0,0:0:0:0:
478,247,104989,2,0,L|484:184,1,50,8|2,0:0|0:0,0:0:0:0:
488,147,105406,6,0,P|434:161|380:139,2,100,2|0|2,0:0|0:0|0:0,0:0:0:0:
445,70,106656,1,8,0:0:0:0:
445,70,106864,1,2,0:0:0:0:
445,70,107073,2,0,P|398:57|351:71,2,100,2|8|2,0:0|0:0|0:0,0:0:0:0:
493,82,108114,38,0,L|511:23,2,50,2|8|2,0:0|0:0|0:0,0:0:0:0:
460,120,108739,2,0,P|449:164|467:225,1,100,2|8,0:0|0:0,0:0:0:0:
505,306,109572,6,0,P|518:343|505:387,2,75,2|2|8,0:0|0:1|0:0,0:0:0:0:
455,299,110406,2,0,B|379:324|375:272|291:303,1,150,2|2,0:0|0:0,0:0:0:0:
209,318,111447,37,8,0:0:0:0:
209,318,111656,2,0,L|198:266,1,50,8|8,0:0|0:0,0:0:0:0:
155,243,112072,2,0,L|135:141,1,100,8|2,0:0|0:1,0:0:0:0:
481,43,114156,38,0,L|367:52,1,100,6|2,1:2|1:2,0:0:0:0:
335,53,114781,1,8,1:2:0:0:
335,53,114989,2,0,L|325:121,1,50,2|8,1:2|1:2,0:0:0:0:
309,149,115406,38,0,P|271:140|229:149,2,75,6|0|8,1:2|1:2|1:2,0:0:0:0:
347,183,116239,2,0,P|395:196|442:182,1,100,4|2,1:2|1:2,0:0:0:0:
504,103,117073,1,6,1:2:0:0:
432,48,117489,5,2,1:2:0:0:
432,48,117698,1,8,1:2:0:0:
432,48,117906,1,6,1:2:0:0:
407,149,118323,1,2,1:2:0:0:
407,149,118532,1,8,1:2:0:0:
407,149,118739,1,6,1:2:0:0:
350,79,119156,37,2,1:2:0:0:
350,79,119365,1,8,1:2:0:0:
350,79,119573,2,0,P|314:70|264:86,2,75,12|0|0,1:2|0:0|0:0,0:0:0:0:
396,96,120406,6,0,P|446:112|491:98,2,100,6|2|6,1:2|1:2|1:2,0:0:0:0:
368,137,121448,1,8,1:2:0:0:
368,137,121656,2,0,L|361:207,1,50,2|8,1:2|1:2,0:0:0:0:
357,236,122073,38,0,P|395:227|435:238,2,75,6|0|0,1:2|0:0|0:0,0:0:0:0:
308,236,122906,2,0,P|270:227|230:238,2,75,6|0|8,1:2|1:2|1:2,0:0:0:0:
335,278,123739,6,0,P|324:330|339:376,2,100,6|2|6,1:2|1:2|1:2,0:0:0:0:
368,240,124781,2,0,L|480:240,1,100,8|8,1:2|1:2,0:0:0:0:
499,200,125406,38,0,P|469:140|513:58,1,150,6|2,0:1|0:1,0:0:0:0:
250,92,127073,6,0,P|204:105|141:88,1,100,6|2,0:0|0:0,0:0:0:0:
101,78,127698,1,8,0:0:0:0:
101,78,127906,2,0,P|54:65|1:84,1,100,2|2,0:0|1:2,0:0:0:0:
57,166,128739,37,6,0:0:0:0:
164,167,129156,1,2,0:0:0:0:
164,167,129364,1,8,0:0:0:0:
164,167,129573,2,0,P|156:208|166:252,2,75,2|2|8,0:0|0:0|0:0,0:0:0:0:
212,153,130406,6,0,P|258:163|313:140,1,100,6|2,1:2|1:2,0:0:0:0:
328,101,131031,1,8,1:2:0:0:
328,101,131239,2,0,L|334:20,2,75,6|2|8,0:0|0:0|0:0,0:0:0:0:
356,142,132073,38,0,P|388:135|438:150,2,75,6|2|8,0:0|0:0|0:0,0:0:0:0:
306,144,132906,2,0,P|273:150|224:136,2,75,10|8|8,1:2|1:2|1:2,0:0:0:0:
324,97,133739,1,6,1:2:0:0:
410,46,134156,6,0,P|424:95|408:154,1,100,6|2,0:0|0:0,0:0:0:0:
382,180,134781,1,8,1:2:0:0:
382,180,134989,2,0,P|376:203|384:232,1,50,2|8,1:2|1:2,0:0:0:0:
400,274,135406,2,0,L|290:266,1,100,6|2,1:2|1:2,0:0:0:0:
254,264,136031,37,8,1:2:0:0:
254,264,136239,2,0,P|264:301|254:337,2,75,6|2|8,0:0|0:0|0:0,0:0:0:0:
221,225,137073,2,0,P|211:177|229:123,1,100,6|2,1:2|1:2,0:0:0:0:
267,101,137698,5,8,1:2:0:0:
267,101,137906,2,0,L|369:101,1,100,2|2,0:0|0:0,0:0:0:0:
421,104,138531,1,8,0:0:0:0:
421,104,138739,2,0,P|414:50|430:18,2,75,6|6|6,0:0|0:0|0:0,0:0:0:0:
457,137,139572,2,0,L|345:141,1,100,2|8,0:0|0:0,0:0:0:0:
256,144,140406,37,6,0:3:0:0:
245,192,140614,1,6,0:3:0:0:
234,240,140822,6,0,P|183:255|132:238,2,100,8|2|2,0:0|0:0|1:2,0:0:0:0:
316,183,142072,1,2,0:0:0:0:
327,282,142489,1,2,0:0:0:0:
234,239,142906,1,2,0:0:0:0:
316,183,143322,1,2,1:2:0:0:
405,227,143739,37,6,0:1:0:0:
453,216,143947,1,6,0:1:0:0:
501,205,144155,6,0,P|516:154|499:103,2,100,2|2|2,0:0|0:0|1:2,0:0:0:0:
405,227,145406,1,2,0:0:0:0:
471,301,145822,1,2,0:0:0:0:
372,319,146239,2,0,L|310:330,1,50,4|4,3:0|3:0,0:0:0:0:
291,288,146656,2,0,L|226:296,1,50,14|12,3:0|3:0,0:0:0:0:
192,301,147072,37,6,0:1:0:0:
144,290,147280,1,6,0:1:0:0:
96,279,147488,6,0,P|81:228|98:177,2,100,6|6|6,0:3|0:3|0:3,0:0:0:0:
192,301,148739,1,6,0:3:0:0:
256,224,149156,1,6,0:3:0:0:
294,316,149572,1,6,0:3:0:0:
192,301,149989,1,6,0:3:0:0:
256,224,150406,37,6,0:1:0:0:
305,215,150614,1,6,0:1:0:0:
354,206,150822,6,0,P|359:182|354:158,1,50,2|8,0:0|0:0,0:0:0:0:
316,126,151239,2,0,P|291:118|263:123,1,50,6|12,3:0|3:0,0:0:0:0:
224,148,151656,2,0,P|194:150|173:142,1,50,6|0,3:0|0:0,0:0:0:0:
125,131,152072,38,0,P|38:265|176:205,1,400,6|6,0:1|0:1,0:0:0:0:
366,60,154781,38,0,L|369:114,1,50,2|2,0:1|0:1,0:0:0:0:
369,159,155197,2,0,P|329:147|269:164,1,100,2|2,0:1|0:1,0:0:0:0:
227,249,156031,2,0,P|267:261|327:244,1,100,2|0,0:1|0:0,0:0:0:0:
369,159,156864,38,0,L|378:93,1,50,2|2,0:1|0:1,0:0:0:0:
474,93,157489,2,0,L|467:142,1,50,2|2,0:1|0:1,0:0:0:0:
452,241,158114,1,2,0:1:0:0:
369,298,158531,2,0,B|275:342|270:253|167:304,1,200,2|0,0:1|0:0,0:0:0:0:
93,355,159781,2,0,L|80:202,1,150,2|2,0:1|0:1,0:0:0:0:
223,66,161239,6,0,L|234:121,1,50,2|2,0:1|0:1,0:0:0:0:
248,167,161656,1,2,0:1:0:0:
248,167,161864,2,0,P|299:149|356:167,1,100,2|2,0:1|0:1,0:0:0:0:
422,219,162697,2,0,L|433:274,1,50,2|0,0:1|0:0,0:0:0:0:
351,327,163322,37,2,0:1:0:0:
351,327,163530,2,0,P|300:309|243:327,1,100,2|2,0:1|0:1,0:0:0:0:
161,351,164364,2,0,P|179:300|161:243,1,100,2|2,0:1|0:1,0:0:0:0:
110,175,165197,6,0,P|100:126|118:80,1,100,2|2,0:1|0:1,0:0:0:0:
214,50,166031,2,0,B|287:86|290:21|378:62,1,150,2|0,0:1|0:0,0:0:0:0:
444,106,167072,38,0,L|458:223,1,100,2|0,0:1|0:0,0:0:0:0:
368,156,167906,2,0,L|382:273,1,100,2|0,0:1|0:0,0:0:0:0:
293,205,168739,2,0,L|312:373,1,150,2|0,0:1|0:0,0:0:0:0:
209,355,169781,6,0,P|180:350|148:358,1,50,2|2,0:1|0:1,0:0:0:0:
111,366,170197,2,0,L|103:266,1,100,2|2,0:1|0:1,0:0:0:0:
96,166,171031,2,0,P|164:184|251:140,1,150,2|2,0:1|0:1,0:0:0:0:
410,59,172489,38,0,P|405:83|410:107,1,50,2|2,0:1|0:1,0:0:0:0:
439,148,172906,2,0,P|443:172|438:196,1,50,2|2,0:1|0:1,0:0:0:0:
425,245,173322,2,0,P|419:269|424:293,1,50,2|2,0:1|0:1,0:0:0:0:
436,342,173739,2,0,B|338:295|340:385|238:330,1,200,2|0,0:1|0:0,0:0:0:0:
172,262,174989,2,0,P|158:208|176:164,1,100,2|2,0:1|0:1,0:0:0:0:
365,112,176239,6,0,P|392:117|433:105,2,50,2|2|2,0:1|0:1|0:1,0:0:0:0:
351,160,176864,2,0,L|359:282,1,100,2|2,0:1|0:1,0:0:0:0:
275,317,177697,2,0,L|267:195,1,100,2|2,0:1|0:1,0:0:0:0:
180,169,178531,38,0,P|62:185|195:99,1,450,2|2,0:1|0:1,0:0:0:0:
22,363,182072,6,0,L|24:261,1,100,2|2,0:1|0:1,0:0:0:0:
27,162,182906,2,0,L|29:60,1,100,2|2,0:1|0:1,0:0:0:0:
126,80,183739,6,0,P|151:87|175:83,1,50,0|0,1:2|1:2,0:0:0:0:
224,72,184156,2,0,P|248:68|272:74,1,50,0|0,1:2|1:2,0:0:0:0:
320,87,184572,2,0,P|344:93|368:89,1,50,0|2,1:2|1:2,0:0:0:0:
416,72,184989,1,8,1:1:0:0:
501,20,185406,2,0,P|513:65|497:128,1,100,12|2,0:0|0:0,0:0:0:0:
467,152,186031,5,2,1:2:0:0:
467,152,186239,2,0,L|388:164,2,75,12|12|2,0:0|0:0|0:0,0:0:0:0:
503,185,187072,2,0,P|513:219|498:270,2,75,6|6|6,0:0|0:0|0:0,0:0:0:0:
467,152,187906,2,0,P|457:118|472:67,2,75,12|6|2,0:0|0:0|0:1,0:0:0:0:
503,185,188739,37,6,1:2:0:0:
420,241,189156,2,0,P|371:252|323:241,1,100,6|2,1:2|0:0,0:0:0:0:
284,221,189781,1,8,1:2:0:0:
284,221,189989,2,0,P|253:218|223:225,1,50,2|8,1:2|1:2,0:0:0:0:
186,237,190406,2,0,L|181:122,1,100,6|2,1:2|1:2,0:0:0:0:
185,90,191031,5,8,1:2:0:0:
185,90,191239,2,0,P|144:101|104:92,2,75,6|0|0,0:0|0:0|0:0,0:0:0:0:
223,65,192072,2,0,P|272:54|326:69,1,100,6|2,1:2|1:2,0:0:0:0:
368,93,192696,37,8,1:2:0:0:
368,93,192906,2,0,L|361:208,1,100,2|2,0:0|0:0,0:0:0:0:
365,248,193531,1,8,0:0:0:0:
365,248,193739,2,0,P|402:242|449:254,2,75,6|6|6,0:0|0:0|0:0,0:0:0:0:
225,302,194989,1,8,0:1:0:0:
156,244,195406,5,6,0:0:0:0:
156,244,195615,1,8,0:0:0:0:
156,244,195823,2,0,P|148:195|168:138,2,100,2|2|2,0:0|0:0|1:2,0:0:0:0:
265,250,197073,37,6,0:0:0:0:
265,250,197282,1,8,0:0:0:0:
265,250,197490,2,0,P|273:201|253:144,2,100,2|2|0,0:0|0:0|0:0,0:0:0:0:
292,357,198740,5,6,0:0:0:0:
292,357,198947,1,8,0:0:0:0:
292,357,199157,2,0,L|398:365,2,100,2|2|2,0:0|0:0|1:2,0:0:0:0:
237,288,200406,37,6,0:0:0:0:
237,288,200615,1,8,0:0:0:0:
237,288,200823,2,0,L|126:295,2,100,2|10|0,0:0|1:2|0:0,0:0:0:0:
305,214,202073,5,14,1:2:0:0:
305,214,202282,1,8,0:0:0:0:
305,214,202490,2,0,B|294:164|294:164|312:103,2,100,2|2|2,0:0|0:0|1:2,0:0:0:0:
403,265,203739,37,6,0:0:0:0:
403,265,203948,1,8,0:0:0:0:
403,265,204156,2,0,B|414:315|414:315|396:376,2,100,2|2|2,0:0|0:0|1:2,0:0:0:0:
305,241,205406,5,2,0:0:0:0:
215,196,205823,1,2,0:0:0:0:
174,287,206239,1,2,0:0:0:0:
263,332,206656,1,2,0:0:0:0:
305,241,207073,38,0,L|323:183,1,50,6|2,0:0|0:0,0:0:0:0:
271,204,207489,2,0,L|252:151,1,50,2|6,0:0|0:0,0:0:0:0:
225,198,207906,2,0,L|179:173,1,50,2|2,0:0|0:0,0:0:0:0:
181,224,208322,2,0,P|160:265|170:320,1,100,6|0,0:0|0:0,0:0:0:0:
