osu file format v14

[General]
AudioFilename: audio.mp3
AudioLeadIn: 0
PreviewTime: 126968
Countdown: 0
SampleSet: Soft
StackLeniency: 0.5
Mode: 0
LetterboxInBreaks: 0
WidescreenStoryboard: 1

[Editor]
Bookmarks: 406,7072,20406,47489,60406,73739,87072,114156,127072,140406,153739,182072,195406,208739
DistanceSpacing: 1.3
BeatDivisor: 4
GridSize: 4
TimelineZoom: 1

[Metadata]
Title:Wake up
TitleUnicode:Wake up
Artist:Dreamcatcher
ArtistUnicode:드림캐쳐
Creator:Natsu
Version:Hard
Source:
Tags:지유 수아 시연 한동 유현 다미 가현 Ji-U Su-A SiYeon Handong YooHyun DaMi Gahyeon Happy Face Entertainment Prequel 1st mini album kpop k-pop rock
BeatmapID:1389366
BeatmapSetID:645662

[Difficulty]
HPDrainRate:5
CircleSize:4
OverallDifficulty:6
ApproachRate:7.5
SliderMultiplier:1.4
SliderTickRate:1

[Events]
//Background and Video events
0,0,"KakaoTalk_20170814_093217496.png",0,0
//Break Periods
//Storyboard Layer 0 (Background)
//Storyboard Layer 1 (Fail)
//Storyboard Layer 2 (Pass)
//Storyboard Layer 3 (Foreground)
//Storyboard Sound Samples

[TimingPoints]
406,416.666666666667,4,2,1,25,1,0
406,-125,4,2,1,25,0,0
2072,-125,4,2,1,30,0,0
3739,-125,4,2,1,35,0,0
5406,-125,4,2,1,40,0,0
6239,-125,4,2,1,50,0,0
7072,-100,4,2,1,50,0,0
19364,-125,4,2,1,50,0,0
19781,-125,4,2,1,5,0,0
20197,-111.111111111111,4,2,1,40,0,0
47489,-90.9090909090909,4,2,1,50,0,1
58739,-125,4,2,1,50,0,0
59156,-125,4,2,1,5,0,0
59364,-125,4,2,1,30,0,0
60301,-125,4,2,1,5,0,0
60406,-90.9090909090909,4,2,1,50,0,1
72072,-100,4,2,1,50,0,1
72697,-125,4,2,1,50,0,1
73114,-166.666666666667,4,2,1,5,0,1
73322,-100,4,2,1,50,0,1
73635,-100,4,2,1,5,0,1
73739,-100,4,2,1,50,0,0
83739,-105.263157894737,4,2,1,50,0,0
87072,-111.111111111111,4,2,1,40,0,0
112281,-111.111111111111,4,2,1,25,0,0
113114,-111.111111111111,4,2,1,40,0,0
114156,-90.9090909090909,4,2,1,50,0,1
125406,-125,4,2,1,50,0,0
125822,-166.666666666667,4,2,1,5,0,0
126031,-166.666666666667,4,2,1,30,0,0
127072,-90.909090909091,4,2,1,50,0,1
138739,-100,4,2,1,50,0,1
139572,-100,4,2,1,50,0,0
140822,-100,4,2,1,35,0,0
143739,-100,4,2,1,50,0,0
144156,-100,4,2,1,35,0,0
147072,-100,4,2,1,50,0,0
147489,-100,4,2,1,35,0,0
150406,-100,4,2,1,50,0,0
150822,-100,4,2,1,35,0,0
152072,-100,4,2,1,50,0,0
152489,-100,4,2,1,5,0,0
153322,-100,4,2,1,20,0,0
153739,-166.666666666667,4,2,1,25,0,0
178635,-166.666666666667,4,2,1,10,0,0
180406,-200,4,2,1,25,0,0
182072,-142.857142857143,4,2,1,50,0,0
183739,-125,4,2,1,50,0,0
184156,-117.647058823529,4,2,1,50,0,0
184572,-111.111111111111,4,2,1,50,0,0
184989,-100,4,2,1,50,0,0
185197,-100,4,2,1,5,0,0
185406,-90.9090909090909,4,2,1,50,0,0
188739,-90.9090909090909,4,2,1,50,0,1
193739,-100,4,2,1,50,0,1
195301,-100,4,2,1,5,0,1
195406,-100,4,2,1,50,0,0
205406,-105.263157894737,4,2,1,50,0,0
208739,-105.263157894737,4,2,1,5,0,0

[Colours]
Combo1 : 210,210,210
Combo2 : 63,94,152
Combo3 : 155,155,155
Combo4 : 124,154,186
SliderBorder : 91,163,234
SliderTrackOverride : 30,30,30

[HitObjects]
98,126,406,38,0,P|71:120|39:128,2,56,2|0|0,0:1|0:0|0:0,0:0:0:0:
71,194,1031,2,0,P|65:221|73:253,2,56,0|0|0,0:0|0:0|0:0,0:0:0:0:
137,224,1656,2,0,P|164:230|196:222,1,56,0|0,0:0|0:0,0:0:0:0:
260,200,2072,6,0,P|287:194|319:202,2,56,2|0|0,0:1|0:0|0:0,0:0:0:0:
287,268,2697,2,0,P|293:295|285:327,2,56,0|0|0,0:0|0:0|0:0,0:0:0:0:
221,298,3322,2,0,P|194:304|162:296,1,56,0|0,0:0|0:0,0:0:0:0:
193,230,3739,38,0,P|199:203|191:171,2,56,2|0|0,0:1|0:0|0:0,0:0:0:0:
125,203,4364,2,0,P|98:197|66:205,2,56,0|0|0,0:0|0:0|0:0,0:0:0:0:
94,269,4989,2,0,P|88:296|96:328,1,56,0|0,0:0|0:0,0:0:0:0:
163,297,5406,6,0,P|190:291|222:299,1,56,2|0,0:1|0:0,0:0:0:0:
281,331,5822,2,0,P|308:337|340:329,1,56,0|0,0:0|0:0,0:0:0:0:
403,281,6239,6,0,L|411:236,3,28,8|8|8|8,1:2|1:2|1:2|1:2,0:0:0:0:
411,217,6656,2,0,L|403:170,3,28,8|0|8|8,1:2|0:0|1:2|1:2,0:0:0:0:
386,161,7072,5,6,1:2:0:0:
296,144,7281,1,8,0:0:0:0:
327,229,7489,2,0,P|333:263|328:297,1,70,2|8,0:0|0:0,0:0:0:0:
247,341,7906,2,0,P|240:306|245:272,1,70,2|8,0:0|1:2,0:0:0:0:
327,229,8322,2,0,L|426:219,1,70,2|8,1:2|1:2,0:0:0:0:
487,218,8739,37,6,0:0:0:0:
432,290,8947,1,8,0:0:0:0:
487,218,9155,2,0,P|494:185|484:151,1,70,2|8,0:0|0:0,0:0:0:0:
407,100,9572,2,0,P|373:92|339:102,1,70,2|8,0:0|1:2,0:0:0:0:
261,148,9989,2,0,P|253:181|263:215,1,70,2|8,1:2|1:2,0:0:0:0:
333,272,10406,5,6,0:0:0:0:
248,306,10614,1,8,0:0:0:0:
333,339,10822,2,0,P|340:300|329:265,1,70,2|8,0:0|0:0,0:0:0:0:
247,238,11239,2,0,P|240:277|251:312,1,70,2|8,0:0|1:2,0:0:0:0:
332,271,11656,2,0,P|339:232|328:197,1,70,2|8,1:2|1:2,0:0:0:0:
270,135,12072,37,6,0:0:0:0:
242,222,12281,1,8,0:0:0:0:
331,203,12489,2,0,P|365:196|399:201,1,70,2|8,0:0|0:0,0:0:0:0:
436,284,12906,2,0,P|401:290|367:285,1,70,2|8,0:0|1:2,0:0:0:0:
331,203,13322,2,0,L|321:104,1,70,2|8,1:2|1:2,0:0:0:0:
239,98,13739,5,6,0:0:0:0:
314,47,13947,1,8,0:0:0:0:
239,98,14155,2,0,P|231:131|241:165,1,70,2|8,0:0|0:0,0:0:0:0:
291,240,14572,2,0,P|324:247|358:237,1,70,2|8,0:0|1:2,0:0:0:0:
440,187,14989,2,0,P|447:153|437:119,1,70,2|8,1:2|1:2,0:0:0:0:
351,89,15406,37,6,0:0:0:0:
264,121,15614,1,8,0:0:0:0:
351,156,15822,2,0,P|358:117|347:82,1,70,2|8,0:0|0:0,0:0:0:0:
267,53,16239,2,0,P|257:87|264:121,1,70,2|8,0:0|1:2,0:0:0:0:
351,156,16656,2,0,L|422:153,1,70,2|8,1:2|1:2,0:0:0:0:
492,208,17072,5,6,0:0:0:0:
405,236,17280,1,8,0:0:0:0:
492,275,17488,2,0,P|499:236|488:201,1,70,2|8,0:0|0:0,0:0:0:0:
405,236,17905,2,0,P|398:275|409:310,1,70,2|8,0:0|0:0,0:0:0:0:
492,342,18322,2,0,P|499:303|488:268,1,70,2|8,1:2|0:0,0:0:0:0:
459,188,18739,37,6,0:0:0:0:
348,107,19051,1,6,0:0:0:0:
336,239,19364,2,0,P|287:258|215:233,1,112,6|0,0:0|0:0,0:0:0:0:
55,197,20197,37,2,0:0:0:0:
55,197,20301,1,2,0:0:0:0:
55,197,20406,2,0,L|61:270,1,62.9999980773926,6|2,0:0|0:0,0:0:0:0:
73,340,20822,2,0,P|128:316|196:330,1,125.999996154785,8|2,0:0|0:0,0:0:0:0:
265,362,21447,37,2,0:0:0:0:
248,281,21656,2,0,L|251:250,1,31.4999990386963,8|2,0:0|0:1,0:0:0:0:
264,169,21968,2,0,P|307:185|355:172,1,94.499997116089,2|2,0:1|0:0,0:0:0:0:
312,101,22489,5,8,0:0:0:0:
230,94,22697,1,2,0:0:0:0:
264,169,22906,1,2,0:0:0:0:
264,169,23322,38,0,P|273:199|264:233,1,62.9999980773926,8|8,0:0|0:0,0:0:0:0:
226,301,23739,2,0,P|219:331|228:361,1,62.9999980773926,2|2,0:0|0:0,0:0:0:0:
303,328,24156,2,0,P|363:312|432:334,1,125.999996154785,8|2,0:0|0:0,0:0:0:0:
493,371,24781,5,2,0:0:0:0:
494,288,24990,2,0,L|495:251,1,31.4999990386963,8|2,0:0|0:1,0:0:0:0:
489,175,25301,2,0,P|442:190|390:174,1,94.499997116089,2|2,0:1|0:0,0:0:0:0:
330,135,25822,37,8,0:0:0:0:
324,216,26030,1,2,0:0:0:0:
255,169,26239,2,0,P|190:154|130:173,1,125.999996154785,2|8,0:0|0:0,0:0:0:0:
134,170,27072,6,0,L|139:245,1,62.9999980773926,2|2,0:0|0:0,0:0:0:0:
147,314,27489,2,0,P|211:328|272:310,1,125.999996154785,8|2,0:0|0:0,0:0:0:0:
338,270,28114,37,2,0:0:0:0:
267,228,28322,2,0,L|262:196,1,31.4999990386963,8|2,0:0|0:1,0:0:0:0:
260,115,28635,2,0,P|308:127|358:107,1,94.499997116089,2|2,0:1|0:0,0:0:0:0:
424,80,29156,5,8,0:0:0:0:
414,161,29364,1,2,0:0:0:0:
404,242,29572,1,2,0:0:0:0:
404,242,29989,2,0,P|436:236|479:251,2,62.9999980773926,8|8|2,0:0|0:0|0:0,0:0:0:0:
325,267,30614,37,2,0:0:0:0:
249,297,30822,2,0,P|242:266|248:235,1,62.9999980773926,8|2,0:0|0:0,0:0:0:0:
311,182,31239,2,0,P|322:139|307:89,2,94.499997116089,2|2|2,0:0|0:1|0:0,0:0:0:0:
248,235,32072,2,0,L|113:250,1,125.999996154785,2|8,0:0|0:0,0:0:0:0:
122,248,32906,6,0,P|127:215|117:185,1,62.9999980773926,2|8,0:0|0:0,0:0:0:0:
57,132,33322,2,0,P|48:102|53:71,1,62.9999980773926,8|2,0:0|0:0,0:0:0:0:
114,16,33739,1,2,0:0:0:0:
114,16,34156,37,8,0:0:0:0:
124,97,34364,1,2,0:0:0:0:
190,49,34572,2,0,P|246:28|316:51,1,125.999996154785,2|8,0:0|0:0,0:0:0:0:
307,44,35406,6,0,P|299:76|311:114,1,62.9999980773926,2|2,0:0|0:0,0:0:0:0:
366,159,35822,2,0,P|372:189|364:219,1,62.9999980773926,8|2,0:0|0:0,0:0:0:0:
307,278,36239,2,0,P|299:308|305:338,1,62.9999980773926,2|2,0:0|0:0,0:0:0:0:
228,366,36656,2,0,L|79:358,1,125.999996154785,8|2,0:0|0:0,0:0:0:0:
102,359,37489,37,8,0:0:0:0:
32,315,37697,1,2,0:0:0:0:
103,274,37906,2,0,P|120:214|101:154,1,125.999996154785,2|8,0:0|0:0,0:0:0:0:
101,154,38739,6,0,P|94:121|102:85,1,62.9999980773926,2|2,0:0|0:0,0:0:0:0:
156,33,39156,2,0,P|187:25|218:29,1,62.9999980773926,8|2,0:0|0:0,0:0:0:0:
288,69,39572,2,0,P|298:102|291:138,1,62.9999980773926,2|8,0:0|0:0,0:0:0:0:
258,203,39989,1,8,0:0:0:0:
258,203,40406,38,0,P|196:179|137:206,1,125.999996154785,2|8,0:0|0:0,0:0:0:0:
119,278,41031,1,2,0:0:0:0:
200,259,41239,2,0,L|197:65,1,188.999994232178,2|0,0:0|0:0,0:0:0:0:
197,70,42281,5,2,0:0:0:0:
268,30,42489,2,0,P|297:24|342:32,1,62.9999980773926,8|2,0:0|0:0,0:0:0:0:
403,65,42906,1,2,0:0:0:0:
334,109,43114,2,0,P|314:167|336:232,1,125.999996154785,2|8,0:0|0:0,0:0:0:0:
332,226,43947,37,2,0:0:0:0:
283,291,44156,2,0,P|254:299|220:293,1,62.9999980773926,8|2,0:0|0:0,0:0:0:0:
146,326,44572,2,0,P|138:297|144:263,1,62.9999980773926,2|2,0:0|0:0,0:0:0:0:
183,193,44989,1,8,0:0:0:0:
264,196,45197,6,0,P|324:217|389:194,1,125.999996154785,2|8,0:0|0:0,0:0:0:0:
457,161,45822,1,8,0:0:0:0:
457,161,45926,1,8,0:0:0:0:
457,161,46031,1,8,0:0:0:0:
452,242,46239,2,0,L|451:323,1,62.9999980773926,8|2,0:0|0:0,0:0:0:0:
392,362,46656,2,0,P|332:341|267:364,1,125.999996154785,2|2,0:0|0:0,0:0:0:0:
74,373,47489,5,6,1:2:0:0:
74,373,47593,1,0,1:2:0:0:
74,373,47697,2,0,L|65:330,3,38.5000011749268,8|0|2|0,1:2|1:2|1:2|1:2,0:0:0:0:
56,298,48114,5,8,1:2:0:0:
153,317,48322,1,2,1:2:0:0:
119,222,48531,1,8,1:2:0:0:
153,317,48739,38,0,P|192:325|231:315,1,77.0000023498536,6|8,1:2|1:2,0:0:0:0:
259,293,49051,2,0,P|296:284|333:292,1,77.0000023498536,0|0,1:2|1:2,0:0:0:0:
366,314,49364,1,8,1:2:0:0:
458,350,49572,6,0,P|466:311|456:272,1,77.0000023498536,6|8,1:2|1:2,0:0:0:0:
438,248,49885,1,0,1:2:0:0:
438,248,49989,2,0,P|429:210|437:173,1,77.0000023498536,2|8,1:2|1:2,0:0:0:0:
364,103,50406,2,0,L|303:95,3,38.5000011749268,6|0|8|0,1:2|1:2|1:2|1:2,0:0:0:0:
293,76,50822,37,2,1:2:0:0:
197,108,51031,1,8,1:2:0:0:
296,97,51239,2,0,P|303:134|294:171,1,77.0000023498536,6|8,1:2|1:2,0:0:0:0:
194,181,51656,5,2,1:2:0:0:
290,213,51865,1,8,1:2:0:0:
191,202,52073,2,0,P|183:239|192:276,1,77.0000023498536,6|8,1:2|1:2,0:0:0:0:
292,286,52489,37,2,1:2:0:0:
196,318,52698,1,8,1:2:0:0:
295,307,52906,2,0,P|302:344|293:381,1,77.0000023498536,12|8,1:2|1:2,0:0:0:0:
332,381,53218,2,0,L|413:373,1,77.0000023498536,8|8,1:2|1:2,0:0:0:0:
448,369,53530,1,8,1:2:0:0:
506,287,53739,6,0,P|507:263|498:239,3,38.5000011749268,6|0|8|0,1:2|1:2|1:2|1:2,0:0:0:0:
480,218,54156,2,0,L|374:218,2,77.0000023498536,2|8|6,1:2|1:2|1:2,0:0:0:0:
502,120,54781,37,8,1:2:0:0:
444,38,54989,1,2,1:2:0:0:
405,130,55197,1,8,1:2:0:0:
342,51,55406,6,0,P|303:43|264:53,1,77.0000023498536,6|8,1:2|1:2,0:0:0:0:
236,75,55718,2,0,P|199:84|162:76,1,77.0000023498536,0|0,1:2|1:2,0:0:0:0:
129,54,56031,1,8,1:2:0:0:
48,112,56239,38,0,P|40:151|50:190,1,77.0000023498536,6|8,1:2|1:2,0:0:0:0:
72,218,56551,2,0,P|81:255|73:292,1,77.0000023498536,0|0,1:2|1:2,0:0:0:0:
51,325,56864,1,8,1:2:0:0:
148,348,57072,6,0,L|191:353,3,38.5000011749268,6|0|8|0,1:2|1:2|1:2|1:2,0:0:0:0:
224,358,57489,2,0,P|258:347|307:358,1,77.0000023498536,2|0,1:2|0:0,0:0:0:0:
395,376,57906,37,6,1:2:0:0:
342,290,58114,2,0,P|335:252|346:215,1,77.0000023498536,8|2,1:2|1:2,0:0:0:0:
417,145,58531,1,8,1:2:0:0:
345,215,58739,38,0,P|290:232|235:211,1,112,6|0,2:1|0:0,0:0:0:0:
186,167,59364,2,0,P|131:150|76:171,1,112,2|2,2:1|0:0,0:0:0:0:
42,228,59989,2,0,L|51:325,1,84,8|0,2:1|0:0,0:0:0:0:
54,351,60406,6,0,P|99:342|139:356,1,77.0000023498536,6|8,0:0|0:0,0:0:0:0:
227,363,60822,2,0,P|264:371|301:361,1,77.0000023498536,2|8,0:0|0:0,0:0:0:0:
380,300,61239,2,0,P|390:263|379:226,1,77.0000023498536,2|8,0:0|1:2,0:0:0:0:
351,208,61551,1,0,1:2:0:0:
351,208,61655,2,0,P|342:170|359:121,1,77.0000023498536,2|8,1:2|1:2,0:0:0:0:
397,45,62072,6,0,L|318:46,1,77.0000023498536,6|8,0:0|0:0,0:0:0:0:
219,47,62489,1,2,0:0:0:0:
273,131,62697,1,8,0:0:0:0:
172,134,62906,38,0,P|165:171|175:208,1,77.0000023498536,2|8,0:0|0:0,0:0:0:0:
206,232,63218,2,0,P|215:269|208:307,1,77.0000023498536,2|2,0:0|0:0,0:0:0:0:
187,339,63531,1,8,0:0:0:0:
283,364,63739,2,0,L|450:354,1,154.000004699707,6|2,1:2|1:2,0:0:0:0:
503,279,64364,5,8,1:2:0:0:
412,236,64572,2,0,P|405:199|415:162,1,77.0000023498536,2|8,0:0|0:0,0:0:0:0:
445,137,64884,2,0,P|455:101|448:63,1,77.0000023498536,2|2,0:0|0:0,0:0:0:0:
426,30,65197,1,8,0:0:0:0:
328,54,65406,38,0,P|291:64|253:56,1,77.0000023498536,6|8,0:0|0:0,0:0:0:0:
218,45,65718,2,0,L|228:132,1,77.0000023498536,2|2,0:0|0:0,0:0:0:0:
232,161,66031,1,8,0:0:0:0:
241,259,66239,6,0,P|204:252|167:262,1,77.0000023498536,10|8,1:2|1:2,0:0:0:0:
142,292,66551,2,0,P|106:302|68:295,1,77.0000023498536,8|8,1:2|1:2,0:0:0:0:
35,273,66864,1,8,1:2:0:0:
56,175,67072,2,0,P|92:165|130:172,1,77.0000023498536,6|8,1:2|0:0,0:0:0:0:
226,200,67489,38,0,P|263:208|300:200,1,77.0000023498536,6|8,0:0|0:0,0:0:0:0:
338,106,67906,2,0,P|300:97|263:105,1,77.0000023498536,2|8,0:0|1:2,0:0:0:0:
233,125,68218,1,0,1:2:0:0:
233,125,68322,2,0,P|195:133|158:125,1,77.0000023498536,2|8,1:2|1:2,0:0:0:0:
75,67,68739,2,0,L|67:239,1,154.000004699707,6|2,1:2|1:2,0:0:0:0:
66,321,69364,5,8,1:2:0:0:
148,263,69572,2,0,P|184:250|222:257,1,77.0000023498536,6|8,0:0|0:0,0:0:0:0:
254,280,69885,2,0,P|291:287|327:274,1,77.0000023498536,2|2,0:0|0:0,0:0:0:0:
361,256,70197,1,8,0:0:0:0:
285,191,70406,2,0,P|262:130|293:46,1,154.000004699707,6|2,1:2|1:2,0:0:0:0:
384,15,71031,37,8,1:2:0:0:
418,106,71239,2,0,P|381:114|344:106,1,77.0000023498536,2|8,0:0|0:0,0:0:0:0:
384,15,71656,2,0,P|421:6|458:15,1,77.0000023498536,2|8,0:0|0:0,0:0:0:0:
508,91,72072,5,6,0:0:0:0:
490,226,72385,1,6,0:0:0:0:
379,146,72697,2,0,P|322:132|266:148,1,112,6|0,0:0|0:0,0:0:0:0:
203,179,73322,38,0,L|188:68,1,105,8|0,2:1|0:0,0:0:0:0:
161,52,73739,5,6,0:0:0:0:
71,35,73948,1,8,0:0:0:0:
102,120,74156,2,0,P|108:154|103:188,1,70,2|8,0:0|0:0,0:0:0:0:
22,232,74573,2,0,P|15:197|20:163,1,70,2|8,0:0|1:2,0:0:0:0:
102,120,74989,2,0,L|201:110,1,70,2|8,1:2|1:2,0:0:0:0:
262,106,75406,37,6,0:0:0:0:
207,34,75614,1,8,0:0:0:0:
262,106,75822,2,0,P|269:139|259:173,1,70,2|8,0:0|0:0,0:0:0:0:
182,224,76239,2,0,P|148:232|114:222,1,70,2|8,0:0|1:2,0:0:0:0:
36,176,76656,2,0,P|28:143|38:109,1,70,2|8,1:2|1:2,0:0:0:0:
91,35,77073,5,6,0:0:0:0:
125,120,77281,1,8,0:0:0:0:
158,35,77489,2,0,P|119:28|84:39,1,70,2|8,0:0|0:0,0:0:0:0:
57,121,77906,2,0,P|96:128|131:117,1,70,2|8,0:0|1:2,0:0:0:0:
90,36,78323,2,0,P|51:29|16:40,1,70,2|8,1:2|1:2,0:0:0:0:
57,121,78739,37,6,0:0:0:0:
29,208,78948,1,8,0:0:0:0:
118,189,79156,2,0,P|152:182|186:187,1,70,2|8,0:0|0:0,0:0:0:0:
271,219,79572,2,0,L|278:182,3,35,10|8|8|8,1:2|1:2|1:2|1:2,0:0:0:0:
314,184,79989,2,0,L|321:147,3,35,10|0|8|8,1:2|0:0|1:2|1:2,0:0:0:0:
325,115,80406,5,14,1:2:0:0:
235,128,80614,1,8,0:0:0:0:
325,115,80822,2,0,P|358:107|392:117,1,70,2|8,0:0|0:0,0:0:0:0:
467,167,81239,2,0,P|474:200|464:234,1,70,2|8,0:0|1:2,0:0:0:0:
414,316,81656,2,0,P|380:323|346:313,1,70,2|8,1:2|1:2,0:0:0:0:
260,283,82073,37,6,0:0:0:0:
173,315,82281,1,8,0:0:0:0:
260,350,82489,2,0,P|267:311|256:276,1,70,2|8,0:0|0:0,0:0:0:0:
176,247,82906,2,0,P|166:281|173:315,1,70,2|8,0:0|1:2,0:0:0:0:
260,350,83323,2,0,L|331:347,1,70,2|8,1:2|1:2,0:0:0:0:
425,351,83739,5,2,0:0:0:0:
425,351,83947,1,2,0:0:0:0:
425,351,84155,2,0,L|430:277,1,66.4999982242585,2|2,0:0|0:0,0:0:0:0:
351,274,84572,37,2,0:0:0:0:
351,274,84780,1,2,0:0:0:0:
351,274,84988,2,0,L|346:200,1,66.4999982242585,2|2,0:0|0:0,0:0:0:0:
340,120,85406,6,0,P|304:129|264:119,1,66.4999982242585,6|2,0:0|0:0,0:0:0:0:
199,82,85822,1,2,0:0:0:0:
199,174,86031,1,6,0:0:0:0:
199,174,86135,1,2,0:0:0:0:
199,174,86239,2,0,L|201:241,1,66.4999982242585,2|2,0:0|0:0,0:0:0:0:
286,226,86656,2,0,L|288:293,1,66.4999982242585,6|0,0:0|0:0,0:0:0:0:
358,334,87073,22,0,P|387:329|424:336,1,62.9999980773926,6|0,0:0|0:0,0:0:0:0:
493,298,87489,2,0,P|469:243|483:175,1,125.999996154785,8|2,0:0|0:0,0:0:0:0:
491,98,88114,37,2,0:0:0:0:
415,130,88323,2,0,L|377:140,1,31.4999990386963,8|0,0:0|0:0,0:0:0:0:
304,153,88635,2,0,P|316:103|296:61,1,94.499997116089,2|2,0:1|0:0,0:0:0:0:
219,44,89156,5,8,0:0:0:0:
137,38,89364,1,8,0:0:0:0:
54,33,89573,1,2,0:0:0:0:
54,33,89989,38,0,P|63:63|54:97,1,62.9999980773926,8|8,0:0|0:0,0:0:0:0:
23,168,90406,2,0,P|16:198|25:228,1,62.9999980773926,2|2,0:0|0:0,0:0:0:0:
100,195,90823,2,0,P|160:179|229:201,1,125.999996154785,8|2,0:0|0:0,0:0:0:0:
288,240,91448,5,2,0:0:0:0:
286,157,91657,2,0,L|287:120,1,31.4999990386963,0|0,0:0|0:0,0:0:0:0:
289,44,91968,2,0,P|336:59|388:43,1,94.499997116089,2|2,0:1|0:0,0:0:0:0:
457,24,92489,37,8,0:0:0:0:
453,105,92697,1,2,0:0:0:0:
508,165,92906,2,0,P|446:186|386:151,1,125.999996154785,2|8,0:0|0:0,0:0:0:0:
254,75,93739,6,0,L|259:150,1,62.9999980773926,2|0,0:0|0:0,0:0:0:0:
260,219,94156,2,0,P|196:205|135:223,1,125.999996154785,8|2,0:0|0:0,0:0:0:0:
78,276,94781,37,2,0:0:0:0:
66,194,94989,2,0,L|61:162,1,31.4999990386963,8|2,0:0|0:1,0:0:0:0:
51,81,95302,2,0,P|99:93|149:73,1,94.499997116089,2|2,0:1|0:0,0:0:0:0:
212,40,95823,5,8,0:0:0:0:
293,29,96031,1,2,0:0:0:0:
374,19,96239,1,2,0:0:0:0:
374,19,96656,2,0,P|368:51|383:94,2,62.9999980773926,8|0|2,0:0|0:0|0:0,0:0:0:0:
450,48,97281,37,2,0:0:0:0:
508,104,97489,2,0,P|515:135|509:166,1,62.9999980773926,8|2,0:0|0:0,0:0:0:0:
432,136,97906,2,0,P|389:125|339:140,2,94.499997116089,2|0|2,0:0|0:0|0:0,0:0:0:0:
389,206,98739,2,0,L|386:345,1,125.999996154785,2|8,0:0|0:0,0:0:0:0:
386,331,99573,6,0,P|353:326|323:336,1,62.9999980773926,2|0,0:0|0:0,0:0:0:0:
245,352,99989,2,0,P|215:361|184:356,1,62.9999980773926,8|2,0:0|0:0,0:0:0:0:
110,319,100406,1,2,0:0:0:0:
80,168,100823,37,8,0:0:0:0:
80,168,101031,1,2,0:0:0:0:
80,168,101239,1,2,0:0:0:0:
251,192,101656,5,8,0:0:0:0:
251,192,101864,1,2,0:0:0:0:
251,192,102072,1,2,0:0:0:0:
106,264,102489,37,8,0:0:0:0:
106,264,102697,1,2,0:0:0:0:
106,264,102906,1,2,0:0:0:0:
275,297,103322,5,8,0:0:0:0:
275,297,103531,1,8,0:0:0:0:
275,297,103739,2,0,P|289:231|269:174,1,125.999996154785,2|8,0:0|0:0,0:0:0:0:
208,137,104364,1,2,0:0:0:0:
208,137,104468,1,2,0:0:0:0:
208,137,104573,2,0,L|134:146,1,62.9999980773926,2|2,0:0|0:0,0:0:0:0:
105,216,104989,2,0,L|179:225,1,62.9999980773926,8|2,0:0|0:0,0:0:0:0:
248,236,105406,38,0,P|241:269|249:305,1,62.9999980773926,2|2,0:0|0:0,0:0:0:0:
303,357,105823,2,0,P|334:365|365:361,1,62.9999980773926,0|0,0:0|0:0,0:0:0:0:
435,321,106239,2,0,P|445:288|438:252,1,62.9999980773926,2|8,0:0|0:0,0:0:0:0:
405,187,106656,1,8,0:0:0:0:
360,255,106864,6,0,B|270:299|270:222|168:261,1,188.999994232178,2|8,0:0|0:0,0:0:0:0:
105,297,107697,2,0,P|93:263|102:229,1,62.9999980773926,2|2,0:0|0:0,0:0:0:0:
155,178,108114,1,2,0:0:0:0:
218,126,108322,2,0,P|222:95|211:65,1,62.9999980773926,8|2,0:0|0:0,0:0:0:0:
286,33,108739,38,0,L|431:26,1,125.999996154785,2|8,0:0|0:0,0:0:0:0:
411,26,109572,2,0,P|429:67|408:128,2,94.499997116089,2|2|8,0:0|0:1|0:0,0:0:0:0:
345,75,110406,2,0,P|336:133|382:187,2,125.999996154785,2|8|2,0:0|0:0|0:0,0:0:0:0:
281,23,111447,5,8,0:0:0:0:
218,76,111656,2,0,P|187:85|156:78,1,62.9999980773926,8|8,0:0|0:0,0:0:0:0:
78,59,112072,2,0,L|91:187,1,125.999996154785,8|2,0:0|0:1,0:0:0:0:
324,262,113114,37,2,0:0:0:0:
324,262,113218,1,2,0:0:0:0:
324,262,113323,2,0,L|335:332,2,62.9999980773926,2|2|2,0:0|0:0|0:0,0:0:0:0:
293,64,114156,37,6,1:2:0:0:
293,64,114260,1,0,1:2:0:0:
293,64,114364,2,0,L|336:55,3,38.5000011749268,8|0|2|0,1:2|1:2|1:2|1:2,0:0:0:0:
368,46,114781,37,8,1:2:0:0:
349,143,114989,1,2,1:2:0:0:
444,109,115198,1,8,1:2:0:0:
349,143,115406,6,0,P|341:182|351:221,1,77.0000023498536,6|8,1:2|1:2,0:0:0:0:
373,249,115718,2,0,P|382:286|374:323,1,77.0000023498536,0|0,1:2|1:2,0:0:0:0:
352,356,116031,1,8,1:2:0:0:
259,318,116239,38,0,P|220:310|181:320,1,77.0000023498536,4|8,1:2|1:2,0:0:0:0:
145,350,116551,1,0,1:2:0:0:
145,350,116656,2,0,P|107:359|70:351,1,77.0000023498536,2|8,1:2|1:2,0:0:0:0:
37,256,117073,2,0,L|33:197,3,38.5000011749268,6|0|8|0,1:2|1:2|1:2|1:2,0:0:0:0:
31,179,117489,5,2,1:2:0:0:
63,83,117698,1,8,1:2:0:0:
124,161,117906,2,0,L|118:258,1,77.0000023498536,6|8,1:2|1:2,0:0:0:0:
208,192,118322,37,2,1:2:0:0:
240,96,118531,1,8,1:2:0:0:
301,174,118739,2,0,L|295:271,1,77.0000023498536,6|8,1:2|1:2,0:0:0:0:
385,205,119156,5,2,1:2:0:0:
417,109,119365,1,8,1:2:0:0:
478,187,119573,2,0,L|472:284,1,77.0000023498536,12|0,1:2|0:0,0:0:0:0:
469,302,119885,2,0,P|428:294|393:303,1,77.0000023498536,8|0,1:2|0:0,0:0:0:0:
361,324,120197,1,8,1:2:0:0:
262,342,120406,38,0,P|261:318|270:294,3,38.5000011749268,6|0|8|0,1:2|1:2|1:2|1:2,0:0:0:0:
288,273,120823,2,0,P|297:234|282:193,2,77.0000023498536,2|8|6,1:2|1:2|1:2,0:0:0:0:
193,239,121448,5,8,1:2:0:0:
96,249,121656,1,2,1:2:0:0:
135,157,121864,1,8,1:2:0:0:
193,239,122073,38,0,P|232:247|271:237,1,77.0000023498536,6|0,1:2|0:0,0:0:0:0:
299,215,122385,2,0,P|336:206|373:214,1,77.0000023498536,0|0,1:2|0:0,0:0:0:0:
406,236,122698,1,0,0:0:0:0:
499,272,122906,6,0,P|507:233|497:194,1,77.0000023498536,6|8,1:2|1:2,0:0:0:0:
475,166,123218,2,0,P|466:129|474:92,1,77.0000023498536,0|0,1:2|1:2,0:0:0:0:
496,59,123531,1,8,1:2:0:0:
399,34,123739,38,0,L|356:29,3,38.5000011749268,6|0|8|0,1:2|1:2|1:2|1:2,0:0:0:0:
323,24,124156,2,0,P|289:35|240:24,1,77.0000023498536,2|8,1:2|1:2,0:0:0:0:
148,32,124573,5,6,1:2:0:0:
201,118,124781,2,0,P|208:156|197:193,1,77.0000023498536,8|0,1:2|0:0,0:0:0:0:
126,263,125198,1,8,1:2:0:0:
236,289,125406,6,0,P|291:306|225:335,1,168,6|2,0:1|0:1,0:0:0:0:
24,346,127073,22,0,P|15:301|29:261,1,77.0000023498536,6|8,0:0|0:0,0:0:0:0:
36,173,127489,2,0,P|44:136|34:99,1,77.0000023498536,2|8,0:0|0:0,0:0:0:0:
128,65,127906,2,0,P|165:75|202:64,1,77.0000023498536,2|8,0:0|1:2,0:0:0:0:
220,36,128218,1,0,1:2:0:0:
220,36,128322,2,0,P|258:27|307:44,1,77.0000023498536,2|8,1:2|1:2,0:0:0:0:
368,103,128739,6,0,L|369:182,1,77.0000023498536,6|8,0:0|0:0,0:0:0:0:
370,281,129156,1,2,0:0:0:0:
456,231,129364,1,8,0:0:0:0:
368,179,129573,38,0,P|331:172|294:182,1,77.0000023498536,2|8,0:0|0:0,0:0:0:0:
270,213,129885,2,0,P|233:222|195:215,1,77.0000023498536,2|2,0:0|0:0,0:0:0:0:
163,194,130198,1,8,0:0:0:0:
85,130,130406,2,0,P|61:192|106:277,1,154.000004699707,6|2,1:2|1:2,0:0:0:0:
177,327,131031,5,8,1:2:0:0:
255,265,131239,2,0,P|292:258|329:268,1,77.0000023498536,6|8,0:0|0:0,0:0:0:0:
354,298,131551,2,0,P|390:308|428:301,1,77.0000023498536,2|2,0:0|0:0,0:0:0:0:
461,279,131864,1,8,0:0:0:0:
397,201,132073,38,0,P|387:164|395:126,1,77.0000023498536,6|8,0:0|0:0,0:0:0:0:
406,91,132385,2,0,P|347:107|287:90,1,115.50000352478,2|8,0:0|0:0,0:0:0:0:
199,63,132906,6,0,P|192:100|202:137,1,77.0000023498536,10|8,1:2|1:2,0:0:0:0:
232,162,133218,2,0,P|242:198|235:236,1,77.0000023498536,8|8,1:2|1:2,0:0:0:0:
213,269,133531,1,8,1:2:0:0:
172,360,133739,2,0,P|208:370|246:363,1,77.0000023498536,6|8,1:2|0:0,0:0:0:0:
294,274,134156,38,0,P|331:266|368:274,1,77.0000023498536,6|8,0:0|0:0,0:0:0:0:
406,368,134573,2,0,P|368:377|331:369,1,77.0000023498536,2|8,0:0|1:2,0:0:0:0:
301,349,134885,1,0,1:2:0:0:
301,349,134989,2,0,P|263:341|226:349,1,77.0000023498536,2|8,1:2|1:2,0:0:0:0:
128,370,135406,2,0,L|109:218,1,154.000004699707,6|2,1:2|1:2,0:0:0:0:
96,117,136031,5,8,1:2:0:0:
188,155,136239,2,0,P|225:162|262:149,1,77.0000023498536,6|8,0:0|0:0,0:0:0:0:
290,122,136552,2,0,P|325:109|363:116,1,77.0000023498536,2|2,0:0|0:0,0:0:0:0:
400,129,136864,1,8,0:0:0:0:
473,197,137073,2,0,P|498:136|464:54,1,154.000004699707,6|2,1:2|1:2,0:0:0:0:
372,25,137698,37,8,1:2:0:0:
297,91,137906,2,0,P|260:99|223:91,1,77.0000023498536,2|8,0:0|0:0,0:0:0:0:
132,44,138323,2,0,P|94:34|57:43,1,77.0000023498536,2|8,0:0|0:0,0:0:0:0:
97,164,138739,5,6,0:0:0:0:
115,299,139052,1,6,0:0:0:0:
226,219,139364,1,6,0:0:0:0:
308,180,139572,38,0,P|318:221|304:261,1,70,2|2,0:0|0:0,0:0:0:0:
242,307,139989,1,8,0:0:0:0:
160,331,140197,1,8,0:0:0:0:
160,331,140301,1,8,0:0:0:0:
160,331,140406,5,6,0:3:0:0:
179,242,140614,1,6,0:3:0:0:
242,307,140822,38,0,L|313:296,1,70,8|8,0:0|0:0,0:0:0:0:
400,316,141239,2,0,L|389:245,1,70,2|8,0:0|1:2,0:0:0:0:
409,152,141656,2,0,L|338:163,1,70,2|0,1:2|0:0,0:0:0:0:
259,205,142072,6,0,L|248:134,1,70,2|8,0:0|0:0,0:0:0:0:
268,47,142489,2,0,L|197:58,1,70,2|8,0:0|0:0,0:0:0:0:
104,38,142906,2,0,L|115:109,1,70,2|8,0:0|1:2,0:0:0:0:
95,195,143322,2,0,L|166:184,1,70,2|8,1:2|1:2,0:0:0:0:
254,171,143739,37,6,0:1:0:0:
222,256,143947,1,6,0:1:0:0:
312,242,144156,6,0,L|383:231,1,70,2|8,0:0|0:0,0:0:0:0:
469,250,144572,2,0,L|458:180,1,70,2|8,0:0|1:2,0:0:0:0:
480,92,144989,2,0,L|409:103,1,70,2|8,1:2|1:2,0:0:0:0:
322,79,145406,38,0,L|332:148,1,70,2|8,0:0|0:0,0:0:0:0:
382,224,145822,2,0,L|311:235,1,70,2|8,0:0|0:0,0:0:0:0:
228,270,146239,2,0,L|222:233,3,35,4|4|4|4,3:0|3:0|3:0|3:0,0:0:0:0:
217,201,146656,2,0,L|211:164,3,35,14|12|12|12,3:0|3:0|3:0|3:0,0:0:0:0:
204,131,147072,5,6,0:1:0:0:
115,151,147281,1,6,0:1:0:0:
27,174,147489,38,0,L|44:257,1,70,6|8,0:3|0:0,0:0:0:0:
26,332,147906,2,0,L|109:315,1,70,6|8,0:3|0:0,0:0:0:0:
183,337,148322,2,0,L|166:254,1,70,6|8,0:3|0:0,0:0:0:0:
116,193,148739,6,0,L|199:176,1,70,6|8,0:3|0:0,0:0:0:0:
274,194,149156,2,0,L|257:111,1,70,6|8,0:3|0:0,0:0:0:0:
279,37,149572,2,0,L|196:54,1,70,6|8,0:3|0:0,0:0:0:0:
120,34,149989,2,0,L|137:117,1,70,6|8,0:3|0:0,0:0:0:0:
158,190,150406,37,6,0:1:0:0:
226,130,150614,1,6,0:1:0:0:
245,218,150822,6,0,L|262:301,1,70,2|8,0:0|0:0,0:0:0:0:
281,374,151239,2,0,L|335:364,3,35,6|4|12|4,3:0|3:0|3:0|3:0,0:0:0:0:
343,344,151656,2,0,L|397:334,3,35,6|0|0|4,3:0|0:0|0:0|3:0,0:0:0:0:
412,329,152072,38,0,P|386:189|288:291,1,350,6|0,0:1|0:0,0:0:0:0:
205,328,153322,6,2,L|171:328,3,35,2|2|2|2,0:1|0:1|0:1|0:1,0:0:0:0:
142,329,153739,6,0,P|113:324|154:244,1,167.999994873047,6|0,0:1|0:0,0:0:0:0:
236,265,154781,5,2,0:1:0:0:
236,265,154989,1,2,0:1:0:0:
236,265,155197,2,0,P|276:277|320:265,1,83.9999974365235,2|2,0:1|0:1,0:0:0:0:
366,123,156031,2,0,P|326:111|282:123,1,83.9999974365235,2|0,0:1|0:0,0:0:0:0:
146,179,156864,37,2,0:1:0:0:
146,179,157072,2,0,L|131:85,1,83.9999974365235,2|2,0:1|0:1,0:0:0:0:
123,20,157697,1,2,0:1:0:0:
259,85,158114,2,0,P|303:94|342:84,1,83.9999974365235,2|2,0:1|0:1,0:0:0:0:
406,120,158739,2,0,P|414:75|395:35,2,83.9999974365235,2|2|2,0:1|0:1|0:1,0:0:0:0:
353,174,159781,6,0,L|258:174,1,83.9999974365235,2|0,0:1|0:0,0:0:0:0:
246,246,160406,2,0,L|341:246,1,83.9999974365235,2|0,0:1|0:0,0:0:0:0:
481,245,161239,38,0,P|484:224|477:196,1,41.9999987182618,2|2,0:1|0:1,0:0:0:0:
438,140,161656,1,2,0:1:0:0:
403,205,161864,2,0,P|362:216|321:210,1,83.9999974365235,2|2,0:1|0:1,0:0:0:0:
196,125,162697,2,0,P|154:118|114:129,1,83.9999974365235,2|0,0:1|0:0,0:0:0:0:
71,191,163322,5,2,0:1:0:0:
71,191,163531,2,0,L|71:286,1,83.9999974365235,2|2,0:1|0:1,0:0:0:0:
208,338,164364,2,0,L|208:254,1,83.9999974365235,2|2,0:1|0:1,0:0:0:0:
202,102,165197,38,0,P|225:107|248:102,1,41.9999987182618,2|0,0:1|0:0,0:0:0:0:
311,72,165614,2,0,P|331:68|351:74,1,41.9999987182618,2|0,0:1|0:0,0:0:0:0:
414,117,166031,2,0,B|387:174|444:182|410:251,1,125.999996154785,2|0,0:1|0:0,0:0:0:0:
276,300,167072,6,0,L|184:290,1,83.9999974365235,2|0,0:1|0:0,0:0:0:0:
58,220,167906,2,0,L|150:210,1,83.9999974365235,2|0,0:1|0:0,0:0:0:0:
276,143,168739,2,0,L|135:128,1,125.999996154785,2|0,0:1|0:0,0:0:0:0:
0,124,169781,37,2,0:1:0:0:
0,124,169989,1,2,0:1:0:0:
0,124,170197,2,0,L|7:224,2,83.9999974365235,2|2|2,0:1|0:1|0:1,0:0:0:0:
74,136,171239,2,0,L|81:236,2,83.9999974365235,2|2|2,0:1|0:1|0:1,0:0:0:0:
197,48,172489,5,2,0:1:0:0:
197,48,172697,1,2,0:1:0:0:
197,48,172906,2,0,L|250:56,1,41.9999987182618,2|2,0:1|0:1,0:0:0:0:
271,122,173322,2,0,L|218:130,1,41.9999987182618,2|2,0:1|0:1,0:0:0:0:
155,144,173739,38,0,B|120:223|194:225|151:321,1,167.999994873047,2|0,0:1|0:0,0:0:0:0:
307,291,174989,2,0,P|348:281|390:290,2,83.9999974365235,2|2|2,0:1|0:1|0:1,0:0:0:0:
164,342,176239,5,2,0:1:0:0:
164,342,176447,2,0,L|152:287,1,41.9999987182618,2|2,0:1|0:1,0:0:0:0:
142,226,176864,2,0,P|182:232|241:217,1,83.9999974365235,2|2,0:1|0:1,0:0:0:0:
223,72,177697,2,0,P|183:66|124:81,1,83.9999974365235,2|2,0:1|0:1,0:0:0:0:
37,185,178531,38,0,P|21:303|113:189,1,377.999988464356,2|2,0:1|0:1,0:0:0:0:
0,46,182072,6,0,P|46:32|94:43,1,97.9999970092774,2|2,0:1|0:1,0:0:0:0:
174,142,182906,2,0,P|221:152|268:139,1,97.9999970092774,2|2,0:1|0:1,0:0:0:0:
405,91,183739,6,0,L|413:128,3,28,0|0|0|0,1:2|1:2|1:2|1:2,0:0:0:0:
396,145,184156,2,0,L|403:187,3,29.7500005674362,0|0|0|0,1:2|1:2|1:2|1:2,0:0:0:0:
383,200,184572,2,0,L|389:242,3,31.4999990386963,0|0|2|2,1:2|1:2|1:2|1:2,0:0:0:0:
373,263,184989,6,0,P|336:256|295:269,1,70,8|0,1:1|0:0,0:0:0:0:
212,302,185406,2,0,P|173:313|137:306,2,77.0000023498536,12|2|2,0:0|0:0|0:0,0:0:0:0:
304,264,186031,37,2,1:2:0:0:
342,171,186239,2,0,P|305:160|268:168,1,77.0000023498536,12|2,0:0|0:0,0:0:0:0:
245,199,186551,2,0,P|207:207|171:196,1,77.0000023498536,12|0,0:0|0:0,0:0:0:0:
141,173,186864,1,2,0:0:0:0:
72,99,187072,5,6,0:0:0:0:
75,249,187385,1,6,0:0:0:0:
3,117,187697,1,6,0:0:0:0:
3,117,187906,37,12,0:0:0:0:
151,135,188218,1,6,0:0:0:0:
11,192,188531,1,2,0:1:0:0:
11,192,188739,6,0,L|22:253,3,38.5000011749268,6|0|8|0,1:2|1:2|1:2|1:2,0:0:0:0:
29,268,189156,38,0,P|68:260|111:268,1,77.0000023498536,6|8,1:2|0:0,0:0:0:0:
193,311,189572,2,0,P|230:316|268:308,1,77.0000023498536,2|8,0:0|1:2,0:0:0:0:
301,286,189885,1,0,1:2:0:0:
301,286,189989,2,0,P|338:278|376:283,1,77.0000023498536,2|8,1:2|1:2,0:0:0:0:
467,326,190406,2,0,L|430:170,1,154.000004699707,6|2,1:2|1:2,0:0:0:0:
407,78,191031,5,8,1:2:0:0:
339,151,191239,2,0,P|298:162|258:152,1,77.0000023498536,6|8,0:0|0:0,0:0:0:0:
232,135,191551,2,0,P|194:128|157:139,1,77.0000023498536,2|2,0:0|0:0,0:0:0:0:
127,164,191864,1,8,0:0:0:0:
62,239,192072,2,0,P|32:192|62:90,1,154.000004699707,6|2,1:2|1:2,0:0:0:0:
132,41,192696,37,8,1:2:0:0:
211,101,192906,2,0,P|249:110|286:101,1,77.0000023498536,2|8,0:0|0:0,0:0:0:0:
379,64,193322,2,0,P|416:55|453:63,1,77.0000023498536,2|8,0:0|0:0,0:0:0:0:
414,146,193739,5,6,0:0:0:0:
421,282,194051,1,6,0:0:0:0:
297,223,194364,2,0,P|226:206|157:235,1,140,6|0,0:0|0:0,0:0:0:0:
107,299,194989,38,0,L|79:189,1,105,8|0,0:1|0:0,0:0:0:0:
72,164,195406,5,6,0:0:0:0:
55,74,195615,1,8,0:0:0:0:
140,105,195823,2,0,P|174:111|208:106,1,70,2|8,0:0|0:0,0:0:0:0:
252,25,196239,2,0,P|217:18|183:23,1,70,2|8,0:0|1:2,0:0:0:0:
140,105,196656,2,0,L|130:204,1,70,2|8,1:2|1:2,0:0:0:0:
128,265,197073,37,6,0:0:0:0:
56,210,197281,1,8,0:0:0:0:
128,265,197489,2,0,P|161:272|195:262,1,70,2|8,0:0|0:0,0:0:0:0:
246,185,197906,2,0,P|254:151|244:117,1,70,2|8,0:0|1:2,0:0:0:0:
198,39,198323,2,0,P|165:31|131:41,1,70,2|8,1:2|1:2,0:0:0:0:
81,117,198740,5,6,0:0:0:0:
166,151,198948,1,8,0:0:0:0:
81,184,199156,2,0,P|74:145|85:110,1,70,2|8,0:0|0:0,0:0:0:0:
167,83,199573,2,0,P|174:122|163:157,1,70,2|8,0:0|1:2,0:0:0:0:
82,116,199990,2,0,P|75:77|86:42,1,70,2|8,1:2|1:2,0:0:0:0:
167,83,200406,37,6,0:0:0:0:
254,55,200615,1,8,0:0:0:0:
235,144,200823,2,0,P|228:178|233:212,1,70,2|8,0:0|0:0,0:0:0:0:
265,297,201239,2,0,L|228:304,3,35,10|8|8|8,1:2|1:2|1:2|1:2,0:0:0:0:
199,289,201656,2,0,L|162:296,3,35,10|0|8|8,1:2|0:0|1:2|1:2,0:0:0:0:
130,291,202073,5,14,1:2:0:0:
143,381,202281,1,8,0:0:0:0:
130,291,202489,2,0,P|122:258|132:224,1,70,2|8,0:0|0:0,0:0:0:0:
182,149,202906,2,0,P|215:142|249:152,1,70,2|8,0:0|1:2,0:0:0:0:
331,202,203323,2,0,P|338:236|328:270,1,70,2|8,1:2|1:2,0:0:0:0:
243,303,203740,37,6,0:0:0:0:
156,271,203948,1,8,0:0:0:0:
243,236,204156,2,0,P|250:275|239:310,1,70,2|8,0:0|0:0,0:0:0:0:
159,339,204573,2,0,P|149:305|156:271,1,70,2|8,0:0|1:2,0:0:0:0:
243,236,204990,2,0,L|314:239,1,70,2|8,1:2|1:2,0:0:0:0:
407,251,205406,5,2,0:0:0:0:
407,251,205614,1,2,0:0:0:0:
407,251,205822,2,0,L|402:177,1,66.4999982242585,2|2,0:0|0:0,0:0:0:0:
489,156,206239,37,2,0:0:0:0:
489,156,206447,1,2,0:0:0:0:
489,156,206655,2,0,L|484:82,1,66.4999982242585,2|2,0:0|0:0,0:0:0:0:
406,51,207073,6,0,P|370:60|330:50,1,66.4999982242585,6|2,0:0|0:0,0:0:0:0:
257,34,207489,1,2,0:0:0:0:
281,117,207698,1,6,0:0:0:0:
197,95,207906,2,0,P|164:90|132:99,1,66.4999982242585,2|2,0:0|0:0,0:0:0:0:
62,150,208323,2,0,P|46:88|78:31,1,132.999996448517,6|0,0:0|0:0,0:0:0:0:
