osu file format v14

[General]
AudioFilename: audio.mp3
AudioLeadIn: 0
PreviewTime: 126968
Countdown: 0
SampleSet: Soft
StackLeniency: 0.5
Mode: 0
LetterboxInBreaks: 0
WidescreenStoryboard: 1

[Editor]
Bookmarks: 406,7072,20406,47489,60406,73739,87072,114156,127072,140406,153739,182072,195406,208739
DistanceSpacing: 1.1
BeatDivisor: 4
GridSize: 4
TimelineZoom: 1

[Metadata]
Title:Wake up
TitleUnicode:Wake up
Artist:Dreamcatcher
ArtistUnicode:드림캐쳐
Creator:Natsu
Version:Easy
Source:
Tags:지유 수아 시연 한동 유현 다미 가현 Ji-U Su-A SiYeon Handong YooHyun DaMi Gahyeon Happy Face Entertainment Prequel 1st mini album kpop k-pop rock
BeatmapID:1412352
BeatmapSetID:645662

[Difficulty]
HPDrainRate:2
CircleSize:2.5
OverallDifficulty:2
ApproachRate:3
SliderMultiplier:0.8
SliderTickRate:1

[Events]
//Background and Video events
0,0,"KakaoTalk_20170814_093217496.png",0,0
//Break Periods
//Storyboard Layer 0 (Background)
//Storyboard Layer 1 (Fail)
//Storyboard Layer 2 (Pass)
//Storyboard Layer 3 (Foreground)
//Storyboard Sound Samples

[TimingPoints]
406,416.666666666667,4,2,1,25,1,0
2072,-100,4,2,1,30,0,0
3739,-100,4,2,1,35,0,0
5406,-100,4,2,1,40,0,0
6239,-100,4,2,1,50,0,0
20197,-100,4,2,1,40,0,0
47489,-100,4,2,1,50,0,1
58739,-100,4,2,1,50,0,0
59156,-100,4,2,1,5,0,0
59364,-100,4,2,1,30,0,0
60406,-100,4,2,1,50,0,1
73739,-100,4,2,1,50,0,0
87072,-100,4,2,1,40,0,0
112281,-100,4,2,1,25,0,0
114156,-100,4,2,1,50,0,1
125406,-100,4,2,1,50,0,0
125822,-100,4,2,1,5,0,0
126031,-100,4,2,1,30,0,0
127072,-100,4,2,1,50,0,1
139572,-100,4,2,1,50,0,0
140822,-100,4,2,1,35,0,0
143739,-100,4,2,1,50,0,0
144156,-100,4,2,1,35,0,0
147072,-100,4,2,1,50,0,0
147489,-100,4,2,1,35,0,0
150406,-100,4,2,1,50,0,0
150822,-100,4,2,1,35,0,0
152072,-100,4,2,1,50,0,0
152489,-100,4,2,1,5,0,0
153322,-100,4,2,1,20,0,0
153739,-100,4,2,1,25,0,0
178635,-100,4,2,1,10,0,0
180406,-100,4,2,1,25,0,0
182072,-100,4,2,1,50,0,0
188739,-100,4,2,1,50,0,1
195406,-100,4,2,1,50,0,0
208739,-100,4,2,1,5,0,0

[Colours]
Combo1 : 210,210,210
Combo2 : 63,94,152
Combo3 : 155,155,155
Combo4 : 124,154,186
SliderBorder : 91,163,234
SliderTrackOverride : 30,30,30

[HitObjects]
0,111,406,38,0,P|38:102|78:108,1,80,2|0,0:1|0:0,0:0:0:0:
147,163,1239,2,0,P|186:169|225:160,1,80,0|0,0:0|0:0,0:0:0:0:
284,95,2072,2,0,P|322:86|362:92,1,80,2|0,0:1|0:0,0:0:0:0:
431,147,2905,2,0,P|470:153|509:144,1,80,0|0,0:0|0:0,0:0:0:0:
509,233,3739,6,0,L|495:326,1,80,2|0,0:1|0:0,0:0:0:0:
421,267,4572,2,0,L|407:360,1,80
333,300,5406,2,0,L|319:393,1,80,2|0,0:1|0:0,0:0:0:0:
236,350,6239,6,0,P|176:332|118:352,1,120,8|8,1:2|1:2,0:0:0:0:
79,355,7072,6,0,P|49:359|27:354,2,40,6|8|2,1:2|0:0|0:0,0:0:0:0:
60,268,7906,2,0,L|52:176,1,80,2|2,0:0|1:2,0:0:0:0:
127,141,8739,2,0,P|157:137|179:142,2,40,6|8|2,0:0|0:0|0:0,0:0:0:0:
146,228,9573,2,0,L|154:320,1,80,2|2,0:0|1:2,0:0:0:0:
238,330,10406,38,0,L|242:378,2,40,6|8|2,0:0|0:0|0:0,0:0:0:0:
325,337,11240,2,0,P|363:342|411:325,1,80,2|2,0:0|1:2,0:0:0:0:
439,250,12072,2,0,L|435:202,2,40,6|8|2,0:0|0:0|0:0,0:0:0:0:
352,243,12906,2,0,P|313:237|266:255,1,80,2|2,0:0|1:2,0:0:0:0:
203,301,13739,6,0,L|201:352,2,40,6|8|2,0:0|0:0|0:0,0:0:0:0:
140,239,14573,2,0,L|145:154,1,80,2|2,0:0|1:2,0:0:0:0:
218,110,15406,2,0,L|220:59,2,40,6|8|2,0:0|0:0|0:0,0:0:0:0:
281,172,16240,2,0,L|276:257,1,80,2|2,0:0|1:2,0:0:0:0:
268,339,17072,38,0,L|320:336,2,40,6|8|2,0:0|0:0|0:0,0:0:0:0:
181,355,17906,2,0,P|139:364|96:352,1,80,2|2,0:0|1:2,0:0:0:0:
27,311,18739,2,0,P|15:342|17:376,2,60,6|6|6,0:0|0:0|0:0,0:0:0:0:
160,135,20406,38,0,P|170:93|155:50,2,80,6|8|2,0:0|0:0|0:0,0:0:0:0:
114,208,21656,2,0,P|167:223|226:190,1,120,8|2,0:0|0:0,0:0:0:0:
249,161,22489,2,0,P|286:151|336:165,1,80,8|2,0:0|0:0,0:0:0:0:
379,229,23322,2,0,P|415:163|377:90,1,160,8|8,0:0|0:0,0:0:0:0:
301,53,24572,1,2,0:0:0:0:
232,108,24989,38,0,P|175:125|112:108,1,120,8|2,0:0|0:0,0:0:0:0:
84,82,25822,2,0,L|89:247,1,160,8|8,0:0|0:0,0:0:0:0:
125,321,27072,2,0,P|84:332|47:319,2,80,2|8|2,0:0|0:0|0:0,0:0:0:0:
177,251,28322,6,0,P|233:234|302:256,1,120,8|2,0:0|0:0,0:0:0:0:
332,265,29156,2,0,L|350:184,1,80,8|2,0:0|0:0,0:0:0:0:
437,185,29989,2,0,L|419:263,1,80,8|2,0:0|0:0,0:0:0:0:
396,348,30822,37,8,0:0:0:0:
309,326,31239,2,0,P|271:318|232:326,1,80,2|8,0:0|0:0,0:0:0:0:
147,350,32072,2,0,P|108:358|69:349,1,80,2|8,0:0|0:0,0:0:0:0:
25,273,32906,2,0,L|24:178,1,80,2|8,0:0|0:0,0:0:0:0:
22,104,33739,1,2,0:0:0:0:
97,150,34156,6,0,P|138:159|184:145,2,80,8|2|8,0:0|0:0|0:0,0:0:0:0:
137,71,35406,2,0,P|178:62|224:76,2,80,2|8|2,0:0|0:0|0:0,0:0:0:0:
97,149,36656,2,0,L|91:232,1,80,8|2,0:0|0:0,0:0:0:0:
122,311,37489,38,0,P|83:319|36:297,2,80,8|2|8,0:0|0:0|0:0,0:0:0:0:
197,265,38739,2,0,P|210:304|200:352,2,80,2|8|2,0:0|0:0|0:0,0:0:0:0:
138,199,39989,1,8,0:0:0:0:
224,182,40406,6,0,L|351:183,1,120,2|2,0:0|0:0,0:0:0:0:
381,205,41239,2,0,P|369:243|383:290,2,80,2|8|2,0:0|0:0|0:0,0:0:0:0:
466,183,42489,38,0,P|476:139|468:105,1,80,8|2,0:0|0:0,0:0:0:0:
398,52,43322,2,0,P|388:70|384:104,1,40,8|8,0:0|0:0,0:0:0:0:
313,142,43947,2,0,P|296:99|298:61,1,80,2|2,0:0|0:0,0:0:0:0:
270,30,44572,2,0,L|222:30,1,40,2|2,0:0|0:0,0:0:0:0:
150,68,45197,6,0,P|140:106|158:153,2,80,2|8|8,0:0|0:0|0:0,0:0:0:0:
112,44,46239,2,0,L|22:40,1,80,8|2,0:0|0:0,0:0:0:0:
10,200,47489,6,0,L|100:204,1,80,6|2,1:2|1:2,0:0:0:0:
122,232,48114,2,0,L|212:236,1,80,8|8,1:2|1:2,0:0:0:0:
236,261,48739,2,0,P|222:321|254:376,2,120,6|8|2,1:2|1:2|1:2,0:0:0:0:
310,308,50406,1,6,1:2:0:0:
397,317,50822,6,0,L|446:319,2,40,2|8|6,1:2|1:2|1:2,0:0:0:0:
416,230,51656,2,0,L|465:232,2,40,2|8|6,1:2|1:2|1:2,0:0:0:0:
328,224,52489,1,2,1:2:0:0:
254,272,52906,38,0,P|241:218|275:155,1,120,12|0,1:2|0:0,0:0:0:0:
304,138,53739,2,0,L|440:138,2,120,6|8|0,1:2|1:2|0:0,0:0:0:0:
216,141,55406,6,0,P|205:99|215:60,1,80,6|2,1:2|1:2,0:0:0:0:
132,28,56239,2,0,L|11:28,1,120,6|8,1:2|1:2,0:0:0:0:
9,71,57072,2,0,P|-13:121|9:185,2,120,6|0|2,1:2|0:0|1:2,0:0:0:0:
76,128,58739,2,0,P|128:143|194:124,1,120,6|2,2:1|2:1,0:0:0:0:
386,26,60406,38,0,L|380:113,1,80,6|2,0:0|0:0,0:0:0:0:
466,122,61239,2,0,L|460:209,1,80,2|2,0:0|1:2,0:0:0:0:
384,246,62072,2,0,P|344:237|302:249,1,80,6|2,0:0|0:0,0:0:0:0:
227,208,62906,2,0,P|217:261|256:319,2,120,2|8|0,0:0|0:0|0:0,0:0:0:0:
284,140,64572,6,0,P|227:120|161:148,1,120,2|8,0:0|0:0,0:0:0:0:
142,171,65406,2,0,P|85:188|30:168,1,120,6|8,0:0|0:0,0:0:0:0:
0,201,66239,2,0,L|15:329,1,120,10|8,1:2|1:2,0:0:0:0:
21,363,67072,1,6,1:2:0:0:
101,328,67489,38,0,P|138:317|182:328,1,80,6|2,0:0|0:0,0:0:0:0:
256,363,68322,1,2,1:2:0:0:
334,325,68739,2,0,P|372:316|411:328,1,80,6|2,1:2|1:2,0:0:0:0:
492,360,69572,6,0,L|497:234,1,120,6|8,0:0|0:0,0:0:0:0:
494,195,70406,2,0,P|456:203|417:196,1,80,6|2,1:2|1:2,0:0:0:0:
342,150,71239,2,0,P|302:142|264:151,1,80,2|2,0:0|0:0,0:0:0:0:
179,177,72072,2,0,P|139:184|104:176,2,60,6|6|6,0:0|0:0|0:0,0:0:0:0:
151,47,73322,1,8,2:1:0:0:
237,33,73739,38,0,P|267:29|289:34,2,40,6|8|2,0:0|0:0|0:0,0:0:0:0:
260,118,74573,2,0,L|268:210,1,80,2|2,0:0|1:2,0:0:0:0:
201,256,75406,2,0,P|171:260|149:255,2,40,6|8|2,0:0|0:0|0:0,0:0:0:0:
178,171,76240,2,0,L|170:79,1,80,2|2,0:0|1:2,0:0:0:0:
256,70,77073,6,0,L|260:22,2,40,6|8|2,0:0|0:0|0:0,0:0:0:0:
343,63,77907,2,0,P|381:57|429:75,1,80,2|2,0:0|1:2,0:0:0:0:
466,144,78739,2,0,L|462:192,2,40,6|8|2,0:0|0:0|0:0,0:0:0:0:
379,151,79573,2,0,P|340:156|293:139,1,80,10|0,1:2|0:0,0:0:0:0:
233,88,80406,38,0,L|231:37,2,40,14|8|2,1:2|0:0|0:0,0:0:0:0:
170,150,81240,2,0,L|175:235,1,80,2|2,0:0|1:2,0:0:0:0:
255,264,82073,2,0,L|257:315,2,40,6|8|2,0:0|0:0|0:0,0:0:0:0:
318,202,82907,2,0,L|313:117,1,80,2|2,0:0|1:2,0:0:0:0:
305,34,83739,5,2,0:0:0:0:
233,85,84156,1,2,0:0:0:0:
167,26,84572,1,2,0:0:0:0:
150,112,84989,1,2,0:0:0:0:
83,53,85406,2,0,P|42:45|-1:57,1,80,6|2,0:0|0:0,0:0:0:0:
44,132,86239,2,0,P|52:173|40:216,1,80,2|6,0:0|0:0,0:0:0:0:
20,294,87073,6,0,P|10:336|25:379,2,80,6|0|0,0:0|0:0|0:0,0:0:0:0:
98,334,88323,2,0,P|151:349|216:326,1,120,8|0,0:0|0:0,0:0:0:0:
247,304,89156,2,0,P|284:294|334:308,1,80,8|2,0:0|0:0,0:0:0:0:
401,345,89989,1,8,0:0:0:0:
468,288,90406,2,0,P|474:247|463:210,2,80,2|8|2,0:0|0:0|0:0,0:0:0:0:
386,254,91656,6,0,P|329:237|266:254,1,120,8|2,0:0|0:0,0:0:0:0:
232,271,92489,2,0,L|201:108,1,160,8|8,0:0|0:0,0:0:0:0:
235,32,93739,2,0,P|194:21|157:34,2,80,2|8|2,0:0|0:0|0:0,0:0:0:0:
314,69,94989,38,0,P|370:86|439:64,1,120,8|2,0:0|0:0,0:0:0:0:
472,68,95823,2,0,L|482:150,1,80,8|0,0:0|0:0,0:0:0:0:
398,176,96656,2,0,L|408:269,1,80,8|2,0:0|0:0,0:0:0:0:
420,342,97489,5,8,0:0:0:0:
338,309,97906,2,0,P|300:301|261:309,1,80,2|8,0:0|0:0,0:0:0:0:
180,347,98739,2,0,P|172:308|181:269,1,80,2|8,0:0|0:0,0:0:0:0:
253,219,99573,2,0,P|261:179|250:133,1,80,2|8,0:0|0:0,0:0:0:0:
204,68,100406,1,2,0:0:0:0:
284,32,100823,38,0,P|325:23|371:37,2,80,8|2|8,0:0|0:0|0:0,0:0:0:0:
204,68,102073,2,0,P|163:77|117:63,2,80,2|8|2,0:0|0:0|0:0,0:0:0:0:
275,119,103323,2,0,L|269:202,1,80,8|2,0:0|0:0,0:0:0:0:
301,280,104156,6,0,P|262:288|215:266,2,80,8|2|8,0:0|0:0|0:0,0:0:0:0:
385,254,105406,2,0,P|424:244|467:256,2,80,2|0|2,0:0|0:0|0:0,0:0:0:0:
425,332,106656,1,8,0:0:0:0:
340,357,107073,2,0,P|301:368|260:359,1,80,2|8,0:0|0:0,0:0:0:0:
298,279,107906,2,0,P|306:240|294:202,1,80,2|8,0:0|0:0,0:0:0:0:
216,243,108739,38,0,L|134:238,1,80,2|8,0:0|0:0,0:0:0:0:
56,276,109572,2,0,P|49:214|83:168,1,120,2|8,0:0|0:0,0:0:0:0:
119,145,110406,2,0,L|213:147,1,80,2|10,0:0|0:0,0:0:0:0:
326,179,111447,6,0,P|324:151|329:131,2,40,8|8|8,0:0|0:0|0:0,0:0:0:0:
354,212,112072,2,0,P|361:251|348:298,1,80,8|2,0:0|0:1,0:0:0:0:
13,359,114156,6,0,P|5:319|14:274,1,80,6|2,1:2|1:2,0:0:0:0:
41,248,114781,2,0,P|50:208|41:169,1,80,8|8,1:2|1:2,0:0:0:0:
40,126,115406,2,0,P|96:145|156:119,2,120,6|8|2,1:2|1:2|1:2,0:0:0:0:
93,56,117073,1,6,1:2:0:0:
179,40,117489,6,0,L|227:25,2,40,2|8|6,1:2|1:2|1:2,0:0:0:0:
220,117,118322,2,0,L|268:102,2,40,2|8|6,1:2|1:2|1:2,0:0:0:0:
262,194,119156,1,2,1:2:0:0:
307,269,119573,38,0,P|254:282|197:252,1,120,12|0,1:2|0:0,0:0:0:0:
177,214,120406,2,0,L|165:89,2,120,6|8|0,1:2|1:2|0:0,0:0:0:0:
145,296,122073,6,0,P|185:305|222:291,1,80,6|0,1:2|0:0,0:0:0:0:
295,246,122906,2,0,P|351:232|414:247,1,120,6|8,1:2|1:2,0:0:0:0:
452,260,123739,2,0,L|464:124,2,120,6|8|0,1:2|1:2|0:0,0:0:0:0:
504,330,125406,2,0,P|454:347|388:318,1,120,6|2,0:1|0:1,0:0:0:0:
204,211,127073,38,0,P|162:202|121:214,1,80,6|2,0:0|0:0,0:0:0:0:
45,246,127906,2,0,P|38:206|50:166,1,80,2|2,0:0|1:2,0:0:0:0:
19,85,128739,2,0,P|57:76|98:92,1,80,6|2,0:0|0:0,0:0:0:0:
176,122,129573,2,0,P|235:140|291:112,2,120,2|8|0,0:0|0:0|0:0,0:0:0:0:
228,51,131239,6,0,P|282:29|345:53,1,120,6|8,0:0|0:0,0:0:0:0:
371,77,132073,2,0,L|389:200,1,120,6|8,0:0|0:0,0:0:0:0:
396,239,132906,2,0,P|342:261|279:237,1,120,10|8,1:2|1:2,0:0:0:0:
250,216,133739,1,6,1:2:0:0:
172,175,134156,38,0,P|161:212|172:256,1,80,6|2,0:0|0:0,0:0:0:0:
221,322,134989,1,2,1:2:0:0:
309,322,135406,2,0,P|347:313|386:325,1,80,6|2,1:2|1:2,0:0:0:0:
468,354,136239,6,0,L|473:228,1,120,6|8,0:0|0:0,0:0:0:0:
472,189,137073,2,0,P|434:197|395:190,1,80,6|2,1:2|1:2,0:0:0:0:
318,143,137906,2,0,P|278:135|240:144,1,80,2|2,0:0|0:0,0:0:0:0:
195,219,138739,2,0,P|202:259|194:294,2,60,6|6|6,0:0|0:0|0:0,0:0:0:0:
158,194,139572,2,0,L|62:194,1,80,2|8,0:0|0:0,0:0:0:0:
60,107,140406,38,0,L|116:107,1,40,6|6,0:3|0:3,0:0:0:0:
143,107,140822,6,0,P|133:70|148:25,2,80,8|2|2,0:0|0:0|1:2,0:0:0:0:
223,71,142072,2,0,P|261:61|309:78,2,80,2|2|2,0:0|0:0|0:0,0:0:0:0:
260,150,143322,1,2,1:2:0:0:
238,233,143739,38,0,L|182:233,1,40,6|6,0:1|0:1,0:0:0:0:
155,233,144155,6,0,P|165:196|150:151,2,80,2|2|2,0:0|0:0|1:2,0:0:0:0:
75,197,145405,2,0,P|37:187|-11:204,2,80,2|2|4,0:0|0:0|3:0,0:0:0:0:
36,275,146655,1,14,3:0:0:0:
116,311,147072,38,0,L|172:311,1,40,6|6,0:1|0:1,0:0:0:0:
199,311,147488,6,0,P|189:274|204:229,2,80,6|6|6,0:3|0:3|0:3,0:0:0:0:
279,275,148738,2,0,P|317:265|365:282,2,80,6|6|6,0:3|0:3|0:3,0:0:0:0:
318,353,149988,1,6,0:3:0:0:
229,347,150406,38,0,L|181:347,1,40,6|6,0:1|0:1,0:0:0:0:
153,321,150822,6,0,P|161:279|151:243,2,80,2|6|6,0:0|3:0|3:0,0:0:0:0:
72,284,152072,2,0,P|69:209|239:243,1,320,6|6,0:1|0:1,0:0:0:0:
427,356,154781,6,0,P|467:367|512:351,2,80,2|2|2,0:1|0:1|0:1,0:0:0:0:
465,276,156031,2,0,P|473:238|460:196,1,80,2|0,0:1|0:0,0:0:0:0:
384,241,156864,6,0,L|338:239,1,40,2|2,0:1|0:1,0:0:0:0:
281,176,157489,2,0,L|235:174,1,40,2|2,0:1|0:1,0:0:0:0:
153,170,158114,1,2,0:1:0:0:
111,92,158531,2,0,P|64:154|88:228,1,160,2|0,0:1|0:0,0:0:0:0:
163,269,159781,2,0,L|293:269,1,120,2|2,0:1|0:1,0:0:0:0:
458,263,161239,38,0,L|450:223,1,40,2|2,0:1|0:1,0:0:0:0:
420,140,161864,2,0,P|372:152|328:139,1,80,2|2,0:1|0:1,0:0:0:0:
259,117,162697,2,0,L|251:156,1,40,2|0,0:1|0:0,0:0:0:0:
230,241,163322,6,0,P|179:223|112:244,1,120,2|2,0:1|0:1,0:0:0:0:
44,289,164364,2,0,P|29:248|39:201,1,80,2|2,0:1|0:1,0:0:0:0:
95,149,165197,38,0,P|103:108|91:68,1,80,2|2,0:1|0:1,0:0:0:0:
175,40,166031,2,0,B|306:34,1,120,2|0,0:1|0:0,0:0:0:0:
382,31,167072,6,0,P|376:71|396:112,1,80,2|0,0:1|0:0,0:0:0:0:
440,179,167906,2,0,P|404:193|363:187,1,80,2|0,0:1|0:0,0:0:0:0:
285,147,168739,2,0,P|274:201|311:259,1,120,2|0,0:1|0:0,0:0:0:0:
284,340,169781,38,0,P|324:343|365:322,2,80,2|2|2,0:1|0:1|0:1,0:0:0:0:
199,314,171031,2,0,P|135:299|78:320,1,120,2|2,0:1|0:1,0:0:0:0:
45,143,172489,6,0,L|33:56,2,80,2|2|2,0:1|0:1|0:1,0:0:0:0:
126,176,173739,2,0,P|203:151|282:178,1,160,2|0,0:1|0:0,0:0:0:0:
359,201,174989,2,0,L|371:119,1,80,2|2,0:1|0:1,0:0:0:0:
222,27,176239,38,0,L|214:76,1,40,2|2,0:1|0:1,0:0:0:0:
194,151,176864,2,0,P|152:142|115:152,1,80,2|2,0:1|0:1,0:0:0:0:
116,239,177697,2,0,P|154:248|193:239,1,80,2|2,0:1|0:1,0:0:0:0:
271,199,178531,6,0,P|389:183|284:280,1,360,2|2,0:1|0:1,0:0:0:0:
16,53,182072,38,0,L|21:137,1,80,2|2,0:1|0:1,0:0:0:0:
106,111,182906,2,0,L|111:195,1,80,2|2,0:1|0:1,0:0:0:0:
160,263,183739,38,0,P|120:279|71:266,2,80,0|0|0,1:2|1:2|1:2,0:0:0:0:
221,199,184989,1,8,1:1:0:0:
298,157,185406,2,0,P|309:198|297:245,1,80,12|2,0:0|0:0,0:0:0:0:
238,294,186239,38,0,L|111:309,1,120,12|2,0:0|0:0,0:0:0:0:
74,310,187072,2,0,P|89:252|70:192,1,120,6|6,0:0|0:0,0:0:0:0:
39,167,187906,2,0,L|158:152,1,120,12|2,0:0|0:1,0:0:0:0:
201,148,188739,5,6,1:2:0:0:
279,107,189156,2,0,P|290:156|281:191,1,80,6|2,1:2|0:0,0:0:0:0:
228,253,189989,1,2,1:2:0:0:
314,268,190406,2,0,L|410:271,1,80,6|2,1:2|1:2,0:0:0:0:
463,323,191239,38,0,P|481:277|452:207,1,120,6|8,0:0|0:0,0:0:0:0:
424,184,192072,2,0,P|413:135|422:91,1,80,6|2,1:2|1:2,0:0:0:0:
356,41,192906,2,0,L|268:41,1,80,2|2,0:0|0:0,0:0:0:0:
241,121,193739,2,0,P|247:158|239:192,2,60,6|6|6,0:0|0:0|0:0,0:0:0:0:
136,39,194989,1,8,0:1:0:0:
73,100,195406,6,0,P|69:130|74:152,2,40,6|8|2,0:0|0:0|0:0,0:0:0:0:
158,123,196240,2,0,L|250:131,1,80,2|2,0:0|1:2,0:0:0:0:
294,196,197072,2,0,P|298:226|293:248,2,40,6|8|2,0:0|0:0|0:0,0:0:0:0:
209,219,197906,2,0,L|117:227,1,80,2|2,0:0|1:2,0:0:0:0:
48,190,198740,38,0,L|0:186,2,40,6|8|2,0:0|0:0|0:0,0:0:0:0:
41,103,199572,2,0,P|35:65|53:17,1,80,2|2,0:0|1:2,0:0:0:0:
121,73,200406,2,0,L|169:77,2,40,6|8|2,0:0|0:0|0:0,0:0:0:0:
128,160,201240,2,0,P|134:198|116:246,1,80,10|0,1:2|0:0,0:0:0:0:
58,298,202073,6,0,L|7:300,2,40,14|8|2,1:2|0:0|0:0,0:0:0:0:
120,361,202907,2,0,L|205:356,1,80,2|2,0:0|1:2,0:0:0:0:
252,286,203739,2,0,L|303:284,2,40,6|8|2,0:0|0:0|0:0,0:0:0:0:
190,223,204573,2,0,L|105:228,1,80,2|2,0:0|1:2,0:0:0:0:
22,236,205406,37,2,0:0:0:0:
57,155,205823,1,2,0:0:0:0:
89,73,206239,1,2,0:0:0:0:
143,142,206656,1,2,0:0:0:0:
175,60,207073,2,0,P|216:52|259:64,1,80,6|2,0:0|0:0,0:0:0:0:
324,112,207906,1,2,0:0:0:0:
402,151,208322,2,0,P|410:112|402:73,1,80,6|0,0:0|0:0,0:0:0:0:
