osu file format v14

[General]
AudioFilename: audio.mp3
AudioLeadIn: 0
PreviewTime: 126968
Countdown: 0
SampleSet: Soft
StackLeniency: 0.5
Mode: 0
LetterboxInBreaks: 0
WidescreenStoryboard: 0

[Editor]
Bookmarks: 406,7072,20406,47489,60406,73739,87072,114156,127072,140406,153739,182072,195406,208739
DistanceSpacing: 0.1
BeatDivisor: 4
GridSize: 4
TimelineZoom: 1

[Metadata]
Title:Wake up
TitleUnicode:Wake up
Artist:Dreamcatcher
ArtistUnicode:드림캐쳐
Creator:Natsu
Version:Deep Night
Source:
Tags:지유 수아 시연 한동 유현 다미 가현 Ji-U Su-A SiYeon Handong YooHyun DaMi Gahyeon Happy Face Entertainment Prequel 1st mini album kpop k-pop rock
BeatmapID:1368115
BeatmapSetID:645662

[Difficulty]
HPDrainRate:6
CircleSize:4
OverallDifficulty:8
ApproachRate:9
SliderMultiplier:1.8
SliderTickRate:1

[Events]
//Background and Video events
0,0,"KakaoTalk_20170814_093217496.png",0,0
//Break Periods
//Storyboard Layer 0 (Background)
//Storyboard Layer 1 (Fail)
//Storyboard Layer 2 (Pass)
//Storyboard Layer 3 (Foreground)
//Storyboard Sound Samples

[TimingPoints]
406,416.666666666667,4,2,1,25,1,0
406,-125,4,2,1,25,0,0
2072,-125,4,2,1,30,0,0
3739,-125,4,2,1,35,0,0
5406,-125,4,2,1,40,0,0
6239,-125,4,2,1,50,0,0
7072,-100,4,2,1,50,0,0
18739,-83.3333333333333,4,2,1,50,0,0
18947,-83.3333333333333,4,2,1,5,0,0
19051,-100,4,2,1,50,0,0
19260,-100,4,2,1,5,0,0
19364,-125,4,2,1,50,0,0
19781,-125,4,2,1,5,0,0
20197,-111.111111111111,4,2,1,40,0,0
47489,-90.9090909090909,4,2,1,50,0,1
58739,-166.666666666667,4,2,1,50,0,0
59156,-166.666666666667,4,2,1,5,0,0
59364,-166.666666666667,4,2,1,30,0,0
59572,-166.666666666667,4,2,1,5,0,0
59781,-142.857142857143,4,2,1,30,0,0
59989,-125,4,2,1,30,0,0
60301,-125,4,2,1,5,0,0
60406,-90.9090909090909,4,2,1,50,0,1
72072,-71.4285714285714,4,2,1,50,0,1
72281,-71.4285714285714,4,2,1,5,0,1
72385,-100,4,2,1,50,0,1
72593,-100,4,2,1,5,0,1
72697,-166.666666666667,4,2,1,50,0,1
73114,-166.666666666667,4,2,1,5,0,1
73322,-100,4,2,1,50,0,1
73635,-100,4,2,1,5,0,1
73739,-100,4,2,1,50,0,0
83739,-105.263157894737,4,2,1,50,0,0
86968,-105.263157894737,4,2,1,5,0,0
87072,-111.111111111111,4,2,1,40,0,0
112281,-111.111111111111,4,2,1,25,0,0
113114,-111.111111111111,4,2,1,40,0,0
114156,-90.9090909090909,4,2,1,50,0,1
125406,-166.666666666667,4,2,1,50,0,0
125822,-166.666666666667,4,2,1,5,0,0
126031,-166.666666666667,4,2,1,30,0,0
126239,-166.666666666667,4,2,1,5,0,0
127072,-90.909090909091,4,2,1,50,0,1
138739,-71.4285714285714,4,2,1,50,0,1
138947,-71.4285714285714,4,2,1,5,0,1
139051,-100,4,2,1,50,0,1
139260,-100,4,2,1,5,0,1
139364,-166.666666666667,4,2,1,50,0,1
139468,-166.666666666667,4,2,1,5,0,1
139572,-166.666666666667,4,2,1,50,0,0
140406,-83.3333333333333,4,2,1,50,0,0
140510,-83.3333333333333,4,2,1,5,0,0
140614,-83.3333333333333,4,2,1,50,0,0
140718,-83.3333333333333,4,2,1,5,0,0
140822,-100,4,2,1,35,0,0
143739,-83.3333333333333,4,2,1,50,0,0
143843,-83.3333333333333,4,2,1,5,0,0
143947,-83.3333333333333,4,2,1,50,0,0
144051,-83.3333333333333,4,2,1,5,0,0
144156,-100,4,2,1,35,0,0
147072,-83.3333333333333,4,2,1,50,0,0
147176,-83.3333333333333,4,2,1,5,0,0
147281,-83.3333333333333,4,2,1,50,0,0
147385,-83.3333333333333,4,2,1,5,0,0
147489,-100,4,2,1,35,0,0
150406,-83.3333333333333,4,2,1,50,0,0
150510,-83.3333333333333,4,2,1,5,0,0
150614,-83.3333333333333,4,2,1,50,0,0
150718,-83.3333333333333,4,2,1,5,0,0
150822,-100,4,2,1,35,0,0
152072,-100,4,2,1,50,0,0
152489,-100,4,2,1,5,0,0
153322,-100,4,2,1,20,0,0
153739,-166.666666666667,4,2,1,25,0,0
178635,-166.666666666667,4,2,1,10,0,0
180301,-166.666666666667,4,2,1,5,0,0
180406,-200,4,2,1,25,0,0
180614,-200,4,2,1,10,0,0
181968,-200,4,2,1,5,0,0
182072,-142.857142857143,4,2,1,50,0,0
182281,-142.857142857143,4,2,1,5,0,0
182489,-142.857142857143,4,2,1,50,0,0
182697,-142.857142857143,4,2,1,5,0,0
182906,-142.857142857143,4,2,1,50,0,0
183114,-142.857142857143,4,2,1,5,0,0
183322,-142.857142857143,4,2,1,50,0,0
183531,-142.857142857143,4,2,1,5,0,0
183739,-125,4,2,1,50,0,0
184156,-117.647058823529,4,2,1,50,0,0
184572,-111.111111111111,4,2,1,50,0,0
184989,-100,4,2,1,50,0,0
185301,-100,4,2,1,5,0,0
185406,-90.9090909090909,4,2,1,50,0,0
187176,-90.9090909090909,4,2,1,5,0,0
187385,-90.9090909090909,4,2,1,50,0,0
187489,-90.9090909090909,4,2,1,5,0,0
187697,-90.9090909090909,4,2,1,50,0,0
187801,-90.9090909090909,4,2,1,5,0,0
187906,-90.9090909090909,4,2,1,50,0,0
188635,-90.9090909090909,4,2,1,5,0,0
188739,-90.9090909090909,4,2,1,50,0,1
193739,-71.4285714285714,4,2,1,50,0,1
193947,-71.4285714285714,4,2,1,5,0,1
194051,-100,4,2,1,50,0,1
194260,-100,4,2,1,5,0,1
194364,-166.666666666667,4,2,1,50,0,1
194572,-166.666666666667,4,2,1,5,0,1
194989,-100,4,2,1,50,0,1
195301,-100,4,2,1,5,0,1
195406,-100,4,2,1,50,0,0
205406,-105.263157894737,4,2,1,50,0,0
208739,-105.263157894737,4,2,1,5,0,0

[Colours]
Combo1 : 210,210,210
Combo2 : 63,94,152
Combo3 : 155,155,155
Combo4 : 124,154,186
SliderBorder : 91,163,234
SliderTrackOverride : 30,30,30

[HitObjects]
401,384,406,37,2,0:1:0:0:
332,361,614,1,0,0:0:0:0:
332,289,822,1,0,0:0:0:0:
401,267,1031,1,0,0:0:0:0:
443,325,1239,1,0,0:0:0:0:
512,302,1447,1,0,0:0:0:0:
510,230,1655,1,0,0:0:0:0:
442,209,1864,1,0,0:0:0:0:
332,361,2072,5,2,0:1:0:0:
256,335,2280,1,0,0:0:0:0:
256,256,2488,1,0,0:0:0:0:
332,232,2697,1,0,0:0:0:0:
378,296,2905,1,0,0:0:0:0:
454,270,3113,1,0,0:0:0:0:
451,191,3321,1,0,0:0:0:0:
377,168,3530,1,0,0:0:0:0:
256,335,3739,37,2,0:1:0:0:
173,306,3947,1,0,0:0:0:0:
173,219,4155,1,0,0:0:0:0:
256,193,4364,1,0,0:0:0:0:
307,263,4572,1,0,0:0:0:0:
391,235,4780,1,0,0:0:0:0:
387,148,4988,1,0,0:0:0:0:
306,122,5197,1,0,0:0:0:0:
141,225,5406,5,2,0:1:0:0:
49,193,5614,1,0,0:0:0:0:
49,97,5822,1,0,0:0:0:0:
141,68,6031,1,0,0:0:0:0:
219,198,6239,5,8,1:2:0:0:
251,213,6343,1,8,1:2:0:0:
287,219,6447,1,8,1:2:0:0:
322,211,6551,1,8,1:2:0:0:
354,195,6655,1,8,1:2:0:0:
387,182,6759,1,8,1:2:0:0:
423,181,6864,1,8,1:2:0:0:
457,193,6968,1,8,1:2:0:0:
484,220,7072,5,6,1:2:0:0:
337,384,7281,1,8,0:0:0:0:
354,163,7489,1,2,0:0:0:0:
475,354,7697,1,8,0:0:0:0:
268,272,7906,1,2,0:0:0:0:
484,220,8114,2,0,L|430:241,1,45,8|0,1:2|1:2,0:0:0:0:
268,272,8322,2,0,L|322:293,1,45,2|0,1:2|1:2,0:0:0:0:
475,354,8531,1,8,1:2:0:0:
338,64,8739,37,6,0:0:0:0:
268,272,8947,1,8,0:0:0:0:
484,220,9156,1,2,0:0:0:0:
238,148,9364,1,8,0:0:0:0:
451,101,9572,1,2,0:0:0:0:
390,309,9781,2,0,P|379:287|379:258,1,45,8|0,1:2|1:2,0:0:0:0:
338,64,9989,2,0,P|349:86|349:115,1,45,2|0,1:2|1:2,0:0:0:0:
268,272,10198,1,8,1:2:0:0:
116,59,10406,5,6,0:0:0:0:
350,106,10614,1,8,0:0:0:0:
150,238,10822,1,2,0:0:0:0:
198,4,11031,1,8,0:0:0:0:
330,203,11239,1,2,0:0:0:0:
96,156,11447,2,0,P|123:151|147:132,1,45,8|0,1:2|1:0,0:0:0:0:
295,24,11656,2,0,P|284:45|283:76,1,45,2|0,1:2|1:0,0:0:0:0:
247,258,11864,1,8,1:2:0:0:
160,17,12072,37,6,0:0:0:0:
34,197,12281,1,8,0:0:0:0:
245,130,12489,1,2,0:0:0:0:
32,55,12697,1,8,0:0:0:0:
158,239,12906,1,2,0:0:0:0:
160,17,13114,2,0,P|150:39|151:71,1,45,8|0,1:2|1:0,0:0:0:0:
158,239,13322,2,0,P|159:212|147:187,1,45,2|0,1:2|1:0,0:0:0:0:
32,55,13531,1,8,1:2:0:0:
357,139,13739,5,6,0:0:0:0:
158,239,13947,1,8,0:0:0:0:
350,355,14156,1,2,0:0:0:0:
226,128,14364,1,8,0:0:0:0:
219,351,14572,1,2,0:0:0:0:
408,248,14781,2,0,P|380:245|359:247,1,45,8|0,1:2|1:0,0:0:0:0:
158,239,14989,2,0,P|185:240|208:233,1,45,2|0,1:2|1:0,0:0:0:0:
357,139,15198,1,8,1:2:0:0:
219,351,15406,37,6,0:0:0:0:
70,164,15614,1,8,0:0:0:0:
307,191,15822,1,2,0:0:0:0:
120,340,16031,1,8,0:0:0:0:
148,102,16239,1,2,0:0:0:0:
296,290,16447,2,0,P|267:281|237:281,1,45,8|0,1:2|1:0,0:0:0:0:
59,263,16656,2,0,P|82:256|103:241,1,45,2|0,1:2|1:0,0:0:0:0:
246,113,16864,1,8,1:2:0:0:
219,351,17072,5,6,0:0:0:0:
126,146,17281,1,8,0:0:0:0:
84,365,17489,1,2,0:0:0:0:
248,209,17697,1,8,0:0:0:0:
28,236,17906,1,2,0:0:0:0:
219,351,18114,1,8,0:0:0:0:
126,146,18322,2,0,P|115:171|113:201,1,45,2|0,1:2|1:0,0:0:0:0:
84,365,18531,2,0,P|109:362|134:343,1,45,8|0,0:0|1:0,0:0:0:0:
248,209,18739,38,0,P|261:158|245:107,1,107.999996704102,6|0,0:0|0:0,0:0:0:0:
26,114,19051,6,0,P|15:165|32:215,1,90,6|0,0:0|0:0,0:0:0:0:
178,188,19364,38,0,P|164:122|117:203,1,216,6|0,0:0|0:0,0:0:0:0:
162,339,20197,37,2,0:0:0:0:
162,339,20301,1,2,0:0:0:0:
162,339,20406,1,6,0:0:0:0:
264,225,20614,1,2,0:0:0:0:
115,256,20822,1,8,0:0:0:0:
254,318,21031,1,2,0:0:0:0:
178,188,21239,1,2,0:0:0:0:
162,339,21447,37,2,0:0:0:0:
268,229,21656,1,8,0:0:0:0:
268,229,21760,2,0,P|240:229|229:240,1,40.4999987640381,2|2,0:1|0:0,0:0:0:0:
162,339,21968,2,0,P|176:355|172:308,1,121.499996292114,2|2,0:1|0:0,0:0:0:0:
55,384,22489,5,8,0:0:0:0:
79,227,22697,1,2,0:0:0:0:
55,384,22906,2,0,P|40:343|46:304,1,80.9999975280763,2|2,0:0|0:0,0:0:0:0:
158,191,23322,37,8,0:0:0:0:
265,299,23531,1,8,0:0:0:0:
117,336,23739,1,2,0:0:0:0:
158,191,23947,1,2,0:0:0:0:
265,299,24156,2,0,P|307:309|342:298,2,80.9999975280763,8|2|2,0:0|0:0|0:0,0:0:0:0:
158,120,24781,5,2,0:0:0:0:
301,191,24990,1,8,0:0:0:0:
301,191,25094,2,0,P|306:215|303:231,1,40.4999987640381,2|2,0:1|0:0,0:0:0:0:
222,355,25302,2,0,P|208:371|212:324,1,121.499996292114,2|2,0:1|0:0,0:0:0:0:
357,318,25822,37,8,0:0:0:0:
507,276,26030,1,2,0:0:0:0:
356,240,26239,2,0,P|346:279|357:318,1,80.9999975280763,2|8,0:0|0:0,0:0:0:0:
507,353,26656,2,0,P|516:314|507:276,1,80.9999975280763,8|2,0:0|0:0,0:0:0:0:
349,168,27072,5,2,0:0:0:0:
499,126,27280,1,2,0:0:0:0:
284,131,27489,2,0,P|274:170|285:209,2,80.9999975280763,8|2|2,0:0|0:0|0:0,0:0:0:0:
499,126,28114,37,2,0:0:0:0:
434,269,28323,1,8,0:0:0:0:
434,269,28426,2,0,P|407:272|394:271,1,40.4999987640381,2|2,0:1|0:0,0:0:0:0:
312,192,28635,2,0,P|296:178|343:182,1,121.499996292114,2|2,0:1|0:0,0:0:0:0:
377,349,29156,5,8,0:0:0:0:
238,281,29364,1,2,0:0:0:0:
393,270,29572,2,0,L|377:349,1,80.9999975280763,2|2,0:0|0:0,0:0:0:0:
324,216,29989,37,8,0:0:0:0:
477,242,30197,1,8,0:0:0:0:
423,95,30406,1,2,0:0:0:0:
393,270,30614,5,2,0:0:0:0:
247,324,30822,1,8,0:0:0:0:
192,176,31031,1,2,0:0:0:0:
338,122,31239,2,0,L|314:211,1,80.9999975280763,2|2,0:0|0:0,0:0:0:0:
247,324,31551,2,0,L|233:279,1,40.4999987640381,2|8,0:1|0:0,0:0:0:0:
165,108,31864,1,2,0:0:0:0:
316,200,32072,38,0,P|355:211|398:200,1,80.9999975280763,2|2,0:0|0:0,0:0:0:0:
512,101,32489,2,0,P|473:90|430:101,1,80.9999975280763,8|2,0:0|0:0,0:0:0:0:
316,200,32906,5,2,0:0:0:0:
184,92,33114,1,8,0:0:0:0:
352,102,33322,1,8,0:0:0:0:
209,190,33531,1,2,0:0:0:0:
272,36,33739,2,0,P|282:76|270:117,1,80.9999975280763,2|2,0:0|0:0,0:0:0:0:
138,223,34156,37,8,0:0:0:0:
294,197,34364,1,2,0:0:0:0:
138,223,34573,2,0,P|172:196|211:189,1,80.9999975280763,2|2,0:0|0:0,0:0:0:0:
364,163,34989,2,0,P|329:189|290:196,1,80.9999975280763,8|2,0:0|0:0,0:0:0:0:
71,199,35406,5,2,0:0:0:0:
178,87,35614,1,2,0:0:0:0:
293,196,35823,1,8,0:0:0:0:
185,308,36031,1,2,0:0:0:0:
26,136,36239,38,0,P|68:122|120:139,1,80.9999975280763,2|2,0:0|0:0,0:0:0:0:
224,229,36656,1,8,0:0:0:0:
71,203,36864,1,8,0:0:0:0:
170,82,37072,2,0,P|184:124|167:176,1,80.9999975280763,2|2,0:0|0:0,0:0:0:0:
65,294,37489,5,8,0:0:0:0:
221,268,37697,1,2,0:0:0:0:
65,294,37906,2,0,P|99:267|138:260,1,80.9999975280763,2|2,0:0|0:0,0:0:0:0:
292,235,38322,2,0,P|257:261|218:268,1,80.9999975280763,8|2,0:0|0:0,0:0:0:0:
65,294,38739,37,2,0:0:0:0:
81,143,38947,1,2,0:0:0:0:
157,273,39155,1,8,0:0:0:0:
18,211,39364,1,2,0:0:0:0:
167,180,39572,2,0,P|204:170|250:181,1,80.9999975280763,2|8,0:0|0:0,0:0:0:0:
390,236,39989,2,0,P|353:246|307:235,1,80.9999975280763,8|2,0:0|0:0,0:0:0:0:
171,100,40406,6,0,L|163:274,1,161.999995056153,2|8,0:0|0:0,0:0:0:0:
286,359,41031,1,2,0:0:0:0:
163,261,41239,2,0,P|77:235|6:275,2,161.999995056153,2|8|2,0:0|0:0|0:0,0:0:0:0:
265,375,42281,37,2,0:0:0:0:
249,224,42489,1,8,0:0:0:0:
173,354,42697,1,2,0:0:0:0:
312,292,42906,1,2,0:0:0:0:
163,261,43114,2,0,P|126:251|80:262,1,80.9999975280763,2|8,0:0|0:0,0:0:0:0:
312,292,43531,2,0,P|349:301|394:289,1,80.9999975280763,8|2,0:0|0:0,0:0:0:0:
455,113,43947,5,2,0:0:0:0:
351,225,44156,1,8,0:0:0:0:
305,79,44364,1,2,0:0:0:0:
434,199,44572,1,2,0:0:0:0:
285,164,44781,1,2,0:0:0:0:
390,52,44989,1,8,0:0:0:0:
351,225,45197,38,0,P|341:261|350:304,1,80.9999975280763,2|2,0:0|0:0,0:0:0:0:
434,199,45614,1,8,0:0:0:0:
293,171,45822,1,8,0:0:0:0:
293,171,45926,1,8,0:0:0:0:
293,171,46031,1,8,0:0:0:0:
390,52,46239,1,8,0:0:0:0:
441,207,46447,1,2,0:0:0:0:
441,207,46551,1,2,0:0:0:0:
441,207,46656,2,0,P|454:243|442:287,2,80.9999975280763,2|2|2,0:0|0:0|0:0,0:0:0:0:
83,174,47490,37,6,1:2:0:0:
54,195,47594,1,0,1:2:0:0:
35,227,47698,1,8,1:2:0:0:
27,262,47802,1,0,1:2:0:0:
31,298,47906,1,2,1:2:0:0:
47,330,48010,1,0,1:2:0:0:
73,356,48115,1,8,1:2:0:0:
105,371,48219,1,0,1:2:0:0:
141,376,48323,1,2,1:2:0:0:
176,370,48427,1,0,1:2:0:0:
207,352,48531,1,8,1:2:0:0:
231,324,48635,1,0,1:2:0:0:
255,286,48739,37,6,1:2:0:0:
285,308,48843,1,0,1:2:0:0:
314,332,48947,1,8,1:2:0:0:
344,357,49051,1,0,1:2:0:0:
376,377,49156,1,2,1:2:0:0:
365,341,49260,1,0,1:2:0:0:
354,305,49364,1,8,1:2:0:0:
340,268,49468,1,0,1:2:0:0:
326,231,49572,5,6,1:2:0:0:
359,209,49676,1,0,1:2:0:0:
391,186,49781,1,8,1:2:0:0:
424,165,49885,1,0,1:2:0:0:
453,143,49989,1,2,1:2:0:0:
415,143,50093,1,0,1:2:0:0:
378,143,50197,1,8,1:2:0:0:
341,145,50301,1,0,1:2:0:0:
297,146,50406,37,6,1:2:0:0:
285,107,50510,1,0,1:2:0:0:
275,71,50614,1,8,1:2:0:0:
264,33,50718,1,0,1:2:0:0:
253,0,50822,1,2,1:2:0:0:
241,35,50926,1,0,1:2:0:0:
233,71,51031,1,8,1:2:0:0:
220,107,51135,1,0,1:2:0:0:
207,147,51239,5,6,1:2:0:0:
168,147,51343,1,0,1:2:0:0:
131,148,51447,1,8,1:2:0:0:
93,147,51551,1,0,1:2:0:0:
52,143,51656,1,2,1:2:0:0:
84,166,51760,1,0,1:2:0:0:
115,188,51864,1,8,1:2:0:0:
147,210,51968,1,0,1:2:0:0:
179,233,52072,37,6,1:2:0:0:
170,271,52176,1,0,1:2:0:0:
158,305,52281,1,8,1:2:0:0:
146,341,52385,1,0,1:2:0:0:
128,378,52489,1,2,1:2:0:0:
162,356,52593,1,0,1:2:0:0:
192,332,52697,1,8,1:2:0:0:
224,308,52801,1,0,1:2:0:0:
265,279,52906,5,12,1:2:0:0:
312,268,53010,1,8,1:2:0:0:
341,229,53114,1,8,1:2:0:0:
337,181,53218,1,8,1:2:0:0:
303,147,53322,1,8,1:2:0:0:
255,143,53426,1,8,1:2:0:0:
216,171,53530,1,8,1:2:0:0:
205,219,53635,1,8,1:2:0:0:
228,261,53739,37,6,1:2:0:0:
272,269,53843,1,0,1:2:0:0:
316,278,53947,1,8,1:2:0:0:
360,287,54051,1,0,1:2:0:0:
404,296,54155,1,2,1:2:0:0:
389,253,54260,1,0,1:2:0:0:
375,210,54364,1,8,1:2:0:0:
361,168,54468,1,0,1:2:0:0:
347,126,54572,5,6,1:2:0:0:
317,159,54676,1,0,1:2:0:0:
287,193,54780,1,8,1:2:0:0:
257,227,54884,1,0,1:2:0:0:
227,260,54988,1,2,1:2:0:0:
212,217,55093,1,0,1:2:0:0:
198,174,55197,1,8,1:2:0:0:
184,132,55301,1,0,1:2:0:0:
170,90,55406,37,6,1:2:0:0:
214,98,55510,1,0,1:2:0:0:
258,107,55614,1,8,1:2:0:0:
302,116,55718,1,0,1:2:0:0:
346,125,55822,1,2,1:2:0:0:
389,118,55926,1,0,1:2:0:0:
414,82,56030,1,8,1:2:0:0:
404,39,56134,1,0,1:2:0:0:
367,16,56238,5,6,1:2:0:0:
325,28,56342,1,0,1:2:0:0:
304,67,56447,1,8,1:2:0:0:
309,111,56551,1,0,1:2:0:0:
314,156,56655,1,2,1:2:0:0:
319,200,56760,1,0,1:2:0:0:
324,245,56864,1,8,1:2:0:0:
331,289,56968,1,0,1:2:0:0:
313,330,57072,37,6,1:2:0:0:
271,342,57176,1,0,1:2:0:0:
234,319,57280,1,8,1:2:0:0:
224,276,57384,1,0,1:2:0:0:
249,240,57488,1,2,1:2:0:0:
292,233,57593,1,0,1:2:0:0:
335,241,57696,1,8,1:2:0:0:
374,263,57801,1,0,1:2:0:0:
409,290,57906,5,6,1:2:0:0:
457,290,58010,1,0,1:2:0:0:
498,263,58114,1,8,1:2:0:0:
512,218,58218,1,0,1:2:0:0:
508,170,58322,1,2,1:2:0:0:
474,135,58426,1,0,1:2:0:0:
426,125,58530,1,8,1:2:0:0:
381,143,58635,1,8,1:2:0:0:
347,180,58739,6,0,P|303:168|339:153,1,107.999996704102,6|0,2:1|0:0,0:0:0:0:
474,135,59364,2,0,L|468:198,1,53.9999983520508,2|0,2:1|0:0,0:0:0:0:
512,304,59781,6,0,L|504:348,1,31.4999990386963,2|2,0:0|0:0,0:0:0:0:
431,369,59989,38,0,P|382:348|331:362,1,108,8|0,2:1|0:0,0:0:0:0:
191,381,60406,38,0,P|202:333|185:287,1,99.0000030212403,6|8,0:0|0:0,0:0:0:0:
56,100,60822,2,0,P|45:147|62:193,1,99.0000030212403,2|8,0:0|0:0,0:0:0:0:
191,381,61239,1,2,0:0:0:0:
320,208,61447,1,8,1:2:0:0:
283,182,61551,1,0,1:2:0:0:
240,173,61655,1,2,1:2:0:0:
196,180,61759,1,0,1:2:0:0:
158,203,61863,1,8,1:2:0:0:
48,363,62072,38,0,P|89:379|149:357,1,99.0000030212403,6|8,0:0|0:0,0:0:0:0:
283,182,62489,1,2,0:0:0:0:
95,295,62697,1,8,0:0:0:0:
365,367,62906,6,0,P|376:318|359:271,1,99.0000030212403,2|8,0:0|0:0,0:0:0:0:
283,182,63218,2,0,P|267:135|278:88,1,99.0000030212403,2|2,0:0|0:0,0:0:0:0:
352,20,63531,1,8,0:0:0:0:
283,182,63739,37,6,1:2:0:0:
256,217,63843,1,0,1:2:0:0:
219,242,63947,1,8,1:2:0:0:
176,253,64051,1,0,1:2:0:0:
132,250,64155,1,2,1:2:0:0:
91,233,64259,1,0,1:2:0:0:
58,204,64364,6,0,P|53:181|65:147,1,49.5000015106202,8|0,1:2|1:0,0:0:0:0:
220,148,64572,2,0,P|233:197|217:245,1,99.0000030212403,2|8,0:0|0:0,0:0:0:0:
60,156,64885,2,0,P|47:107|63:59,1,99.0000030212403,2|2,0:0|0:0,0:0:0:0:
164,4,65197,1,8,0:0:0:0:
109,227,65406,38,0,P|59:244|12:229,1,99.0000030212403,6|8,0:0|0:0,0:0:0:0:
51,108,65718,2,0,P|60:132|59:160,1,49.5000015106202,2|2,0:0|0:0,0:0:0:0:
0,375,66031,1,8,0:0:0:0:
109,227,66239,5,10,1:2:0:0:
148,206,66343,1,8,1:2:0:0:
191,196,66447,1,8,1:2:0:0:
235,202,66551,1,8,1:2:0:0:
275,221,66655,1,10,1:2:0:0:
312,246,66759,1,8,1:2:0:0:
352,265,66864,1,8,1:2:0:0:
396,268,66968,1,8,1:2:0:0:
438,253,67072,2,0,P|455:206|442:156,1,99.0000030212403,6|8,1:2|0:0,0:0:0:0:
177,152,67489,38,0,P|160:198|175:248,1,99.0000030212403,6|8,0:0|0:0,0:0:0:0:
323,381,67906,1,2,0:0:0:0:
404,194,68114,1,8,1:2:0:0:
364,173,68218,1,0,1:2:0:0:
321,166,68322,1,2,1:2:0:0:
277,176,68426,1,0,1:2:0:0:
240,200,68530,1,8,1:2:0:0:
145,373,68739,5,6,1:2:0:0:
185,355,68843,1,0,1:2:0:0:
218,326,68947,1,8,1:2:0:0:
240,287,69051,1,0,1:2:0:0:
247,243,69155,1,2,1:2:0:0:
240,200,69259,1,0,1:2:0:0:
219,161,69364,38,0,P|196:154|163:159,1,49.5000015106202,8|0,1:2|1:0,0:0:0:0:
50,276,69572,2,0,P|98:289|148:276,1,99.0000030212403,6|8,0:0|0:0,0:0:0:0:
170,156,69885,2,0,P|122:143|72:156,1,99.0000030212403,2|2,0:0|0:0,0:0:0:0:
0,222,70197,1,8,0:0:0:0:
146,375,70406,5,6,1:2:0:0:
183,350,70510,1,0,1:2:0:0:
209,315,70614,1,8,1:2:0:0:
222,272,70718,1,0,1:2:0:0:
219,228,70822,1,2,1:2:0:0:
201,188,70926,1,0,1:2:0:0:
170,156,71031,38,0,P|139:153|113:159,1,49.5000015106202,8|0,1:2|1:0,0:0:0:0:
115,314,71239,2,0,P|162:328|214:311,1,99.0000030212403,2|8,0:0|0:0,0:0:0:0:
387,223,71656,1,2,0:0:0:0:
351,384,71864,1,8,0:0:0:0:
229,162,72072,6,0,P|175:188|163:252,1,125.999996154785,6|0,0:0|0:0,0:0:0:0:
294,197,72385,38,0,P|304:157|279:108,1,90,6|0,0:0|0:0,0:0:0:0:
232,233,72697,6,0,P|286:269|351:239,1,134.999995880127,6|0,0:0|0:0,0:0:0:0:
440,134,73322,38,0,L|412:282,1,135,8|0,2:1|0:0,0:0:0:0:
392,384,73739,5,6,0:0:0:0:
302,168,73948,1,8,0:0:0:0:
504,286,74156,1,2,0:0:0:0:
268,313,74364,1,8,0:0:0:0:
440,155,74573,1,2,0:0:0:0:
392,384,74781,2,0,P|395:366|387:333,1,45,8|0,1:2|1:0,0:0:0:0:
302,168,74989,2,0,P|314:193|348:213,1,45,2|0,1:2|1:0,0:0:0:0:
504,286,75198,1,8,1:2:0:0:
268,313,75406,37,6,0:0:0:0:
322,89,75614,1,8,0:0:0:0:
101,162,75823,1,2,0:0:0:0:
365,215,76031,1,8,0:0:0:0:
191,61,76239,1,2,0:0:0:0:
147,283,76447,2,0,P|170:272|192:246,1,45,8|0,1:2|1:0,0:0:0:0:
322,89,76656,2,0,P|304:115|298:137,1,45,2|0,1:2|1:0,0:0:0:0:
268,313,76865,1,8,1:2:0:0:
191,61,77072,5,6,0:0:0:0:
47,265,77281,1,8,0:0:0:0:
294,219,77489,1,2,0:0:0:0:
88,78,77698,1,8,0:0:0:0:
133,324,77906,1,2,0:0:0:0:
275,118,78114,2,0,P|250:133|218:136,1,45,8|0,1:2|1:0,0:0:0:0:
29,164,78323,2,0,P|52:171|75:194,1,45,2|0,1:2|1:0,0:0:0:0:
236,306,78531,1,8,1:2:0:0:
191,61,78739,37,6,0:0:0:0:
390,182,78948,1,8,0:0:0:0:
157,205,79156,1,2,0:0:0:0:
331,44,79364,1,8,0:0:0:0:
286,274,79572,1,10,1:2:0:0:
264,312,79676,1,8,1:2:0:0:
225,333,79780,1,8,1:2:0:0:
181,328,79884,1,8,1:2:0:0:
147,300,79988,1,10,1:2:0:0:
134,257,80092,1,8,1:2:0:0:
148,215,80197,1,8,1:2:0:0:
182,187,80301,1,8,1:2:0:0:
226,183,80406,5,14,1:2:0:0:
392,341,80614,1,8,0:0:0:0:
440,113,80823,1,2,0:0:0:0:
226,183,81030,1,8,0:0:0:0:
482,241,81239,1,2,0:0:0:0:
261,315,81447,2,0,P|275:290|279:264,1,45,8|0,1:2|1:0,0:0:0:0:
311,92,81656,2,0,P|309:115|322:149,1,45,2|0,1:2|1:0,0:0:0:0:
392,341,81864,1,8,1:2:0:0:
79,277,82072,37,6,0:0:0:0:
216,68,82281,1,8,0:0:0:0:
261,315,82489,1,2,0:0:0:0:
56,174,82698,1,8,0:0:0:0:
302,127,82906,1,2,0:0:0:0:
160,334,83114,2,0,P|165:305|156:274,1,45,8|0,1:2|1:0,0:0:0:0:
115,88,83323,2,0,P|126:107|151:124,1,45,2|0,1:2|1:0,0:0:0:0:
322,230,83531,1,8,1:2:0:0:
74,337,83739,5,2,0:0:0:0:
7,194,83947,1,2,0:0:0:0:
150,127,84156,1,2,0:0:0:0:
217,270,84364,1,2,0:0:0:0:
11,279,84572,1,2,0:0:0:0:
65,131,84781,1,2,0:0:0:0:
214,185,84989,1,2,0:0:0:0:
160,334,85197,1,2,0:0:0:0:
7,194,85406,37,6,0:0:0:0:
286,179,85614,1,2,0:0:0:0:
74,337,85822,5,2,0:0:0:0:
61,57,86031,1,6,0:0:0:0:
61,57,86135,1,2,0:0:0:0:
61,57,86239,37,2,0:0:0:0:
286,179,86447,1,2,0:0:0:0:
11,279,86656,6,0,P|16:224|36:275,1,128.249996575356,6|0,0:0|0:0,0:0:0:0:
90,340,87072,5,6,0:0:0:0:
112,189,87280,1,2,0:0:0:0:
184,322,87488,1,8,0:0:0:0:
47,256,87697,1,2,0:0:0:0:
196,231,87905,1,2,0:0:0:0:
90,340,88114,5,2,0:0:0:0:
116,193,88322,1,8,0:0:0:0:
116,193,88426,2,0,L|122:239,1,40.4999987640381,2|2,0:1|0:0,0:0:0:0:
184,322,88634,2,0,P|233:304|298:321,1,121.499996292114,2|2,0:1|0:0,0:0:0:0:
478,370,89155,37,8,0:0:0:0:
502,213,89363,1,8,0:0:0:0:
375,322,89572,2,0,P|337:331|295:319,1,80.9999975280763,2|2,0:0|0:0,0:0:0:0:
186,183,89989,6,0,P|176:153|198:176,1,80.9999975280763,8|8,0:0|0:0,0:0:0:0:
282,332,90406,2,0,P|308:348|297:320,1,80.9999975280763,2|2,0:0|0:0,0:0:0:0:
124,317,90822,2,0,P|82:327|47:316,2,80.9999975280763,8|2|2,0:0|0:0|0:0,0:0:0:0:
276,177,91447,37,2,0:0:0:0:
302,324,91655,1,8,0:0:0:0:
302,324,91759,2,0,L|308:278,1,40.4999987640381,2|2,0:1|0:0,0:0:0:0:
370,195,91968,2,0,P|419:213|484:196,1,121.499996292114,2|2,0:1|0:0,0:0:0:0:
335,45,92488,5,8,0:0:0:0:
293,195,92696,1,2,0:0:0:0:
257,44,92905,2,0,P|296:34|335:45,1,80.9999975280763,2|8,0:0|0:0,0:0:0:0:
370,195,93322,2,0,P|331:204|293:195,1,80.9999975280763,8|2,0:0|0:0,0:0:0:0:
143,83,93738,37,2,0:0:0:0:
185,233,93946,1,2,0:0:0:0:
78,133,94155,2,0,P|39:123|0:134,2,80.9999975280763,8|2|2,0:0|0:0|0:0,0:0:0:0:
185,233,94781,5,2,0:0:0:0:
211,86,94989,1,8,0:0:0:0:
211,86,95093,2,0,L|217:132,1,40.4999987640381,2|2,0:1|0:0,0:0:0:0:
279,215,95301,2,0,P|328:197|393:214,1,121.499996292114,2|2,0:1|0:0,0:0:0:0:
238,320,95822,37,8,0:0:0:0:
170,181,96030,1,2,0:0:0:0:
159,336,96238,2,0,L|238:320,1,80.9999975280763,2|2,0:0|0:0,0:0:0:0:
113,226,96655,5,8,0:0:0:0:
93,379,96863,1,8,0:0:0:0:
238,319,97072,1,2,0:0:0:0:
38,231,97281,37,2,0:0:0:0:
184,177,97488,1,8,0:0:0:0:
239,325,97697,1,2,0:0:0:0:
93,379,97905,2,0,P|112:340|113:293,1,80.9999975280763,2|2,0:0|0:0,0:0:0:0:
184,177,98217,2,0,P|181:198|190:216,1,40.4999987640381,2|8,0:1|0:0,0:0:0:0:
296,380,98530,1,2,0:0:0:0:
345,187,98738,6,0,P|306:176|263:187,1,80.9999975280763,2|2,0:0|0:0,0:0:0:0:
149,286,99155,2,0,P|188:297|231:286,1,80.9999975280763,8|2,0:0|0:0,0:0:0:0:
345,187,99572,37,2,0:0:0:0:
477,295,99780,1,8,0:0:0:0:
309,285,99988,1,8,0:0:0:0:
452,197,100197,1,2,0:0:0:0:
389,351,100406,2,0,P|379:311|391:270,1,80.9999975280763,2|2,0:0|0:0,0:0:0:0:
449,97,100822,5,8,0:0:0:0:
311,31,101030,1,2,0:0:0:0:
512,59,101239,2,0,P|522:99|505:146,1,80.9999975280763,2|2,0:0|0:0,0:0:0:0:
311,163,101656,37,8,0:0:0:0:
449,97,101864,1,2,0:0:0:0:
248,125,102073,2,0,P|238:165|255:212,1,80.9999975280763,2|2,0:0|0:0,0:0:0:0:
449,229,102489,5,8,0:0:0:0:
311,163,102697,1,2,0:0:0:0:
512,191,102906,2,0,P|522:231|505:278,1,80.9999975280763,2|2,0:0|0:0,0:0:0:0:
311,295,103323,37,8,0:0:0:0:
449,229,103531,1,8,0:0:0:0:
248,257,103740,2,0,P|238:297|255:344,2,80.9999975280763,2|2|8,0:0|0:0|0:0,0:0:0:0:
457,237,104364,5,2,0:0:0:0:
457,237,104468,1,2,0:0:0:0:
457,237,104573,1,2,0:0:0:0:
310,191,104781,1,2,0:0:0:0:
454,141,104989,1,8,0:0:0:0:
367,266,105198,1,2,0:0:0:0:
365,115,105406,2,0,P|371:75|358:35,1,80.9999975280763,2|2,0:0|0:0,0:0:0:0:
310,191,105821,37,8,0:0:0:0:
454,141,106030,1,2,0:0:0:0:
367,266,106239,2,0,P|361:306|374:346,1,80.9999975280763,2|8,0:0|0:0,0:0:0:0:
457,237,106656,1,8,0:0:0:0:
310,191,106864,1,2,0:0:0:0:
454,141,107072,6,0,P|496:132|540:145,1,80.9999975280763,2|2,0:0|0:0,0:0:0:0:
389,186,107489,2,0,P|375:144|386:102,2,80.9999975280763,8|2|2,0:0|0:0|0:0,0:0:0:0:
512,301,108114,37,2,0:0:0:0:
364,338,108322,1,8,0:0:0:0:
512,380,108531,1,2,0:0:0:0:
375,263,108739,2,0,P|365:223|376:185,1,80.9999975280763,2|2,0:0|0:0,0:0:0:0:
512,92,109156,2,0,P|522:132|511:170,1,80.9999975280763,8|2,0:0|0:0,0:0:0:0:
414,325,109572,6,0,P|379:337|330:319,1,80.9999975280763,2|2,0:0|0:0,0:0:0:0:
273,275,109885,2,0,P|249:271|227:277,1,40.4999987640381,2|8,0:1|0:0,0:0:0:0:
98,382,110197,1,8,0:0:0:0:
233,274,110406,2,0,P|239:232|226:190,1,80.9999975280763,2|2,0:0|0:0,0:0:0:0:
196,346,110822,2,0,P|234:358|274:345,2,80.9999975280763,8|2|2,0:0|0:0|0:0,0:0:0:0:
72,181,111447,5,8,0:0:0:0:
233,87,111656,1,8,0:0:0:0:
233,274,111864,1,8,0:0:0:0:
72,181,112072,2,0,L|85:279,1,80.9999975280763,8|2,0:0|0:1,0:0:0:0:
233,274,112489,2,0,L|222:354,2,80.9999975280763,2|2|2,0:1|0:1|0:1,0:0:0:0:
241,95,113113,37,2,0:0:0:0:
241,95,113217,1,2,0:0:0:0:
241,95,113322,2,0,P|205:108|161:96,2,80.9999975280763,2|2|2,0:0|0:0|0:0,0:0:0:0:
505,197,114156,5,6,1:2:0:0:
481,218,114260,1,0,1:2:0:0:
455,235,114364,1,8,1:2:0:0:
425,243,114468,1,0,1:2:0:0:
393,241,114572,1,2,1:2:0:0:
364,231,114676,1,0,1:2:0:0:
335,217,114781,1,8,1:2:0:0:
306,204,114885,1,0,1:2:0:0:
277,193,114989,1,2,1:2:0:0:
246,187,115093,1,0,1:2:0:0:
215,189,115197,1,8,1:2:0:0:
186,201,115301,1,0,1:2:0:0:
151,230,115406,5,6,1:2:0:0:
123,269,115510,1,0,1:2:0:0:
130,314,115614,1,8,1:2:0:0:
168,341,115718,1,0,1:2:0:0:
215,333,115823,1,2,1:2:0:0:
242,295,115927,1,0,1:2:0:0:
234,250,116031,1,8,1:2:0:0:
196,223,116135,1,0,1:2:0:0:
151,230,116239,37,4,1:2:0:0:
188,257,116343,1,0,1:2:0:0:
233,249,116448,1,8,1:2:0:0:
260,211,116552,1,0,1:2:0:0:
252,165,116656,1,2,1:2:0:0:
214,138,116760,1,0,1:2:0:0:
169,146,116864,1,8,1:2:0:0:
142,184,116968,1,0,1:2:0:0:
151,230,117073,5,6,1:2:0:0:
176,192,117177,1,0,1:2:0:0:
169,147,117281,1,8,1:2:0:0:
131,119,117385,1,0,1:2:0:0:
83,127,117489,1,2,1:2:0:0:
57,165,117593,1,0,1:2:0:0:
65,210,117698,1,8,1:2:0:0:
103,238,117802,1,0,1:2:0:0:
151,230,117906,37,6,1:2:0:0:
111,205,118010,1,0,1:2:0:0:
66,211,118114,1,8,1:2:0:0:
38,249,118218,1,0,1:2:0:0:
46,296,118323,1,2,1:2:0:0:
84,322,118427,1,0,1:2:0:0:
129,314,118531,1,8,1:2:0:0:
157,276,118635,1,0,1:2:0:0:
151,230,118739,5,6,1:2:0:0:
126,270,118843,1,0,1:2:0:0:
129,314,118947,1,8,1:2:0:0:
165,339,119051,1,0,1:2:0:0:
212,331,119156,1,2,1:2:0:0:
238,293,119260,1,0,1:2:0:0:
230,248,119364,1,8,1:2:0:0:
192,220,119468,1,0,1:2:0:0:
151,193,119572,37,12,1:2:0:0:
117,156,119676,1,8,1:2:0:0:
112,108,119780,1,8,1:2:0:0:
136,66,119884,1,8,1:2:0:0:
181,47,119988,1,8,1:2:0:0:
228,58,120092,1,8,1:2:0:0:
259,95,120197,1,8,1:2:0:0:
262,144,120301,1,8,1:2:0:0:
243,190,120406,5,6,1:2:0:0:
223,229,120510,1,0,1:2:0:0:
230,273,120614,1,8,1:2:0:0:
261,304,120718,1,0,1:2:0:0:
305,312,120822,1,2,1:2:0:0:
344,292,120926,1,0,1:2:0:0:
365,253,121031,1,8,1:2:0:0:
359,209,121135,1,0,1:2:0:0:
329,177,121239,37,6,1:2:0:0:
309,217,121343,1,0,1:2:0:0:
316,260,121447,1,8,1:2:0:0:
348,292,121551,1,0,1:2:0:0:
391,299,121655,1,2,1:2:0:0:
431,280,121759,1,0,1:2:0:0:
452,241,121864,1,8,1:2:0:0:
446,197,121968,1,0,1:2:0:0:
416,164,122072,5,6,1:2:0:0:
371,159,122176,1,0,1:2:0:0:
326,155,122280,1,8,1:2:0:0:
281,151,122384,1,0,1:2:0:0:
236,146,122488,1,0,1:2:0:0:
254,187,122592,1,0,1:2:0:0:
273,228,122696,1,8,1:2:0:0:
292,269,122800,1,0,1:2:0:0:
310,311,122906,37,6,1:2:0:0:
337,275,123010,1,0,1:2:0:0:
363,238,123114,1,8,1:2:0:0:
389,201,123218,1,0,1:2:0:0:
415,165,123322,1,2,1:2:0:0:
371,159,123426,1,0,1:2:0:0:
326,155,123531,1,8,1:2:0:0:
281,151,123635,1,0,1:2:0:0:
235,146,123739,5,6,1:2:0:0:
190,143,123843,1,0,1:2:0:0:
155,169,123947,1,8,1:2:0:0:
144,211,124051,1,0,1:2:0:0:
162,251,124155,1,2,1:2:0:0:
202,270,124259,1,0,1:2:0:0:
245,260,124364,1,8,1:2:0:0:
271,224,124468,1,0,1:2:0:0:
276,174,124572,37,6,1:2:0:0:
280,126,124676,1,0,1:2:0:0:
313,89,124780,1,8,1:2:0:0:
360,80,124884,1,0,1:2:0:0:
404,101,124988,1,2,1:2:0:0:
427,144,125092,1,0,1:2:0:0:
419,192,125197,1,8,1:2:0:0:
384,226,125301,1,8,1:2:0:0:
336,232,125406,38,0,P|300:222|340:208,1,107.999996704102,6|0,0:1|0:0,0:0:0:0:
417,291,126031,2,0,L|411:363,1,53.9999983520508,2|0,0:1|0:0,0:0:0:0:
412,344,127072,6,0,P|359:329|312:343,1,99.0000030212403,6|8,0:0|0:0,0:0:0:0:
95,356,127489,2,0,P|148:371|195:357,1,99.0000030212403,2|8,0:0|0:0,0:0:0:0:
370,267,127906,1,2,0:0:0:0:
172,199,128114,1,8,1:2:0:0:
151,239,128218,1,0,1:2:0:0:
148,283,128322,1,2,1:2:0:0:
161,325,128426,1,0,1:2:0:0:
189,360,128530,1,8,1:2:0:0:
370,267,128739,6,0,P|329:251|269:273,1,99.0000030212403,6|8,0:0|0:0,0:0:0:0:
89,384,129156,1,2,0:0:0:0:
322,327,129364,1,8,0:0:0:0:
69,216,129573,38,0,P|58:265|75:312,1,99.0000030212403,2|8,0:0|0:0,0:0:0:0:
178,260,129885,2,0,P|188:212|172:166,1,99.0000030212403,2|2,0:0|0:0,0:0:0:0:
93,94,130198,1,8,0:0:0:0:
73,309,130406,5,6,1:2:0:0:
106,338,130510,1,0,1:2:0:0:
147,355,130614,1,8,1:2:0:0:
191,358,130718,1,0,1:2:0:0:
234,346,130822,1,2,1:2:0:0:
271,322,130926,1,0,1:2:0:0:
298,287,131031,38,0,P|300:263|289:231,1,49.5000015106202,8|0,1:2|1:0,0:0:0:0:
183,158,131239,2,0,P|232:171|280:155,1,99.0000030212403,6|8,0:0|0:0,0:0:0:0:
322,46,131551,2,0,P|273:33|225:49,1,99.0000030212403,2|2,0:0|0:0,0:0:0:0:
139,95,131864,1,8,0:0:0:0:
272,249,132073,6,0,P|289:199|274:152,1,99.0000030212403,6|8,0:0|0:0,0:0:0:0:
159,199,132385,2,0,P|185:205|210:198,1,49.5000015106202,2|2,0:0|0:0,0:0:0:0:
396,79,132698,1,8,0:0:0:0:
506,256,132906,37,10,1:2:0:0:
467,277,133010,1,8,1:2:0:0:
424,287,133114,1,8,1:2:0:0:
380,281,133218,1,8,1:2:0:0:
340,262,133322,1,10,1:2:0:0:
303,237,133426,1,8,1:2:0:0:
263,218,133531,1,8,1:2:0:0:
219,215,133635,1,8,1:2:0:0:
177,230,133739,2,0,P|160:277|173:327,1,99.0000030212403,6|8,1:2|0:0,0:0:0:0:
424,287,134156,6,0,P|441:241|426:191,1,99.0000030212403,6|8,0:0|0:0,0:0:0:0:
267,45,134573,1,2,0:0:0:0:
197,245,134781,1,8,1:2:0:0:
237,266,134885,1,0,1:2:0:0:
280,273,134989,1,2,1:2:0:0:
324,263,135093,1,0,1:2:0:0:
361,239,135197,1,8,1:2:0:0:
467,52,135406,37,6,1:2:0:0:
434,81,135510,1,0,1:2:0:0:
412,119,135614,1,8,1:2:0:0:
403,163,135718,1,0,1:2:0:0:
410,207,135822,1,2,1:2:0:0:
430,245,135926,1,0,1:2:0:0:
462,276,136031,6,0,P|487:281|520:273,1,49.5000015106202,8|0,1:2|1:0,0:0:0:0:
403,163,136239,2,0,P|355:150|305:163,1,99.0000030212403,6|8,0:0|0:0,0:0:0:0:
217,237,136552,2,0,P|169:248|122:235,1,99.0000030212403,2|2,0:0|0:0,0:0:0:0:
29,171,136864,1,8,0:0:0:0:
217,17,137073,37,6,1:2:0:0:
251,45,137177,1,0,1:2:0:0:
273,83,137281,1,8,1:2:0:0:
281,127,137385,1,0,1:2:0:0:
274,170,137489,1,2,1:2:0:0:
252,208,137593,1,0,1:2:0:0:
217,237,137698,6,0,P|189:241|161:234,1,49.5000015106202,8|0,1:2|1:0,0:0:0:0:
29,171,137906,2,0,P|76:157|128:174,1,99.0000030212403,2|8,0:0|0:0,0:0:0:0:
283,301,138323,1,2,0:0:0:0:
238,92,138531,1,8,0:0:0:0:
227,352,138739,38,0,P|278:378|349:336,1,125.999996154785,6|0,0:0|0:0,0:0:0:0:
289,211,139052,6,0,L|280:339,1,90,6|0,0:0|0:0,0:0:0:0:
215,196,139364,38,0,L|220:151,1,26.9999991760254,6|0,0:0|0:0,0:0:0:0:
230,74,139572,5,2,0:0:0:0:
86,135,139781,1,2,0:0:0:0:
245,97,139989,1,8,0:0:0:0:
92,167,140197,1,8,0:0:0:0:
92,167,140301,1,8,0:0:0:0:
92,167,140406,38,0,P|87:197|95:225,1,53.9999983520508,6|0,0:3|0:0,0:0:0:0:
215,248,140614,2,0,P|219:217|212:190,1,53.9999983520508,6|0,0:3|0:0,0:0:0:0:
148,105,140822,5,8,0:0:0:0:
148,283,141031,1,8,0:0:0:0:
300,194,141239,1,2,0:0:0:0:
148,105,141447,1,8,1:2:0:0:
148,125,141551,1,0,1:2:0:0:
149,146,141655,1,2,1:2:0:0:
148,168,141759,1,0,1:2:0:0:
149,190,141863,1,8,1:2:0:0:
149,368,142072,37,2,0:0:0:0:
301,279,142281,1,8,0:0:0:0:
149,190,142489,1,2,0:0:0:0:
232,360,142697,1,8,0:0:0:0:
384,271,142906,1,2,0:0:0:0:
232,182,143115,1,8,1:2:0:0:
232,202,143219,1,0,1:2:0:0:
233,223,143323,1,2,1:2:0:0:
232,245,143427,1,0,1:2:0:0:
233,267,143531,1,8,1:2:0:0:
402,384,143739,6,0,P|432:389|460:381,1,53.9999983520508,6|0,0:1|0:0,0:0:0:0:
483,261,143947,2,0,P|452:257|425:264,1,53.9999983520508,6|0,0:1|0:0,0:0:0:0:
323,299,144156,37,2,0:0:0:0:
264,130,144365,1,8,0:0:0:0:
437,165,144573,1,2,0:0:0:0:
323,299,144781,1,8,1:2:0:0:
315,279,144885,1,0,1:2:0:0:
309,259,144989,1,2,1:2:0:0:
301,238,145093,1,0,1:2:0:0:
295,217,145197,1,8,1:2:0:0:
236,48,145406,5,2,0:0:0:0:
409,83,145614,1,8,0:0:0:0:
295,217,145823,1,2,0:0:0:0:
164,72,146031,1,8,0:0:0:0:
337,107,146240,1,4,3:0:0:0:
343,128,146344,1,4,3:0:0:0:
351,149,146448,1,4,3:0:0:0:
357,169,146552,1,4,3:0:0:0:
372,213,146656,1,14,3:0:0:0:
357,259,146760,1,12,3:0:0:0:
316,285,146864,1,12,3:0:0:0:
268,279,146968,1,12,3:0:0:0:
236,243,147072,38,0,P|206:238|178:246,1,53.9999983520508,6|0,0:1|0:0,0:0:0:0:
155,366,147281,2,0,P|186:370|213:363,1,53.9999983520508,6|0,0:1|0:0,0:0:0:0:
316,285,147489,6,0,L|334:193,1,90,6|8,0:3|0:0,0:0:0:0:
512,214,147906,2,0,L|494:302,1,90,6|8,0:3|0:0,0:0:0:0:
401,295,148218,1,2,0:0:0:0:
401,295,148322,2,0,L|419:203,1,90,6|8,0:3|0:0,0:0:0:0:
277,67,148739,38,0,L|259:159,1,90,6|8,0:3|0:0,0:0:0:0:
81,138,149156,2,0,L|98:49,1,90,6|8,0:3|0:0,0:0:0:0:
259,155,149572,2,0,L|241:243,1,90,6|8,0:3|0:0,0:0:0:0:
148,236,149884,1,2,0:0:0:0:
148,236,149988,2,0,L|166:144,1,90,6|8,0:3|0:0,0:0:0:0:
357,210,150406,6,0,P|387:215|415:207,1,53.9999983520508,6|0,0:1|0:0,0:0:0:0:
438,87,150615,2,0,P|407:83|380:90,1,53.9999983520508,6|0,0:1|0:0,0:0:0:0:
295,160,150822,37,2,0:0:0:0:
233,8,151031,1,8,0:0:0:0:
214,200,151239,5,6,3:0:0:0:
242,234,151343,1,4,3:0:0:0:
284,250,151447,1,12,3:0:0:0:
328,244,151551,1,4,3:0:0:0:
364,218,151655,1,6,3:0:0:0:
383,178,151759,1,4,3:0:0:0:
380,133,151863,1,12,3:0:0:0:
357,96,151968,1,4,3:0:0:0:
291,70,152072,38,2,P|262:245|356:95,1,495,6|0,0:1|0:1,0:1:0:0:
299,148,153322,6,2,L|284:183,7,22.5,2|2|2|2|2|2|2|2,0:1|0:1|0:1|0:1|0:1|0:1|0:1|0:1,0:1:0:0:
290,168,153739,38,0,P|302:234|222:182,1,215.999993408203,6|0,0:1|0:0,0:0:0:0:
226,65,154781,37,2,0:1:0:0:
147,84,154989,1,2,0:1:0:0:
77,127,155197,2,0,P|73:153|79:179,1,53.9999983520508,2|0,0:1|0:0,0:0:0:0:
131,241,155614,2,0,P|137:267|132:293,1,53.9999983520508,2|0,0:1|0:0,0:0:0:0:
103,369,156031,2,0,L|217:362,1,107.999996704102,2|0,0:1|0:0,0:0:0:0:
433,326,156864,37,2,0:1:0:0:
368,375,157072,2,0,P|353:325|376:268,1,107.999996704102,2|2,0:1|0:1,0:0:0:0:
445,240,157697,2,0,P|451:213|447:187,1,53.9999983520508,2|0,0:1|0:0,0:0:0:0:
378,143,158114,2,0,P|374:116|380:90,1,53.9999983520508,2|0,0:1|0:0,0:0:0:0:
412,15,158531,1,2,0:1:0:0:
412,15,158739,2,0,L|292:11,2,107.999996704102,2|2|2,0:1|0:1|0:1,0:0:0:0:
476,150,159781,6,0,P|494:200|480:251,1,107.999996704102,2|0,0:1|0:0,0:0:0:0:
399,253,160406,2,0,P|384:201|403:152,1,107.999996704102,2|0,0:1|0:0,0:0:0:0:
500,22,161239,37,2,0:1:0:0:
437,73,161447,1,2,0:1:0:0:
357,87,161656,1,2,0:1:0:0:
279,63,161864,2,0,L|268:124,1,53.9999983520508,2|0,0:1|0:0,0:0:0:0:
331,168,162281,2,0,L|320:229,1,53.9999983520508,2|0,0:1|0:0,0:0:0:0:
302,299,162697,2,0,P|250:283|196:300,1,107.999996704102,2|0,0:1|0:0,0:0:0:0:
83,375,163322,5,2,0:1:0:0:
83,375,163531,2,0,P|88:345|81:319,1,53.9999983520508,2|0,0:1|0:0,0:0:0:0:
43,251,163947,2,0,P|37:224|42:198,1,53.9999983520508,2|0,0:1|0:0,0:0:0:0:
112,157,164364,2,0,L|238:150,1,107.999996704102,2|2,0:1|0:1,0:0:0:0:
460,132,165197,38,0,P|466:159|461:185,1,53.9999983520508,2|0,0:1|0:0,0:0:0:0:
355,168,165614,2,0,P|349:141|354:115,1,53.9999983520508,2|0,0:1|0:0,0:0:0:0:
461,185,166031,2,0,P|396:251|355:168,1,215.999993408203,2|0,0:1|0:0,0:0:0:0:
461,185,167072,6,0,L|424:344,1,161.999995056153,2|0,0:1|0:0,0:0:0:0:
424,342,167906,2,0,L|304:230,1,161.999995056153,2|0,0:1|0:0,0:0:0:0:
305,231,168739,2,0,B|460:184|460:184|408:164,1,215.999993408203,2|0,0:1|0:0,0:0:0:0:
264,140,169781,37,2,0:1:0:0:
224,210,169989,1,2,0:1:0:0:
185,138,170197,2,0,P|158:131|132:138,1,53.9999983520508,2|0,0:1|0:0,0:0:0:0:
39,198,170614,2,0,P|65:204|91:197,1,53.9999983520508,2|0,0:1|0:0,0:0:0:0:
189,142,171031,1,2,0:1:0:0:
189,142,171239,2,0,L|193:22,2,107.999996704102,2|2|2,0:1|0:1|0:1,0:0:0:0:
182,380,172489,5,2,0:1:0:0:
253,340,172697,1,2,0:1:0:0:
254,259,172906,1,2,0:1:0:0:
185,217,173114,1,2,0:1:0:0:
114,256,173322,1,2,0:1:0:0:
112,337,173531,1,2,0:1:0:0:
254,259,173739,38,0,B|374:335|391:182|514:270,1,269.999991760254,2|0,0:1|0:0,0:0:0:0:
506,265,174989,2,0,L|517:139,2,107.999996704102,2|2|2,0:1|0:1|0:1,0:0:0:0:
361,339,176239,37,2,0:1:0:0:
303,282,176447,2,0,L|298:242,2,26.9999991760254,2|2|2,0:1|0:1|0:1,0:0:0:0:
361,339,176864,2,0,P|387:333|416:338,1,53.9999983520508,2|0,0:1|0:0,0:0:0:0:
491,359,177281,2,0,L|506:296,1,53.9999983520508,2|0,0:1|0:0,0:0:0:0:
436,261,177697,2,0,L|421:198,1,53.9999983520508,2|0,0:1|0:0,0:0:0:0:
498,177,178114,2,0,L|513:114,1,53.9999983520508,2|0,0:1|0:0,0:0:0:0:
351,155,178531,6,0,P|202:238|285:90,1,458.999985992432,2|0,0:1|0:0,0:0:0:0:
327,164,180406,6,0,P|215:227|278:115,1,337.5,2|0,0:1|0:0,0:0:0:0:
327,164,182072,38,0,L|406:150,1,62.9999980773926,2|0,0:1|0:0,0:0:0:0:
509,119,182489,2,0,L|430:105,1,62.9999980773926,2|0,0:1|0:0,0:0:0:0:
269,114,182906,6,0,L|190:128,1,62.9999980773926,2|0,0:1|0:0,0:0:0:0:
87,159,183323,2,0,L|166:173,1,62.9999980773926,2|0,0:1|0:0,0:0:0:0:
322,200,183739,5,0,1:2:0:0:
342,206,183843,1,0,1:2:0:0:
342,228,183947,1,0,1:2:0:0:
322,234,184051,1,0,1:2:0:0:
308,215,184156,5,0,1:2:0:0:
289,181,184260,1,0,1:2:0:0:
288,144,184364,1,0,1:2:0:0:
304,109,184468,1,0,1:2:0:0:
334,86,184572,37,0,1:2:0:0:
293,88,184676,1,0,1:2:0:0:
253,92,184780,1,2,1:2:0:0:
213,95,184884,1,2,1:2:0:0:
173,97,184989,6,0,P|133:115|184:114,1,135,8|0,1:1|0:0,0:0:0:0:
256,19,185406,37,12,0:0:0:0:
256,218,185614,1,2,0:0:0:0:
427,119,185822,1,2,0:0:0:0:
256,19,186031,6,0,P|249:45|256:76,1,49.5000015106202,2|0,1:2|0:0,0:0:0:0:
347,149,186239,2,0,L|249:164,1,99.0000030212403,12|2,0:0|0:0,0:0:0:0:
124,230,186551,2,0,L|222:245,1,99.0000030212403,12|0,0:0|0:0,0:0:0:0:
345,275,186864,1,2,0:0:0:0:
345,275,186968,1,2,0:0:0:0:
345,275,187072,38,0,L|335:331,1,49.5000015106202,6|0,0:0|0:0,0:0:0:0:
124,230,187385,2,0,L|134:286,1,49.5000015106202,6|0,0:0|0:0,0:0:0:0:
368,146,187697,2,0,L|358:202,1,49.5000015106202,6|0,0:0|0:0,0:0:0:0:
280,243,187906,2,0,L|271:194,1,49.5000015106202,12|2,0:0|0:0,0:0:0:0:
106,25,188218,2,0,L|114:73,1,49.5000015106202,6|8,0:0|0:0,0:0:0:0:
271,194,188531,2,0,L|262:145,1,49.5000015106202,2|0,0:1|0:0,0:0:0:0:
177,124,188739,5,6,1:2:0:0:
136,150,188843,1,0,1:2:0:0:
87,156,188947,1,8,1:2:0:0:
41,140,189051,1,0,1:2:0:0:
7,104,189156,38,0,L|-1:214,1,99.0000030212403,6|8,1:2|0:0,0:0:0:0:
0,384,189572,1,2,0:0:0:0:
147,296,189781,1,8,1:2:0:0:
184,271,189885,1,0,1:2:0:0:
227,261,189989,1,2,1:2:0:0:
271,265,190093,1,0,1:2:0:0:
311,283,190197,1,8,1:2:0:0:
462,382,190406,5,6,1:2:0:0:
427,353,190510,1,0,1:2:0:0:
403,316,190614,1,8,1:2:0:0:
393,273,190718,1,0,1:2:0:0:
396,229,190822,1,2,1:2:0:0:
413,188,190926,1,0,1:2:0:0:
442,154,191031,38,0,P|464:151|498:155,1,49.5000015106202,8|0,1:2|1:2,0:0:0:0:
393,273,191239,2,0,P|346:288|296:270,1,99.0000030212403,6|8,0:0|0:0,0:0:0:0:
349,154,191551,2,0,P|396:139|446:157,1,99.0000030212403,2|2,0:0|0:0,0:0:0:0:
512,249,191864,1,8,0:0:0:0:
344,354,192072,5,6,1:2:0:0:
304,373,192176,1,0,1:2:0:0:
260,378,192280,1,8,1:2:0:0:
218,364,192384,1,0,1:2:0:0:
179,343,192488,1,2,1:2:0:0:
136,333,192592,1,0,1:2:0:0:
93,344,192696,37,8,1:2:0:0:
14,195,192906,1,2,0:0:0:0:
218,261,193114,1,8,0:0:0:0:
15,342,193322,1,2,0:0:0:0:
8,105,193531,1,8,0:0:0:0:
218,261,193739,6,0,P|277:270|341:221,1,125.999996154785,6|0,0:0|0:0,0:0:0:0:
358,75,194051,38,0,L|377:196,1,90,6|0,0:0|0:0,0:0:0:0:
407,314,194364,6,0,P|424:348|424:295,1,134.999995880127,6|0,0:0|0:0,0:0:0:0:
289,335,194989,38,0,P|227:361|164:340,1,135,8|0,0:1|0:0,0:0:0:0:
92,219,195406,5,6,0:0:0:0:
318,160,195615,1,8,0:0:0:0:
102,70,195823,1,2,0:0:0:0:
223,275,196031,1,8,0:0:0:0:
246,42,196240,1,2,0:0:0:0:
92,219,196448,2,0,P|104:205|135:192,1,45,8|0,1:2|1:0,0:0:0:0:
318,160,196656,2,0,P|290:165|254:150,1,45,2|0,1:2|1:2,0:0:0:0:
102,70,196865,1,8,1:2:0:0:
223,275,197073,37,6,0:0:0:0:
412,144,197281,1,8,0:0:0:0:
199,50,197490,1,2,0:0:0:0:
360,266,197698,1,8,0:0:0:0:
333,36,197906,1,2,0:0:0:0:
152,170,198114,2,0,P|176:177|210:172,1,45,8|0,1:2|1:0,0:0:0:0:
412,144,198322,2,0,P|386:141|354:152,1,45,2|0,1:2|1:0,0:0:0:0:
223,275,198531,1,8,1:2:0:0:
333,36,198739,5,6,0:0:0:0:
477,240,198948,1,8,0:0:0:0:
230,194,199156,1,2,0:0:0:0:
436,53,199365,1,8,0:0:0:0:
391,299,199573,1,2,0:0:0:0:
249,93,199781,2,0,P|274:108|306:111,1,45,8|0,1:2|1:0,0:0:0:0:
495,139,199990,2,0,P|472:146|449:169,1,45,2|0,1:2|1:0,0:0:0:0:
288,281,200198,1,8,1:2:0:0:
169,57,200406,37,6,0:0:0:0:
33,246,200615,1,8,0:0:0:0:
256,176,200823,1,2,0:0:0:0:
33,96,201031,1,8,0:0:0:0:
164,290,201239,1,10,1:2:0:0:
199,316,201343,1,8,1:2:0:0:
243,320,201447,1,8,1:2:0:0:
282,298,201551,1,8,1:2:0:0:
302,259,201655,1,10,1:2:0:0:
298,215,201759,1,8,1:2:0:0:
268,181,201864,1,8,1:2:0:0:
226,169,201968,1,8,1:2:0:0:
181,181,202072,5,14,1:2:0:0:
335,350,202281,1,8,0:0:0:0:
399,126,202489,1,2,0:0:0:0:
181,181,202697,1,8,0:0:0:0:
432,257,202906,1,2,0:0:0:0:
206,315,203114,2,0,P|221:291|227:265,1,45,8|0,1:2|1:0,0:0:0:0:
272,96,203323,2,0,P|268:118|278:153,1,45,2|0,1:2|1:0,0:0:0:0:
335,350,203531,1,8,1:2:0:0:
56,221,203739,37,6,0:0:0:0:
272,96,203948,1,8,0:0:0:0:
200,337,204156,1,2,0:0:0:0:
82,118,204364,1,8,0:0:0:0:
322,187,204573,1,2,0:0:0:0:
102,307,204781,2,0,P|119:283|125:251,1,45,8|0,1:2|1:0,0:0:0:0:
174,67,204989,2,0,P|175:88|189:115,1,45,2|0,1:2|1:0,0:0:0:0:
293,288,205198,1,8,1:2:0:0:
442,50,205406,5,2,0:0:0:0:
509,193,205614,1,2,0:0:0:0:
366,260,205823,1,2,0:0:0:0:
299,117,206031,1,2,0:0:0:0:
505,108,206239,1,2,0:0:0:0:
451,256,206448,1,2,0:0:0:0:
302,202,206656,1,2,0:0:0:0:
356,53,206864,1,2,0:0:0:0:
483,338,207073,37,6,0:0:0:0:
220,242,207281,1,2,0:0:0:0:
474,45,207489,5,2,0:0:0:0:
352,297,207698,1,6,0:0:0:0:
199,69,207906,37,2,0:0:0:0:
77,321,208114,1,2,0:0:0:0:
352,297,208322,6,0,P|348:360|327:301,1,170.999995433807,6|0,0:0|0:0,0:0:0:0:
