osu file format v14

[General]
AudioFilename: audio.mp3
AudioLeadIn: 0
PreviewTime: 126968
Countdown: 0
SampleSet: None
StackLeniency: 0.5
Mode: 0
LetterboxInBreaks: 0
WidescreenStoryboard: 1

[Editor]
Bookmarks: 406,7072,20406,47489,60406,73739,87072,114156,127072,140406,153739,182072,195406,208739
DistanceSpacing: 1.7
BeatDivisor: 4
GridSize: 4
TimelineZoom: 1

[Metadata]
Title:Wake up
TitleUnicode:Wake up
Artist:Dreamcatcher
ArtistUnicode:드림캐쳐
Creator:Natsu
Version:Insane
Source:
Tags:지유 수아 시연 한동 유현 다미 가현 Ji-U Su-A SiYeon Handong YooHyun DaMi Gahyeon Happy Face Entertainment Prequel 1st mini album kpop k-pop rock
BeatmapID:1412353
BeatmapSetID:645662

[Difficulty]
HPDrainRate:5.5
CircleSize:4
OverallDifficulty:7
ApproachRate:8.5
SliderMultiplier:1.6
SliderTickRate:1

[Events]
//Background and Video events
0,0,"KakaoTalk_20170814_093217496.png",0,0
//Break Periods
//Storyboard Layer 0 (Background)
//Storyboard Layer 1 (Fail)
//Storyboard Layer 2 (Pass)
//Storyboard Layer 3 (Foreground)
//Storyboard Sound Samples

[TimingPoints]
406,416.666666666667,4,2,1,25,1,0
406,-125,4,2,1,25,0,0
2072,-125,4,2,1,30,0,0
3739,-125,4,2,1,35,0,0
5406,-125,4,2,1,40,0,0
6239,-125,4,2,1,50,0,0
7072,-100,4,2,1,50,0,0
18739,-83.3333333333333,4,2,1,50,0,0
18947,-83.3333333333333,4,2,1,5,0,0
19051,-100,4,2,1,50,0,0
19260,-100,4,2,1,5,0,0
19364,-125,4,2,1,50,0,0
19781,-125,4,2,1,5,0,0
20197,-111.111111111111,4,2,1,40,0,0
47489,-90.9090909090909,4,2,1,50,0,1
58739,-166.666666666667,4,2,1,50,0,0
59156,-166.666666666667,4,2,1,5,0,0
59364,-166.666666666667,4,2,1,30,0,0
59572,-166.666666666667,4,2,1,5,0,0
59781,-142.857142857143,4,2,1,30,0,0
59989,-125,4,2,1,30,0,0
60301,-125,4,2,1,5,0,0
60406,-90.9090909090909,4,2,1,50,0,1
72072,-71.4285714285714,4,2,1,50,0,1
72281,-71.4285714285714,4,2,1,5,0,1
72385,-100,4,2,1,50,0,1
72593,-100,4,2,1,5,0,1
72697,-166.666666666667,4,2,1,50,0,1
73114,-166.666666666667,4,2,1,5,0,1
73322,-100,4,2,1,50,0,1
73635,-100,4,2,1,5,0,1
73739,-100,4,2,1,50,0,0
83739,-105.263157894737,4,2,1,50,0,0
86968,-105.263157894737,4,2,1,5,0,0
87072,-111.111111111111,4,2,1,40,0,0
112281,-111.111111111111,4,2,1,25,0,0
113114,-111.111111111111,4,2,1,40,0,0
114156,-90.9090909090909,4,2,1,50,0,1
125406,-166.666666666667,4,2,1,50,0,0
125822,-166.666666666667,4,2,1,5,0,0
126031,-166.666666666667,4,2,1,30,0,0
126239,-166.666666666667,4,2,1,5,0,0
127072,-90.909090909091,4,2,1,50,0,1
138739,-71.4285714285714,4,2,1,50,0,1
138947,-71.4285714285714,4,2,1,5,0,1
139051,-100,4,2,1,50,0,1
139260,-100,4,2,1,5,0,1
139364,-166.666666666667,4,2,1,50,0,1
139572,-100,4,2,1,50,0,0
140406,-83.3333333333333,4,2,1,50,0,0
140510,-83.3333333333333,4,2,1,5,0,0
140614,-83.3333333333333,4,2,1,50,0,0
140718,-83.3333333333333,4,2,1,5,0,0
140822,-100,4,2,1,35,0,0
143739,-83.3333333333333,4,2,1,50,0,0
143843,-83.3333333333333,4,2,1,5,0,0
143947,-83.3333333333333,4,2,1,50,0,0
144051,-83.3333333333333,4,2,1,5,0,0
144156,-100,4,2,1,35,0,0
147072,-83.3333333333333,4,2,1,50,0,0
147176,-83.3333333333333,4,2,1,5,0,0
147281,-83.3333333333333,4,2,1,50,0,0
147385,-83.3333333333333,4,2,1,5,0,0
147489,-100,4,2,1,35,0,0
150406,-83.3333333333333,4,2,1,50,0,0
150510,-83.3333333333333,4,2,1,5,0,0
150614,-83.3333333333333,4,2,1,50,0,0
150718,-83.3333333333333,4,2,1,5,0,0
150822,-100,4,2,1,35,0,0
152072,-100,4,2,1,50,0,0
152489,-100,4,2,1,5,0,0
153322,-100,4,2,1,20,0,0
153739,-166.666666666667,4,2,1,25,0,0
178635,-166.666666666667,4,2,1,10,0,0
180406,-200,4,2,1,25,0,0
182072,-142.857142857143,4,2,1,50,0,0
182281,-142.857142857143,4,2,1,5,0,0
182489,-142.857142857143,4,2,1,50,0,0
182697,-142.857142857143,4,2,1,5,0,0
182906,-142.857142857143,4,2,1,50,0,0
183114,-142.857142857143,4,2,1,5,0,0
183322,-142.857142857143,4,2,1,50,0,0
183531,-142.857142857143,4,2,1,5,0,0
183739,-125,4,2,1,50,0,0
184156,-117.647058823529,4,2,1,50,0,0
184572,-111.111111111111,4,2,1,50,0,0
184989,-100,4,2,1,50,0,0
185197,-100,4,2,1,5,0,0
185406,-90.9090909090909,4,2,1,50,0,0
187176,-90.9090909090909,4,2,1,5,0,0
187385,-90.9090909090909,4,2,1,50,0,0
187489,-90.9090909090909,4,2,1,5,0,0
187697,-90.9090909090909,4,2,1,50,0,0
187801,-90.9090909090909,4,2,1,5,0,0
187906,-90.9090909090909,4,2,1,50,0,0
188739,-90.9090909090909,4,2,1,50,0,1
193739,-71.4285714285714,4,2,1,50,0,1
193947,-71.4285714285714,4,2,1,5,0,1
194051,-100,4,2,1,50,0,1
194260,-100,4,2,1,5,0,1
194364,-166.666666666667,4,2,1,50,0,1
194572,-166.666666666667,4,2,1,5,0,1
194989,-100,4,2,1,50,0,1
195301,-100,4,2,1,5,0,1
195406,-100,4,2,1,50,0,0
205406,-105.263157894737,4,2,1,50,0,0
208739,-105.263157894737,4,2,1,5,0,0

[Colours]
Combo1 : 210,210,210
Combo2 : 63,94,152
Combo3 : 155,155,155
Combo4 : 124,154,186
SliderBorder : 91,163,234
SliderTrackOverride : 30,30,30

[HitObjects]
100,168,406,37,2,0:1:0:0:
31,145,614,1,0,0:0:0:0:
31,73,822,1,0,0:0:0:0:
100,51,1031,1,0,0:0:0:0:
142,109,1239,2,0,P|173:116|204:110,1,64,0|0,0:0|0:0,0:0:0:0:
237,45,1656,2,0,P|206:38|175:44,1,64,0|0,0:0|0:0,0:0:0:0:
100,168,2072,5,2,0:1:0:0:
45,226,2280,1,0,0:0:0:0:
82,296,2488,1,0,0:0:0:0:
160,281,2697,1,0,0:0:0:0:
171,203,2906,2,0,P|202:196|233:202,1,64,0|0,0:0|0:0,0:0:0:0:
305,237,3322,2,0,P|312:206|306:175,1,64,0|0,0:0|0:0,0:0:0:0:
233,60,3739,37,2,0:1:0:0:
150,89,3947,1,0,0:0:0:0:
150,176,4155,1,0,0:0:0:0:
233,202,4364,1,0,0:0:0:0:
284,132,4572,2,0,P|315:125|346:131,1,64,0|0,0:0|0:0,0:0:0:0:
461,184,4989,2,0,P|430:191|399:185,1,64,0|0,0:0|0:0,0:0:0:0:
201,84,5406,5,2,0:1:0:0:
201,180,5614,1,0,0:0:0:0:
284,132,5822,2,0,P|315:125|346:131,1,64,0|0,0:0|0:0,0:0:0:0:
470,231,6239,5,8,1:2:0:0:
492,253,6343,1,8,1:2:0:0:
499,284,6447,1,8,1:2:0:0:
488,313,6551,1,8,1:2:0:0:
463,332,6655,1,8,1:2:0:0:
431,335,6759,1,8,1:2:0:0:
404,320,6864,1,8,1:2:0:0:
388,292,6968,1,8,1:2:0:0:
390,261,7073,5,6,1:2:0:0:
473,145,7281,1,8,0:0:0:0:
339,189,7489,1,2,0:0:0:0:
474,238,7698,1,8,0:0:0:0:
390,119,7906,1,2,0:0:0:0:
390,261,8114,2,0,P|400:300|389:343,2,80,8|2|8,1:2|1:2|1:2,0:0:0:0:
308,118,8739,37,6,0:0:0:0:
308,261,8948,1,8,0:0:0:0:
432,189,9156,1,2,0:0:0:0:
266,189,9364,1,8,0:0:0:0:
390,261,9573,1,2,0:0:0:0:
390,118,9781,2,0,P|427:107|479:121,2,80,8|2|8,1:2|1:2|1:2,0:0:0:0:
308,261,10406,5,6,0:0:0:0:
432,189,10615,1,8,0:0:0:0:
308,118,10823,1,2,0:0:0:0:
329,269,11031,1,8,0:0:0:0:
428,166,11240,1,2,0:0:0:0:
289,132,11447,2,0,P|251:121|209:134,2,80,8|2|8,1:2|1:2|1:2,0:0:0:0:
353,299,12072,37,6,0:0:0:0:
252,197,12280,1,8,0:0:0:0:
392,219,12488,1,2,0:0:0:0:
266,283,12697,1,8,0:0:0:0:
330,158,12905,1,2,0:0:0:0:
353,299,13114,2,0,P|366:341|355:379,2,80,8|2|8,1:2|1:2|1:2,0:0:0:0:
250,171,13739,5,6,0:0:0:0:
271,311,13948,1,8,0:0:0:0:
383,221,14156,1,2,0:0:0:0:
218,246,14364,1,8,0:0:0:0:
353,299,14573,1,2,0:0:0:0:
330,157,14781,2,0,P|364:140|418:146,2,80,8|2|8,1:2|1:2|1:2,0:0:0:0:
218,246,15406,37,6,0:0:0:0:
196,103,15615,1,8,0:0:0:0:
330,157,15823,1,2,0:0:0:0:
238,249,16031,1,8,0:0:0:0:
180,119,16240,1,2,0:0:0:0:
322,134,16447,2,0,P|363:141|405:128,2,80,8|2|8,1:2|1:2|1:2,0:0:0:0:
114,85,17073,5,6,0:0:0:0:
215,187,17281,1,8,0:0:0:0:
192,46,17488,1,2,0:0:0:0:
128,171,17697,1,8,0:0:0:0:
254,107,17906,2,0,P|293:99|336:110,1,80,2|8,0:0|0:0,0:0:0:0:
215,187,18322,1,2,1:2:0:0:
192,46,18531,1,8,0:0:0:0:
127,171,18739,38,0,P|78:187|36:175,1,95.9999970703126,6|0,0:0|0:0,0:0:0:0:
0,242,19051,6,0,L|6:333,1,80,6|0,0:0|0:0,0:0:0:0:
76,356,19364,38,0,B|118:386|163:359|163:359|214:326|256:351,1,192,6|0,0:0|0:0,0:0:0:0:
441,373,20197,37,2,0:0:0:0:
441,373,20301,1,2,0:0:0:0:
441,373,20406,2,0,L|427:301,1,71.9999978027344,6|2,0:0|0:0,0:0:0:0:
374,225,20822,2,0,P|410:211|462:217,2,71.9999978027344,8|2|2,0:0|0:0|0:0,0:0:0:0:
332,309,21447,37,2,0:0:0:0:
280,230,21656,2,0,L|264:174,2,35.9999989013672,8|2|2,0:0|0:1|0:0,0:0:0:0:
245,261,21968,2,0,P|190:281|135:258,1,107.999996704102,2|2,0:1|0:0,0:0:0:0:
46,176,22489,5,8,0:0:0:0:
30,268,22697,1,2,0:0:0:0:
17,361,22906,1,2,0:0:0:0:
17,361,23322,37,8,0:0:0:0:
30,268,23531,1,8,0:0:0:0:
46,176,23739,2,0,P|80:185|138:168,1,71.9999978027344,2|2,0:0|0:0,0:0:0:0:
206,153,24156,2,0,P|241:147|275:156,2,71.9999978027344,8|2|2,0:0|0:0|0:0,0:0:0:0:
46,176,24781,5,2,0:0:0:0:
98,255,24990,2,0,L|114:311,2,35.9999989013672,8|2|2,0:0|0:1|0:0,0:0:0:0:
133,224,25302,2,0,P|188:204|243:227,1,107.999996704102,2|2,0:1|0:0,0:0:0:0:
357,318,25822,37,8,0:0:0:0:
446,292,26030,1,2,0:0:0:0:
378,227,26239,2,0,P|369:193|377:154,1,71.9999978027344,2|8,0:0|0:0,0:0:0:0:
457,111,26656,1,8,0:0:0:0:
457,111,27072,5,2,0:0:0:0:
431,22,27280,1,2,0:0:0:0:
366,90,27489,2,0,P|332:99|293:91,2,71.9999978027344,8|2|2,0:0|0:0|0:0,0:0:0:0:
512,36,28114,37,2,0:0:0:0:
457,111,28322,2,0,L|463:156,2,35.9999989013672,8|2|2,0:0|0:1|0:0,0:0:0:0:
424,144,28635,2,0,P|371:170|308:142,1,107.999996704102,2|2,0:1|0:0,0:0:0:0:
145,110,29156,5,8,0:0:0:0:
234,136,29364,1,2,0:0:0:0:
166,201,29573,2,0,P|157:235|165:274,1,71.9999978027344,2|2,0:0|0:0,0:0:0:0:
247,311,29989,2,0,P|256:345|248:384,2,71.9999978027344,8|8|2,0:0|0:0|0:0,0:0:0:0:
77,230,30614,37,2,0:0:0:0:
48,141,30822,1,8,0:0:0:0:
137,112,31031,1,2,0:0:0:0:
166,201,31239,2,0,P|176:234|166:279,1,71.9999978027344,2|2,0:0|0:0,0:0:0:0:
167,317,31551,2,0,L|214:316,1,35.9999989013672,2|8,0:1|0:0,0:0:0:0:
296,306,31864,1,2,0:0:0:0:
362,240,32072,6,0,P|367:201|354:166,1,71.9999978027344,2|2,0:0|0:0,0:0:0:0:
285,109,32489,1,8,0:0:0:0:
285,109,32906,37,2,0:0:0:0:
196,138,33114,1,8,0:0:0:0:
196,232,33322,1,8,0:0:0:0:
285,261,33531,1,2,0:0:0:0:
340,185,33739,1,2,0:0:0:0:
340,185,34156,5,8,0:0:0:0:
285,261,34364,1,2,0:0:0:0:
378,270,34573,2,0,P|413:279|456:268,1,71.9999978027344,2|2,0:0|0:0,0:0:0:0:
490,188,34989,2,0,P|455:179|412:190,1,71.9999978027344,8|2,0:0|0:0,0:0:0:0:
289,299,35406,37,2,0:0:0:0:
260,210,35614,1,2,0:0:0:0:
349,181,35823,1,8,0:0:0:0:
378,270,36031,1,2,0:0:0:0:
260,210,36239,2,0,P|222:203|184:214,1,71.9999978027344,2|2,0:0|0:0,0:0:0:0:
156,298,36656,2,0,P|193:304|232:294,1,71.9999978027344,8|8,0:0|0:0,0:0:0:0:
318,284,37072,1,2,0:0:0:0:
318,284,37489,5,8,0:0:0:0:
334,192,37697,1,2,0:0:0:0:
348,99,37906,2,0,P|383:92|422:102,1,71.9999978027344,2|2,0:0|0:0,0:0:0:0:
334,192,38322,2,0,P|299:199|260:189,1,71.9999978027344,8|2,0:0|0:0,0:0:0:0:
120,107,38739,37,2,0:0:0:0:
31,136,38947,1,2,0:0:0:0:
31,230,39155,1,8,0:0:0:0:
120,259,39364,1,2,0:0:0:0:
175,183,39572,2,0,P|209:176|253:185,1,71.9999978027344,2|8,0:0|0:0,0:0:0:0:
283,267,39989,2,0,P|249:274|205:265,1,71.9999978027344,8|2,0:0|0:0,0:0:0:0:
99,174,40406,6,0,L|90:336,1,143.999995605469,2|8,0:0|0:0,0:0:0:0:
175,358,41031,1,2,0:0:0:0:
256,312,41239,2,0,P|322:287|401:330,2,143.999995605469,2|8|2,0:0|0:0|0:0,0:0:0:0:
91,317,42281,37,2,0:0:0:0:
2,288,42489,1,8,0:0:0:0:
2,194,42697,1,2,0:0:0:0:
91,165,42906,1,2,0:0:0:0:
146,241,43114,2,0,P|180:248|224:239,2,71.9999978027344,2|8|8,0:0|0:0|0:0,0:0:0:0:
146,241,43947,5,2,0:0:0:0:
179,153,44156,1,8,0:0:0:0:
271,138,44364,1,2,0:0:0:0:
331,209,44572,1,2,0:0:0:0:
299,296,44781,1,2,0:0:0:0:
207,314,44989,1,8,0:0:0:0:
179,153,45197,38,0,P|169:114|180:79,1,71.9999978027344,2|2,0:0|0:0,0:0:0:0:
253,30,45614,1,8,0:0:0:0:
334,96,45822,1,8,0:0:0:0:
334,96,45926,1,8,0:0:0:0:
334,96,46031,1,8,0:0:0:0:
396,26,46239,1,8,0:0:0:0:
459,94,46447,2,0,P|462:112|460:144,1,35.9999989013672,2|2,0:0|0:0,0:0:0:0:
440,171,46656,2,0,P|430:207|444:252,2,71.9999978027344,2|2|2,0:0|0:0|0:0,0:0:0:0:
440,171,47489,37,6,1:2:0:0:
400,189,47593,1,0,1:2:0:0:
357,183,47697,1,8,1:2:0:0:
324,155,47801,1,0,1:2:0:0:
311,114,47905,1,2,1:2:0:0:
323,72,48009,1,0,1:2:0:0:
358,44,48114,38,0,P|373:39|402:41,1,44.0000013427735,8|0,1:2|1:2,0:0:0:0:
441,57,48322,2,0,P|460:78|464:104,1,44.0000013427735,2|0,1:2|1:2,0:0:0:0:
464,137,48531,2,0,P|461:160|446:184,1,44.0000013427735,8|0,1:2|1:2,0:0:0:0:
414,202,48739,6,0,P|371:215|322:203,1,88.000002685547,6|8,1:2|1:2,0:0:0:0:
288,190,49051,2,0,P|245:181|203:194,1,88.000002685547,0|0,1:2|1:2,0:0:0:0:
167,220,49364,1,8,1:2:0:0:
79,341,49572,37,6,1:2:0:0:
72,297,49676,1,0,1:2:0:0:
66,253,49780,1,8,1:2:0:0:
60,210,49884,1,0,1:2:0:0:
54,166,49989,2,0,L|46:104,3,44.0000013427735,2|0|8|0,1:2|1:2|1:2|1:2,0:0:0:0:
87,142,50406,5,6,1:2:0:0:
125,163,50510,1,0,1:2:0:0:
168,169,50614,1,8,1:2:0:0:
210,159,50718,1,0,1:2:0:0:
246,134,50822,37,2,1:2:0:0:
350,45,51031,1,8,1:2:0:0:
246,134,51239,2,0,P|242:156|247:177,3,44.0000013427735,6|0|8|0,1:2|1:2|1:2|1:2,0:0:0:0:
272,212,51656,5,2,1:2:0:0:
168,123,51865,1,8,1:2:0:0:
272,212,52073,2,0,P|276:234|271:255,3,44.0000013427735,6|0|8|0,1:2|0:0|1:2|1:2,0:0:0:0:
246,291,52489,37,2,1:2:0:0:
350,202,52698,1,8,1:2:0:0:
246,291,52906,2,0,P|224:295|203:290,3,44.0000013427735,12|8|8|8,1:2|1:2|1:2|1:2,0:0:0:0:
167,264,53322,2,0,P|145:260|124:265,3,44.0000013427735,8|8|8|8,1:2|1:2|1:2|1:2,0:0:0:0:
84,283,53739,5,6,1:2:0:0:
76,239,53843,1,0,1:2:0:0:
69,196,53947,1,8,1:2:0:0:
61,152,54051,1,0,1:2:0:0:
54,109,54156,2,0,P|78:103|103:104,3,44.0000013427735,2|0|8|0,1:2|1:2|1:2|1:2,0:0:0:0:
149,121,54572,37,6,1:2:0:0:
149,121,54676,1,0,1:2:0:0:
149,121,54781,2,0,P|176:125|204:117,1,44.0000013427735,8|0,1:2|0:0,0:0:0:0:
231,103,54989,2,0,P|252:99|274:104,1,44.0000013427735,2|0,1:2|1:2,0:0:0:0:
315,118,55197,2,0,P|336:121|358:116,1,44.0000013427735,8|0,1:2|1:2,0:0:0:0:
401,105,55406,6,0,P|393:144|413:201,1,88.000002685547,6|8,1:2|1:2,0:0:0:0:
441,214,55718,2,0,P|453:255|445:298,1,88.000002685547,0|0,1:2|1:2,0:0:0:0:
417,332,56031,1,8,1:2:0:0:
259,267,56239,38,0,P|220:259|163:279,1,88.000002685547,6|8,1:2|1:2,0:0:0:0:
150,307,56551,2,0,P|108:319|65:311,1,88.000002685547,0|0,1:2|1:2,0:0:0:0:
32,283,56864,1,8,1:2:0:0:
60,138,57072,5,6,1:2:0:0:
96,114,57176,1,0,1:2:0:0:
139,106,57280,1,8,1:2:0:0:
182,115,57384,1,0,1:2:0:0:
218,140,57489,2,0,P|241:144|274:138,3,44.0000013427735,2|0|0|0,1:2|1:2|0:0|1:2,0:0:0:0:
312,137,57906,37,6,1:2:0:0:
312,137,58010,1,0,1:2:0:0:
312,137,58114,2,0,L|324:185,1,44.0000013427735,8|0,1:2|1:2,0:0:0:0:
366,185,58322,2,0,L|378:233,1,44.0000013427735,2|0,1:2|1:2,0:0:0:0:
420,234,58531,2,0,L|432:282,1,44.0000013427735,8|8,1:2|1:2,0:0:0:0:
440,320,58739,38,0,P|391:306|346:323,1,95.9999970703126,6|0,2:1|0:0,0:0:0:0:
238,358,59364,38,0,L|227:307,1,47.9999985351563,2|0,2:1|0:0,0:0:0:0:
106,239,59781,6,0,L|95:195,1,27.9999991455078,2|2,0:0|0:0,0:0:0:0:
106,239,59989,38,0,P|156:252|196:236,1,96,8|0,2:1|0:0,0:0:0:0:
256,193,60406,38,0,P|301:184|346:198,1,88.000002685547,6|8,0:0|0:0,0:0:0:0:
488,241,60822,2,0,P|443:250|398:236,1,88.000002685547,2|8,0:0|0:0,0:0:0:0:
256,193,61239,2,0,P|211:184|166:198,1,88.000002685547,2|8,0:0|1:2,0:0:0:0:
108,238,61551,1,0,1:2:0:0:
108,238,61655,2,0,P|66:250|24:241,1,88.000002685547,2|8,1:2|1:2,0:0:0:0:
44,80,62072,38,0,L|65:190,1,88.000002685547,6|8,0:0|0:0,0:0:0:0:
91,321,62489,1,2,0:0:0:0:
171,195,62697,1,8,0:0:0:0:
301,294,62906,6,0,P|257:307|212:294,1,88.000002685547,2|8,0:0|0:0,0:0:0:0:
145,267,63218,2,0,P|102:257|61:270,1,88.000002685547,2|2,0:0|0:0,0:0:0:0:
0,320,63531,1,8,0:0:0:0:
69,180,63739,2,0,P|80:138|66:92,2,88.000002685547,6|8|2,1:2|1:2|1:2,0:0:0:0:
0,320,64364,37,8,1:2:0:0:
145,267,64572,2,0,P|189:254|234:267,1,88.000002685547,2|8,0:0|0:0,0:0:0:0:
301,294,64885,2,0,P|343:303|384:290,1,88.000002685547,2|2,0:0|0:0,0:0:0:0:
446,241,65197,1,8,0:0:0:0:
321,129,65406,6,0,L|338:225,1,88.000002685547,6|8,0:0|0:0,0:0:0:0:
261,205,65718,2,0,L|253:159,1,44.0000013427735,2|2,0:0|0:0,0:0:0:0:
219,12,66031,1,8,0:0:0:0:
120,151,66239,37,10,1:2:0:0:
78,159,66343,1,8,1:2:0:0:
47,131,66447,1,8,1:2:0:0:
51,89,66551,1,8,1:2:0:0:
88,68,66656,2,0,P|115:61|145:66,3,44.0000013427735,10|0|8|8,1:2|0:0|1:2|1:2,0:0:0:0:
200,93,67072,2,0,P|248:104|291:90,1,88.000002685547,6|8,1:2|0:0,0:0:0:0:
430,40,67489,6,0,P|415:81|432:129,1,88.000002685547,6|8,0:0|0:0,0:0:0:0:
449,290,67906,2,0,P|464:249|447:201,1,88.000002685547,2|8,0:0|1:2,0:0:0:0:
381,186,68218,1,0,1:2:0:0:
381,186,68322,2,0,P|335:196|286:184,1,88.000002685547,2|8,1:2|1:2,0:0:0:0:
144,126,68739,2,0,P|100:118|58:128,2,88.000002685547,6|8|2,1:2|1:2|1:2,0:0:0:0:
295,188,69364,37,8,1:2:0:0:
343,321,69572,2,0,P|299:334|254:321,1,88.000002685547,6|8,0:0|0:0,0:0:0:0:
187,294,69885,2,0,P|144:284|103:297,1,88.000002685547,2|2,0:0|0:0,0:0:0:0:
42,347,70197,1,8,0:0:0:0:
21,196,70406,2,0,L|8:99,2,88.000002685547,6|8|2,1:2|1:2|1:2,0:0:0:0:
42,347,71031,5,8,1:2:0:0:
152,243,71239,2,0,P|194:230|243:243,1,88.000002685547,2|8,0:0|0:0,0:0:0:0:
137,325,71656,1,2,0:0:0:0:
95,182,71864,1,8,0:0:0:0:
236,239,72072,38,0,P|289:259|350:234,1,111.999996582031,6|0,0:0|0:0,0:0:0:0:
404,279,72385,6,0,P|414:239|393:193,1,80,6|0,0:0|0:0,0:0:0:0:
436,139,72697,38,0,P|387:129|345:156,1,95.9999970703126,6|0,0:0|0:0,0:0:0:0:
199,306,73322,6,0,L|185:172,1,120,8|0,2:1|0:0,0:0:0:0:
177,112,73739,37,6,0:0:0:0:
320,122,73947,1,8,0:0:0:0:
206,31,74155,1,2,0:0:0:0:
246,168,74364,1,8,0:0:0:0:
293,33,74572,1,2,0:0:0:0:
177,112,74780,2,0,P|140:126|98:116,2,80,8|2|8,1:2|1:2|1:2,0:0:0:0:
293,33,75405,5,6,0:0:0:0:
388,138,75614,1,8,0:0:0:0:
248,169,75822,1,2,0:0:0:0:
370,58,76030,1,8,0:0:0:0:
326,194,76239,1,2,0:0:0:0:
231,87,76447,2,0,P|191:77|150:90,2,80,8|2|8,1:2|1:2|1:2,0:0:0:0:
326,194,77072,37,6,0:0:0:0:
239,308,77281,1,8,0:0:0:0:
184,176,77489,1,2,0:0:0:0:
331,215,77697,1,8,0:0:0:0:
217,301,77906,1,2,0:0:0:0:
200,159,78114,2,0,P|193:119|211:79,2,80,8|2|8,1:2|1:2|1:2,0:0:0:0:
373,235,78738,5,6,0:0:0:0:
272,133,78946,1,0,0:0:0:0:
412,155,79156,1,2,0:0:0:0:
286,219,79364,1,8,0:0:0:0:
350,94,79572,1,10,1:2:0:0:
383,73,79676,1,8,1:2:0:0:
423,70,79780,1,8,1:2:0:0:
460,85,79884,1,8,1:2:0:0:
486,115,79988,1,10,1:2:0:0:
496,153,80092,1,8,1:2:0:0:
487,192,80197,1,8,1:2:0:0:
463,223,80301,1,8,1:2:0:0:
427,239,80406,37,14,1:2:0:0:
320,145,80614,1,8,0:0:0:0:
292,286,80822,1,2,0:0:0:0:
403,160,81030,1,8,0:0:0:0:
265,207,81239,1,2,0:0:0:0:
374,301,81447,2,0,P|385:343|369:392,2,80,8|2|8,1:2|1:2|1:2,0:0:0:0:
232,129,82072,5,6,0:0:0:0:
210,272,82281,1,8,0:0:0:0:
344,218,82489,1,2,0:0:0:0:
252,126,82697,1,8,0:0:0:0:
194,256,82906,1,2,0:0:0:0:
336,241,83114,2,0,P|376:252|416:241,2,80,8|2|8,1:2|1:2|1:2,0:0:0:0:
256,77,83739,38,0,L|162:65,1,75.9999979705811,2|2,0:0|0:0,0:0:0:0:
141,192,84156,2,0,L|129:286,1,75.9999979705811,2|2,0:0|0:0,0:0:0:0:
256,307,84572,2,0,L|350:319,1,75.9999979705811,2|2,0:0|0:0,0:0:0:0:
371,192,84989,2,0,L|383:98,1,75.9999979705811,2|2,0:0|0:0,0:0:0:0:
180,67,85406,5,6,0:0:0:0:
138,232,85614,1,2,0:0:0:0:
327,195,85822,1,2,0:0:0:0:
163,154,86030,1,6,0:0:0:0:
163,154,86135,1,2,0:0:0:0:
163,154,86239,1,2,0:0:0:0:
201,337,86447,1,2,0:0:0:0:
243,172,86656,2,0,P|260:215|258:165,1,113.999996955872,6|0,0:0|0:0,0:0:0:0:
261,131,87072,6,0,L|261:53,1,71.9999978027344,6|2,0:0|0:0,0:0:0:0:
354,63,87489,2,0,P|390:73|436:59,2,71.9999978027344,8|2|2,0:0|0:0|0:0,0:0:0:0:
190,21,88113,5,2,0:0:0:0:
118,81,88322,2,0,P|98:86|80:82,2,35.9999989013672,8|2|2,0:0|0:1|0:0,0:0:0:0:
152,112,88634,2,0,L|152:228,1,107.999996704102,2|2,0:1|0:0,0:0:0:0:
205,349,89156,37,8,0:0:0:0:
217,256,89364,1,8,0:0:0:0:
131,293,89572,1,2,0:0:0:0:
131,293,89989,6,0,P|93:303|59:294,1,71.9999978027344,8|8,0:0|0:0,0:0:0:0:
61,201,90406,2,0,P|99:191|133:200,1,71.9999978027344,2|2,0:0|0:0,0:0:0:0:
208,249,90822,2,0,P|242:256|277:246,2,71.9999978027344,8|2|2,0:0|0:0|0:0,0:0:0:0:
108,104,91447,37,2,0:0:0:0:
193,65,91656,2,0,P|216:62|246:68,2,35.9999989013672,8|0|2,0:0|0:0|0:0,0:0:0:0:
183,110,91968,2,0,L|183:227,1,107.999996704102,2|2,0:1|0:0,0:0:0:0:
264,333,92488,5,8,0:0:0:0:
353,307,92696,1,2,0:0:0:0:
285,242,92905,2,0,L|285:170,1,71.9999978027344,2|8,0:0|0:0,0:0:0:0:
284,76,93322,1,8,0:0:0:0:
284,76,93738,37,2,0:0:0:0:
191,90,93946,1,2,0:0:0:0:
98,103,94155,2,0,P|107:69|99:30,2,71.9999978027344,8|2|2,0:0|0:0|0:0,0:0:0:0:
23,220,94780,5,2,0:0:0:0:
101,270,94988,2,0,P|98:291|104:313,2,35.9999989013672,8|2|2,0:0|0:1|0:0,0:0:0:0:
142,246,95301,2,0,L|256:246,1,107.999996704102,2|2,0:1|0:0,0:0:0:0:
427,246,95822,37,8,0:0:0:0:
338,220,96030,1,2,0:0:0:0:
406,155,96239,2,0,P|415:121|407:82,1,71.9999978027344,2|2,0:0|0:0,0:0:0:0:
324,43,96655,2,0,P|315:77|323:116,2,71.9999978027344,8|8|2,0:0|0:0|0:0,0:0:0:0:
499,144,97280,5,2,0:0:0:0:
510,236,97488,1,8,0:0:0:0:
417,248,97697,1,2,0:0:0:0:
406,155,97905,2,0,P|369:148|331:159,1,71.9999978027344,2|2,0:0|0:0,0:0:0:0:
291,169,98217,2,0,L|283:116,1,35.9999989013672,2|8,0:1|0:0,0:0:0:0:
269,40,98530,1,2,0:0:0:0:
201,104,98738,38,0,P|163:112|124:102,1,71.9999978027344,2|2,0:0|0:0,0:0:0:0:
47,62,99155,1,8,0:0:0:0:
47,62,99572,5,2,0:0:0:0:
11,147,99780,1,8,0:0:0:0:
80,209,99988,1,8,0:0:0:0:
160,161,100197,1,2,0:0:0:0:
140,70,100405,1,2,0:0:0:0:
147,78,100822,37,8,0:0:0:0:
147,78,101030,1,2,0:0:0:0:
147,78,101239,2,0,L|152:162,1,71.9999978027344,2|2,0:0|0:0,0:0:0:0:
235,102,101656,5,8,0:0:0:0:
235,102,101864,1,2,0:0:0:0:
235,102,102073,2,0,L|240:186,1,71.9999978027344,2|2,0:0|0:0,0:0:0:0:
323,127,102489,37,8,0:0:0:0:
323,127,102697,1,2,0:0:0:0:
323,127,102906,2,0,L|328:211,1,71.9999978027344,2|2,0:0|0:0,0:0:0:0:
411,151,103323,5,8,0:0:0:0:
411,151,103531,1,8,0:0:0:0:
411,151,103740,2,0,L|416:235,2,71.9999978027344,2|2|8,0:0|0:0|0:0,0:0:0:0:
365,52,104364,38,0,L|362:3,2,35.9999989013672,2|2|2,0:0|0:0|0:0,0:0:0:0:
301,121,104781,1,2,0:0:0:0:
213,154,104989,1,8,0:0:0:0:
120,142,105197,1,2,0:0:0:0:
32,107,105406,6,0,L|44:183,1,71.9999978027344,2|2,0:0|0:0,0:0:0:0:
61,269,105821,1,8,0:0:0:0:
138,216,106030,1,2,0:0:0:0:
151,308,106238,2,0,P|185:315|225:306,1,71.9999978027344,2|8,0:0|0:0,0:0:0:0:
300,256,106656,1,8,0:0:0:0:
302,349,106864,1,2,0:0:0:0:
364,212,107072,38,0,P|294:176|231:215,1,143.999995605469,2|8,0:0|0:0,0:0:0:0:
164,257,107697,2,0,P|127:267|87:256,1,71.9999978027344,2|2,0:0|0:0,0:0:0:0:
110,94,108114,5,2,0:0:0:0:
127,185,108322,1,8,0:0:0:0:
198,124,108531,1,2,0:0:0:0:
53,154,108739,38,0,P|46:188|60:230,1,71.9999978027344,2|2,0:0|0:0,0:0:0:0:
134,274,109156,2,0,L|207:266,1,71.9999978027344,8|2,0:0|0:0,0:0:0:0:
376,203,109572,6,0,L|303:195,1,71.9999978027344,2|2,0:0|0:0,0:0:0:0:
257,187,109885,2,0,L|279:141,1,35.9999989013672,2|8,0:1|0:0,0:0:0:0:
307,67,110197,1,8,0:0:0:0:
218,97,110406,2,0,P|182:105|146:96,1,71.9999978027344,2|2,0:0|0:0,0:0:0:0:
80,33,110822,2,0,P|45:25|10:33,2,71.9999978027344,8|2|2,0:0|0:0|0:0,0:0:0:0:
218,97,111447,37,8,0:0:0:0:
235,6,111655,1,8,0:0:0:0:
306,67,111864,1,8,0:0:0:0:
164,41,112072,6,0,P|127:35|94:42,1,71.9999978027344,8|2,0:0|0:1,0:0:0:0:
16,96,112489,2,0,L|32:241,1,143.999995605469,2|2,0:1|0:1,0:0:0:0:
178,278,113113,38,0,L|183:327,1,35.9999989013672,2|2,0:0|0:0,0:0:0:0:
188,360,113322,2,0,P|224:350|269:364,2,71.9999978027344,2|2|2,0:0|0:0|0:0,0:0:0:0:
188,360,114156,37,6,1:2:0:0:
165,322,114260,1,0,1:2:0:0:
154,279,114364,1,8,1:2:0:0:
161,236,114468,1,0,1:2:0:0:
178,196,114572,1,2,1:2:0:0:
184,152,114676,1,0,1:2:0:0:
174,110,114781,38,0,P|164:87|147:73,1,44.0000013427735,8|0,1:2|1:2,0:0:0:0:
109,59,114989,2,0,P|79:56|47:67,1,44.0000013427735,2|0,1:2|1:2,0:0:0:0:
25,76,115198,2,0,P|11:93|7:122,1,44.0000013427735,8|0,1:2|0:0,0:0:0:0:
8,158,115406,6,0,P|51:171|100:159,1,88.000002685547,6|8,1:2|1:2,0:0:0:0:
134,146,115718,2,0,P|177:137|219:150,1,88.000002685547,0|0,1:2|1:2,0:0:0:0:
255,176,116031,1,8,1:2:0:0:
325,316,116239,37,4,1:2:0:0:
287,337,116343,1,0,1:2:0:0:
243,341,116447,1,8,1:2:0:0:
202,327,116551,1,0,1:2:0:0:
170,297,116656,2,0,P|160:274|162:247,3,44.0000013427735,2|0|8|0,1:2|1:2|1:2|1:2,0:0:0:0:
177,216,117072,5,6,1:2:0:0:
196,177,117176,1,0,1:2:0:0:
201,133,117280,1,8,1:2:0:0:
190,91,117384,1,0,1:2:0:0:
164,56,117488,37,2,1:2:0:0:
33,106,117698,1,8,1:2:0:0:
164,56,117906,2,0,P|180:71|189:90,3,44.0000013427735,6|0|8|0,1:2|1:2|1:2|1:2,0:0:0:0:
201,133,118322,5,2,1:2:0:0:
62,117,118532,1,8,1:2:0:0:
201,132,118740,2,0,P|208:152|207:174,3,44.0000013427735,6|0|0|0,1:2|0:0|0:0|0:0,0:0:0:0:
201,217,119156,37,2,1:2:0:0:
85,140,119364,1,8,1:2:0:0:
202,216,119572,2,0,P|199:238|188:256,3,44.0000013427735,12|8|8|8,1:2|1:2|1:2|1:2,0:0:0:0:
152,280,119989,2,0,P|126:284|109:281,3,44.0000013427735,8|0|8|8,1:2|0:0|1:2|1:2,0:0:0:0:
66,266,120406,5,6,1:2:0:0:
33,237,120510,1,0,1:2:0:0:
17,196,120614,1,8,1:2:0:0:
21,153,120718,1,0,1:2:0:0:
45,116,120822,2,0,P|58:103|91:94,3,44.0000013427735,2|0|8|0,1:2|1:2|1:2|1:2,0:0:0:0:
133,103,121239,37,6,1:2:0:0:
133,103,121343,1,0,1:2:0:0:
133,103,121448,2,0,L|188:112,1,44.0000013427735,8|0,1:2|0:0,0:0:0:0:
220,110,121656,2,0,L|275:101,1,44.0000013427735,2|0,1:2|0:0,0:0:0:0:
307,99,121864,2,0,L|362:108,1,44.0000013427735,8|0,1:2|1:2,0:0:0:0:
393,116,122073,6,0,P|385:155|405:212,1,88.000002685547,6|0,1:2|0:0,0:0:0:0:
433,225,122385,2,0,P|445:266|437:309,1,88.000002685547,0|0,1:2|0:0,0:0:0:0:
409,343,122698,1,0,0:0:0:0:
255,282,122906,38,0,P|247:239|259:197,1,88.000002685547,6|8,1:2|1:2,0:0:0:0:
295,173,123218,2,0,P|307:131|298:88,1,88.000002685547,0|0,1:2|1:2,0:0:0:0:
271,55,123531,1,8,1:2:0:0:
221,199,123739,5,6,1:2:0:0:
244,235,123843,1,0,1:2:0:0:
283,253,123947,1,8,1:2:0:0:
326,246,124051,1,0,1:2:0:0:
358,217,124156,2,0,P|365:196|362:168,3,44.0000013427735,2|0|8|0,1:2|0:0|1:2|1:2,0:0:0:0:
355,139,124573,37,6,1:2:0:0:
355,139,124677,1,0,1:2:0:0:
355,139,124781,2,0,L|307:127,1,44.0000013427735,8|0,1:2|0:0,0:0:0:0:
269,120,124989,2,0,L|221:132,1,44.0000013427735,2|0,1:2|0:0,0:0:0:0:
182,135,125197,2,0,L|134:123,1,44.0000013427735,8|8,1:2|1:2,0:0:0:0:
93,110,125406,38,0,P|107:159|90:204,1,95.9999970703126,6|0,0:1|0:0,0:0:0:0:
24,289,126031,38,0,L|82:285,1,47.9999985351563,2|0,0:1|0:0,0:0:0:0:
71,285,127072,38,0,P|116:276|161:290,1,88.000002685547,6|8,0:0|0:0,0:0:0:0:
303,333,127488,2,0,P|258:342|213:328,1,88.000002685547,2|8,0:0|0:0,0:0:0:0:
71,285,127905,2,0,P|62:240|76:195,1,88.000002685547,2|8,0:0|1:2,0:0:0:0:
116,137,128217,1,0,1:2:0:0:
116,137,128322,2,0,P|128:95|119:53,1,88.000002685547,2|8,1:2|1:2,0:0:0:0:
73,200,128738,38,0,P|111:214|167:194,1,88.000002685547,6|8,0:0|0:0,0:0:0:0:
314,153,129155,1,2,0:0:0:0:
188,73,129363,1,8,0:0:0:0:
189,277,129572,6,0,P|233:290|278:277,1,88.000002685547,2|8,0:0|0:0,0:0:0:0:
345,250,129884,2,0,P|388:240|429:253,1,88.000002685547,2|2,0:0|0:0,0:0:0:0:
490,303,130197,1,8,0:0:0:0:
503,155,130405,2,0,L|512:68,2,88.000002685547,6|8|2,1:2|1:2|1:2,0:0:0:0:
490,303,131030,37,8,1:2:0:0:
362,353,131238,2,0,P|349:309|362:264,1,88.000002685547,6|8,0:0|0:0,0:0:0:0:
389,197,131551,2,0,P|398:155|385:114,1,88.000002685547,2|2,0:0|0:0,0:0:0:0:
336,52,131863,1,8,0:0:0:0:
256,178,132072,6,0,P|209:190|166:179,1,88.000002685547,6|8,0:0|0:0,0:0:0:0:
101,155,132384,2,0,L|89:207,1,44.0000013427735,2|2,0:0|0:0,0:0:0:0:
47,346,132697,1,8,0:0:0:0:
184,269,132906,37,10,1:2:0:0:
223,249,133010,1,8,1:2:0:0:
266,243,133114,1,8,1:2:0:0:
309,251,133218,1,8,1:2:0:0:
348,272,133322,2,0,P|353:296|350:323,3,44.0000013427735,10|8|8|8,1:2|1:2|1:2|1:2,0:0:0:0:
292,359,133738,2,0,P|244:370|201:356,1,88.000002685547,6|8,1:2|0:0,0:0:0:0:
45,257,134155,6,0,P|86:242|134:259,1,88.000002685547,6|8,0:0|0:0,0:0:0:0:
295,276,134572,2,0,P|254:291|206:274,1,88.000002685547,2|8,0:0|1:2,0:0:0:0:
190,204,134884,1,0,1:2:0:0:
190,204,134988,2,0,P|200:158|188:109,1,88.000002685547,2|8,1:2|1:2,0:0:0:0:
36,98,135405,2,0,P|28:54|38:12,2,88.000002685547,6|8|2,1:2|1:2|1:2,0:0:0:0:
190,204,136030,37,8,1:2:0:0:
142,339,136238,2,0,P|186:352|231:339,1,88.000002685547,6|8,0:0|0:0,0:0:0:0:
298,312,136551,2,0,P|341:302|382:315,1,88.000002685547,2|2,0:0|0:0,0:0:0:0:
443,365,136863,1,8,0:0:0:0:
491,222,137072,2,0,P|499:175|485:138,2,88.000002685547,6|8|2,1:2|1:2|1:2,0:0:0:0:
443,365,137697,5,8,1:2:0:0:
319,276,137905,2,0,P|277:263|228:276,1,88.000002685547,2|8,0:0|0:0,0:0:0:0:
113,364,138322,1,2,0:0:0:0:
71,221,138530,1,8,0:0:0:0:
234,272,138739,38,0,P|287:292|348:267,1,111.999996582031,6|0,0:0|0:0,0:0:0:0:
392,226,139051,6,0,L|395:135,1,80,6|0,0:0|0:0,0:0:0:0:
396,72,139364,37,6,0:0:0:0:
283,147,139572,6,0,P|242:157|199:147,1,80,2|2,0:0|0:0,0:0:0:0:
99,93,139989,1,8,0:0:0:0:
96,220,140197,1,8,0:0:0:0:
96,220,140301,1,8,0:0:0:0:
96,220,140406,38,0,L|160:232,1,47.9999985351563,6|0,0:3|0:0,0:0:0:0:
193,307,140614,2,0,L|129:319,1,47.9999985351563,6|0,0:3|0:0,0:0:0:0:
70,367,140822,6,0,L|59:287,1,80,8|8,0:0|0:0,0:0:0:0:
261,259,141239,2,0,L|271:338,1,80,2|8,0:0|1:2,0:0:0:0:
172,354,141551,1,0,1:2:0:0:
172,354,141656,2,0,L|161:274,1,80,2|0,1:2|0:0,0:0:0:0:
234,95,142072,38,0,L|244:174,1,80,2|8,0:0|0:0,0:0:0:0:
43,203,142489,2,0,L|32:123,1,80,2|8,0:0|0:0,0:0:0:0:
244,174,142906,2,0,L|254:253,1,80,2|8,0:0|1:2,0:0:0:0:
155,269,143218,1,0,1:2:0:0:
155,269,143323,2,0,L|144:189,1,80,2|8,1:2|1:2,0:0:0:0:
257,36,143739,6,0,L|321:48,1,47.9999985351563,6|0,0:1|0:0,0:0:0:0:
354,123,143947,2,0,L|290:135,1,47.9999985351563,6|0,0:1|0:0,0:0:0:0:
232,184,144156,38,0,L|221:104,1,80,2|8,0:0|0:0,0:0:0:0:
423,76,144573,2,0,L|433:155,1,80,2|8,0:0|1:2,0:0:0:0:
334,171,144885,1,0,1:2:0:0:
334,171,144990,2,0,L|323:91,1,80,2|0,1:2|0:0,0:0:0:0:
490,206,145406,6,0,L|500:285,1,80,2|8,0:0|0:0,0:0:0:0:
299,314,145823,2,0,L|288:234,1,80,2|8,0:0|0:0,0:0:0:0:
271,79,146240,1,4,3:0:0:0:
271,79,146344,1,4,3:0:0:0:
271,79,146448,1,4,3:0:0:0:
271,79,146552,1,4,3:0:0:0:
271,79,146656,1,14,3:0:0:0:
240,104,146760,1,12,3:0:0:0:
201,114,146864,1,12,3:0:0:0:
162,108,146968,1,12,3:0:0:0:
129,86,147073,38,0,L|117:150,1,47.9999985351563,6|0,0:1|0:0,0:0:0:0:
42,183,147281,2,0,L|30:119,1,47.9999985351563,6|0,0:1|0:0,0:0:0:0:
0,45,147489,6,0,L|79:34,1,80,6|8,0:3|0:0,0:0:0:0:
108,247,147905,2,0,L|28:257,1,80,6|8,0:3|0:0,0:0:0:0:
13,158,148217,1,2,0:0:0:0:
13,158,148322,2,0,L|92:147,1,80,6|8,0:3|0:0,0:0:0:0:
341,220,148739,38,0,L|261:230,1,80,6|8,0:3|0:0,0:0:0:0:
233,29,149156,2,0,L|312:18,1,80,6|8,0:3|0:0,0:0:0:0:
262,230,149573,2,0,L|182:240,1,80,6|8,0:3|0:0,0:0:0:0:
167,141,149885,1,2,0:0:0:0:
167,141,149990,2,0,L|246:130,1,80,0|0,0:0|0:0,0:0:0:0:
476,155,150406,6,0,L|464:219,1,47.9999985351563,6|0,0:1|0:0,0:0:0:0:
389,252,150614,2,0,L|377:188,1,47.9999985351563,6|0,0:1|0:0,0:0:0:0:
403,106,150822,38,0,L|324:117,1,80,2|8,0:0|0:0,0:0:0:0:
141,142,151239,1,6,3:0:0:0:
110,166,151343,1,4,3:0:0:0:
99,204,151447,1,12,3:0:0:0:
112,241,151551,1,4,3:0:0:0:
143,265,151655,1,6,3:0:0:0:
183,266,151759,1,4,3:0:0:0:
216,244,151863,1,12,3:0:0:0:
230,208,151968,1,4,3:0:0:0:
221,169,152072,6,0,P|224:109|307:223,1,400,6|0,0:1|0:0,0:0:0:0:
163,230,153322,38,2,L|139:236,6,20,2|2|2|2|2|2|2,0:1|0:1|0:1|0:1|0:1|0:1|0:1,0:0:0:0:
143,234,153739,38,0,P|120:263|93:178,1,191.999994140625,6|0,0:1|0:0,0:0:0:0:
173,156,154781,37,2,0:1:0:0:
256,176,154989,1,2,0:1:0:0:
321,232,155197,2,0,P|334:276|319:326,1,95.9999970703126,2|2,0:1|0:1,0:0:0:0:
154,370,156031,2,0,P|141:326|156:276,1,95.9999970703126,2|0,0:1|0:0,0:0:0:0:
316,219,156864,5,2,0:1:0:0:
366,288,157072,2,0,P|317:305|268:288,1,95.9999970703126,2|2,0:1|0:1,0:0:0:0:
209,238,157697,2,0,P|181:234|153:241,1,47.9999985351563,2|0,0:1|0:0,0:0:0:0:
90,286,158114,2,0,P|73:237|90:188,1,95.9999970703126,2|2,0:1|0:1,0:0:0:0:
146,135,158739,2,0,P|163:86|146:37,2,95.9999970703126,2|2|2,0:1|0:1|0:1,0:0:0:0:
164,219,159781,38,0,L|270:230,1,95.9999970703126,2|0,0:1|0:0,0:0:0:0:
312,297,160406,2,0,L|206:308,1,95.9999970703126,2|0,0:1|0:0,0:0:0:0:
44,319,161239,5,2,0:1:0:0:
21,235,161447,1,2,0:1:0:0:
41,150,161656,1,2,0:1:0:0:
105,92,161864,2,0,P|151:81|210:95,1,95.9999970703126,2|2,0:1|0:1,0:0:0:0:
272,245,162697,2,0,P|225:255|167:242,1,95.9999970703126,2|0,0:1|0:0,0:0:0:0:
96,219,163322,37,2,0:1:0:0:
96,219,163531,2,0,P|106:172|93:114,1,95.9999970703126,2|2,0:1|0:1,0:0:0:0:
261,68,164364,2,0,P|250:114|264:173,1,95.9999970703126,2|2,0:1|0:1,0:0:0:0:
417,230,165197,6,0,L|467:222,1,47.9999985351563,2|0,0:1|0:0,0:0:0:0:
510,149,165614,2,0,L|460:141,1,47.9999985351563,2|0,0:1|0:0,0:0:0:0:
377,124,166031,2,0,B|309:156|300:94|227:130,1,143.999995605469,2|0,0:1|0:0,0:0:0:0:
79,194,167072,38,0,L|92:295,1,95.9999970703126,2|0,0:1|0:0,0:0:0:0:
245,369,167906,2,0,L|257:273,1,95.9999970703126,2|0,0:1|0:0,0:0:0:0:
379,150,168739,2,0,L|400:308,1,143.999995605469,2|0,0:1|0:0,0:0:0:0:
468,134,169781,5,2,0:1:0:0:
410,69,169989,1,2,0:1:0:0:
379,150,170197,2,0,P|329:163|278:143,2,95.9999970703126,2|2|2,0:1|0:1|0:1,0:0:0:0:
468,134,171239,2,0,L|482:248,2,95.9999970703126,2|2|2,0:1|0:1|0:1,0:0:0:0:
312,57,172489,37,2,0:1:0:0:
227,75,172697,1,2,0:1:0:0:
286,138,172906,1,2,0:1:0:0:
201,156,173114,1,2,0:1:0:0:
259,219,173322,1,2,0:1:0:0:
174,237,173530,1,2,0:1:0:0:
231,301,173739,6,0,P|324:275|304:147,1,239.999992675781,2|0,0:1|0:0,0:0:0:0:
259,219,174989,2,0,L|149:222,2,95.9999970703126,2|2|2,0:1|0:1|0:1,0:0:0:0:
431,216,176239,37,2,0:1:0:0:
431,216,176447,2,0,L|447:159,1,47.9999985351563,2|2,0:1|0:1,0:0:0:0:
357,162,176864,2,0,L|356:112,1,47.9999985351563,2|0,0:1|0:0,0:0:0:0:
274,142,177281,2,0,L|251:93,1,47.9999985351563,2|0,0:1|0:0,0:0:0:0:
190,157,177697,2,0,L|145:125,1,47.9999985351563,2|0,0:1|0:0,0:0:0:0:
124,211,178114,2,0,L|58:205,1,47.9999985351563,2|0,0:1|0:0,0:0:0:0:
96,292,178531,6,0,P|213:350|122:213,1,431.999986816407,2|2,0:1|0:1,0:0:0:0:
115,331,182072,38,0,L|96:261,1,55.9999982910157,2|0,0:1|0:0,0:0:0:0:
33,200,182489,2,0,L|18:254,1,55.9999982910157,2|0,0:1|0:0,0:0:0:0:
211,280,182906,6,0,L|192:210,1,55.9999982910157,2|0,0:1|0:0,0:0:0:0:
129,149,183323,2,0,L|114:203,1,55.9999982910157,2|0,0:1|0:0,0:0:0:0:
300,252,183739,6,0,L|287:209,3,32,0|0|0|0,1:2|1:2|1:2|1:2,0:0:0:0:
266,197,184156,6,0,L|252:151,1,34.0000006484985,0|0,1:2|1:2,0:0:0:0:
228,144,184364,2,0,L|215:100,1,34.0000006484985,0|0,1:2|1:2,0:0:0:0:
203,78,184572,37,0,1:2:0:0:
175,100,184676,1,0,1:2:0:0:
140,110,184780,1,2,1:2:0:0:
105,107,184884,1,2,1:2:0:0:
73,90,184989,6,0,L|64:200,1,80,8|0,1:1|0:0,0:0:0:0:
0,384,185406,37,12,0:0:0:0:
140,332,185614,1,2,0:0:0:0:
25,236,185822,1,2,0:0:0:0:
166,183,186031,5,2,1:2:0:0:
275,287,186239,2,0,P|288:244|276:198,1,88.000002685547,12|2,0:0|0:0,0:0:0:0:
231,137,186551,2,0,P|221:94|234:52,1,88.000002685547,12|0,0:0|0:0,0:0:0:0:
295,1,186864,1,2,0:0:0:0:
415,99,187072,38,0,L|371:107,1,44.0000013427735,6|0,0:0|0:0,0:0:0:0:
187,129,187385,2,0,L|231:137,1,44.0000013427735,6|0,0:0|0:0,0:0:0:0:
410,180,187697,2,0,L|366:188,1,44.0000013427735,6|0,0:0|0:0,0:0:0:0:
321,261,187906,2,0,L|365:269,1,44.0000013427735,12|2,0:0|0:0,0:0:0:0:
415,99,188218,2,0,L|371:107,1,44.0000013427735,6|8,0:0|0:0,0:0:0:0:
222,127,188531,1,2,0:1:0:0:
366,187,188739,5,6,1:2:0:0:
392,221,188843,1,0,1:2:0:0:
397,264,188947,1,8,1:2:0:0:
378,303,189051,1,0,1:2:0:0:
342,326,189156,38,0,P|298:338|244:322,1,88.000002685547,6|8,1:2|0:0,0:0:0:0:
92,250,189572,2,0,P|136:238|190:254,1,88.000002685547,2|8,0:0|1:2,0:0:0:0:
259,250,189885,1,0,1:2:0:0:
259,250,189989,2,0,P|249:204|260:165,1,88.000002685547,2|8,1:2|1:2,0:0:0:0:
402,100,190406,2,0,P|412:142|402:184,2,88.000002685547,6|8|2,1:2|1:2|1:2,0:0:0:0:
254,21,191031,5,8,1:2:0:0:
172,144,191239,2,0,P|213:155|255:145,1,88.000002685547,6|8,0:0|0:0,0:0:0:0:
318,98,191551,2,0,P|360:87|401:99,1,88.000002685547,2|2,0:0|0:0,0:0:0:0:
471,134,191864,1,8,0:0:0:0:
367,242,192072,2,0,P|357:280|373:330,2,88.000002685547,6|8|2,1:2|1:2|1:2,0:0:0:0:
471,134,192696,37,8,1:2:0:0:
440,281,192906,1,2,0:0:0:0:
308,177,193114,1,8,0:0:0:0:
455,208,193322,1,2,0:0:0:0:
413,43,193531,1,8,0:0:0:0:
382,190,193739,6,0,P|367:239|389:302,1,111.999996582031,6|0,0:0|0:0,0:0:0:0:
344,359,194051,38,0,L|253:360,1,80,6|0,0:0|0:0,0:0:0:0:
211,300,194364,6,0,P|236:288|195:269,1,95.9999970703126,6|0,0:0|0:0,0:0:0:0:
40,380,194989,38,0,L|64:260,1,120,8|0,0:1|0:0,0:0:0:0:
79,186,195406,5,6,0:0:0:0:
188,278,195614,1,8,0:0:0:0:
150,137,195822,1,2,0:0:0:0:
101,271,196031,1,8,0:0:0:0:
219,190,196239,1,2,0:0:0:0:
79,186,196447,2,0,P|37:196|-1:180,2,80,8|2|8,1:2|1:2|1:2,0:0:0:0:
296,165,197072,37,6,0:0:0:0:
201,270,197281,1,8,0:0:0:0:
341,301,197489,1,2,0:0:0:0:
219,190,197697,1,8,0:0:0:0:
263,326,197906,1,2,0:0:0:0:
358,219,198114,2,0,P|398:209|439:222,2,80,8|2|8,1:2|1:2|1:2,0:0:0:0:
201,270,198739,5,6,0:0:0:0:
114,156,198948,1,8,0:0:0:0:
59,288,199156,1,2,0:0:0:0:
206,249,199364,1,8,0:0:0:0:
92,163,199573,1,2,0:0:0:0:
75,305,199780,2,0,P|68:345|86:385,2,80,8|2|8,1:2|1:2|1:2,0:0:0:0:
210,198,200405,37,6,0:0:0:0:
156,331,200613,1,0,0:0:0:0:
277,256,200821,1,0,0:0:0:0:
136,246,201031,1,8,0:0:0:0:
243,336,201239,1,10,1:2:0:0:
282,343,201343,1,8,1:2:0:0:
320,330,201447,1,8,1:2:0:0:
348,302,201551,1,8,1:2:0:0:
360,264,201655,1,10,1:2:0:0:
355,225,201759,1,8,1:2:0:0:
331,193,201864,1,8,1:2:0:0:
297,173,201968,1,8,1:2:0:0:
257,174,202073,5,14,1:2:0:0:
150,268,202281,1,8,0:0:0:0:
122,127,202489,1,2,0:0:0:0:
233,253,202697,1,8,0:0:0:0:
95,206,202906,1,2,0:0:0:0:
204,112,203114,2,0,P|212:71|196:26,2,80,8|2|8,1:2|1:2|1:2,0:0:0:0:
143,282,203739,37,6,0:0:0:0:
257,195,203948,1,8,0:0:0:0:
125,140,204156,1,2,0:0:0:0:
164,287,204364,1,8,0:0:0:0:
250,173,204573,1,2,0:0:0:0:
108,156,204780,2,0,P|68:149|28:167,2,80,8|2|8,1:2|1:2|1:2,0:0:0:0:
255,333,205406,6,0,P|290:342|341:328,1,75.9999979705811,2|2,0:0|0:0,0:0:0:0:
397,193,205822,2,0,P|406:158|392:107,1,75.9999979705811,2|2,0:0|0:0,0:0:0:0:
257,51,206239,2,0,P|222:42|171:56,1,75.9999979705811,2|2,0:0|0:0,0:0:0:0:
115,191,206655,2,0,P|106:226|120:277,1,75.9999979705811,2|2,0:0|0:0,0:0:0:0:
348,186,207073,37,6,0:0:0:0:
183,228,207281,1,2,0:0:0:0:
220,39,207489,1,2,0:0:0:0:
261,203,207697,1,6,0:0:0:0:
78,165,207906,1,2,0:0:0:0:
140,349,208114,1,2,0:0:0:0:
199,171,208323,2,0,P|170:122|169:178,1,151.999995941162,6|0,0:0|0:0,0:0:0:0:
