osu file format v14

[General]
AudioFilename: audio.mp3
AudioLeadIn: 0
PreviewTime: 153990
Countdown: 0
SampleSet: Soft
StackLeniency: 0.5
Mode: 2
LetterboxInBreaks: 0
WidescreenStoryboard: 1

[Editor]
DistanceSpacing: 2.1
BeatDivisor: 8
GridSize: 8
TimelineZoom: 1.2

[Metadata]
Title:Sleep-walking
TitleUnicode:Sleep-walking
Artist:Dreamcatcher
ArtistUnicode:드림캐쳐
Creator:zerokt
Version:Cup
Source:
Tags:hareimu reimu archer 4rcher- Natsu korean kr 지유 수아 시연 한동 유현 다미 가현 Ji-U Su-A jiu sua SiYeon Handong YooHyun YooHyeon DaMi Gahyeon Happy Face Happyface Entertainment Prequel 1st mini album electronic kpop k-pop krock k-rock dnb dnb drum and bass edm
BeatmapID:3467160
BeatmapSetID:1696997

[Difficulty]
HPDrainRate:2
CircleSize:2.5
OverallDifficulty:6
ApproachRate:6
SliderMultiplier:1.38
SliderTickRate:1

[Events]
//Background and Video events
0,0,"bruh.jpg",0,0
//Break Periods
2,55645,65429
2,132886,142671
//Storyboard Layer 0 (Background)
//Storyboard Layer 1 (Fail)
//Storyboard Layer 2 (Pass)
//Storyboard Layer 3 (Foreground)
//Storyboard Layer 4 (Overlay)
//Storyboard Sound Samples

[TimingPoints]
273,344.827586206897,4,3,1,25,1,0
273,-100,4,3,1,25,0,0
445,-100,4,3,1,5,0,0
3204,-100,4,3,1,10,0,0
5962,-100,4,3,1,15,0,0
8721,-100,4,3,1,20,0,0
10790,-100,4,2,1,40,0,0
11307,-100,4,2,1,50,0,1
11393,-100,4,2,1,50,0,0
33376,-100,4,2,1,45,0,0
55445,-100,4,3,1,50,0,0
66479,-100,4,2,1,40,0,0
69238,-100,4,2,1,45,0,0
71997,-100,4,2,1,50,0,0
73376,-100,4,2,1,55,0,0
74755,-100,4,2,1,60,0,0
75100,-100,4,2,1,60,0,0
75445,-100,4,2,1,60,0,0
75790,-100,4,2,1,60,0,0
75962,-100,4,2,1,40,0,0
76048,-100,4,2,1,5,0,0
76135,-100,4,2,1,40,0,0
76824,-100,4,2,1,40,0,0
77514,-100,4,2,2,60,0,1
78117,-100,4,2,2,30,0,1
78204,-100,4,2,2,60,0,1
78290,-100,4,2,2,30,0,1
78376,-100,4,2,2,60,0,1
78462,-100,4,2,2,30,0,1
78548,-100,4,2,2,60,0,1
80531,-100,4,2,2,30,0,1
80617,-100,4,2,2,60,0,1
80704,-100,4,2,2,30,0,1
80790,-100,4,2,2,60,0,1
80876,-100,4,2,2,30,0,1
80962,-100,4,2,2,60,0,1
81048,-100,4,2,2,30,0,1
81135,-100,4,2,2,60,0,1
81221,-100,4,2,2,30,0,1
81307,-100,4,2,2,60,0,1
82514,-100,4,2,2,60,0,1
82686,-100,4,2,2,60,0,1
83031,-100,4,2,2,60,0,1
83204,-100,4,2,2,60,0,1
83290,-100,4,2,2,30,0,1
83376,-100,4,2,2,60,0,1
83462,-100,4,2,2,30,0,1
83548,-100,4,2,2,60,0,1
83635,-100,4,2,2,30,0,1
83721,-100,4,2,2,60,0,1
83807,-100,4,2,2,30,0,1
83893,-100,4,2,2,60,0,1
83979,-100,4,2,2,30,0,1
84066,-100,4,2,2,60,0,1
86048,-100,4,2,2,30,0,1
86135,-100,4,2,2,60,0,1
86221,-100,4,2,2,30,0,1
86307,-100,4,2,2,60,0,1
86393,-100,4,2,2,30,0,1
86479,-100,4,2,2,60,0,1
86566,-100,4,2,2,30,0,1
86652,-100,4,2,2,60,0,1
86738,-100,4,2,2,30,0,1
86824,-100,4,2,2,60,0,1
88204,-100,4,2,2,60,0,0
88548,-100,4,2,2,60,0,1
89152,-100,4,2,2,30,0,1
89238,-100,4,2,3,40,0,1
89324,-100,4,2,2,30,0,1
89410,-100,4,2,2,60,0,1
89928,-100,4,2,3,40,0,1
90014,-100,4,2,3,30,0,1
90100,-100,4,2,2,60,0,1
90445,-100,4,2,3,40,0,1
90531,-100,4,2,3,30,0,1
90617,-100,4,2,2,60,0,1
90962,-100,4,2,3,40,0,1
91048,-100,4,2,3,30,0,1
91135,-100,4,2,2,60,0,1
91479,-100,4,2,3,40,0,1
91566,-100,4,2,3,30,0,1
91652,-100,4,2,2,60,0,1
91997,-100,4,2,3,40,0,1
92083,-100,4,2,3,30,0,1
92169,-100,4,2,2,60,0,1
92686,-100,4,2,3,40,0,1
92773,-100,4,2,3,30,0,1
92859,-100,4,2,2,60,0,1
93204,-100,4,2,3,40,0,1
93290,-100,4,2,3,30,0,1
93376,-100,4,2,3,60,0,1
93548,-100,4,2,2,60,0,1
93721,-100,4,2,2,60,0,1
94066,-100,4,2,2,60,0,1
94238,-100,4,2,3,50,0,1
94324,-100,4,2,3,30,0,1
94410,-100,4,2,2,60,0,1
94755,-100,4,2,3,50,0,1
94841,-100,4,2,3,30,0,1
94928,-100,4,2,2,60,0,1
95445,-100,4,2,3,50,0,1
95531,-100,4,2,3,30,0,1
95617,-100,4,2,2,60,0,1
95962,-100,4,2,3,50,0,1
96048,-100,4,2,3,30,0,1
96135,-100,4,2,2,60,0,1
96997,-100,4,2,3,60,0,1
97083,-100,4,2,3,30,0,1
97169,-100,4,2,2,60,0,1
97514,-100,4,2,3,60,0,1
97600,-100,4,2,3,30,0,1
97686,-100,4,2,2,60,0,1
98031,-100,4,2,3,60,0,1
98117,-100,4,2,3,30,0,1
98204,-100,4,2,2,60,0,1
98721,-100,4,2,3,40,0,1
98807,-100,4,2,2,30,0,1
98893,-100,4,2,2,60,0,1
99066,-100,4,2,2,30,0,1
99152,-100,4,2,2,60,0,1
99238,-100,4,2,1,60,0,0
99583,-100,4,2,1,50,0,1
99669,-100,4,2,1,50,0,0
110618,-100,4,2,1,45,0,0
120273,-100,4,2,1,20,0,0
120445,-100,4,2,1,5,0,0
120790,-100,4,2,1,20,0,0
121307,-100,4,2,1,100,0,0
121652,-100,4,2,1,45,0,0
132686,-100,4,3,1,50,0,0
143721,-100,4,2,1,40,0,0
146479,-100,4,2,1,45,0,0
149238,-100,4,2,1,50,0,0
150617,-100,4,2,1,55,0,0
151997,-100,4,2,1,60,0,0
152341,-100,4,2,1,60,0,0
152686,-100,4,2,1,60,0,0
153031,-100,4,2,1,60,0,0
153204,-100,4,2,1,40,0,0
153290,-100,4,2,1,5,0,0
153376,-100,4,2,1,40,0,0
153979,-100,4,2,1,5,0,0
154066,-100,4,2,1,60,0,0
154755,-100,4,2,2,60,0,1
155359,-100,4,2,2,30,0,1
155445,-100,4,2,2,60,0,1
155531,-100,4,2,2,30,0,1
155617,-100,4,2,2,60,0,1
155704,-100,4,2,2,30,0,1
155790,-100,4,2,2,60,0,1
157773,-100,4,2,2,30,0,1
157859,-100,4,2,2,60,0,1
157945,-100,4,2,2,30,0,1
158031,-100,4,2,2,60,0,1
158117,-100,4,2,2,30,0,1
158204,-100,4,2,2,60,0,1
158290,-100,4,2,2,30,0,1
158376,-100,4,2,2,60,0,1
158462,-100,4,2,2,30,0,1
158548,-100,4,2,2,60,0,1
159755,-100,4,2,2,60,0,1
159928,-100,4,2,2,60,0,1
160273,-100,4,2,2,60,0,1
160445,-100,4,2,2,60,0,1
160531,-100,4,2,2,30,0,1
160617,-100,4,2,2,60,0,1
160704,-100,4,2,2,30,0,1
160790,-100,4,2,2,60,0,1
160876,-100,4,2,2,30,0,1
160962,-100,4,2,2,60,0,1
161048,-100,4,2,2,30,0,1
161135,-100,4,2,2,60,0,1
161221,-100,4,2,2,30,0,1
161307,-100,4,2,2,60,0,1
163290,-100,4,2,2,30,0,1
163376,-100,4,2,2,60,0,1
163462,-100,4,2,2,30,0,1
163548,-100,4,2,2,60,0,1
163635,-100,4,2,2,30,0,1
163721,-100,4,2,2,60,0,1
163807,-100,4,2,2,30,0,1
163893,-100,4,2,2,60,0,1
163979,-100,4,2,2,30,0,1
164066,-100,4,2,2,60,0,1
165445,-100,4,2,2,60,0,0
165790,-100,4,2,2,60,0,1
166393,-100,4,2,2,30,0,1
166479,-100,4,2,3,40,0,1
166566,-100,4,2,3,30,0,1
166652,-100,4,2,2,60,0,1
167169,-100,4,2,3,40,0,1
167255,-100,4,2,3,30,0,1
167341,-100,4,2,2,60,0,1
167686,-100,4,2,3,40,0,1
167773,-100,4,2,3,30,0,1
167859,-100,4,2,2,60,0,1
168204,-100,4,2,3,40,0,1
168290,-100,4,2,3,30,0,1
168376,-100,4,2,2,60,0,1
168721,-100,4,2,3,40,0,1
168807,-100,4,2,3,30,0,1
168893,-100,4,2,2,60,0,1
169238,-100,4,2,3,40,0,1
169324,-100,4,2,3,29,0,1
169410,-100,4,2,2,60,0,1
169928,-100,4,2,3,40,0,1
170014,-100,4,2,3,30,0,1
170100,-100,4,2,2,60,0,1
170445,-100,4,2,3,40,0,1
170531,-100,4,2,3,30,0,1
170617,-100,4,2,3,60,0,1
170790,-100,4,2,2,60,0,1
170962,-100,4,2,2,60,0,1
171307,-100,4,2,2,60,0,1
171479,-100,4,2,3,50,0,1
171566,-100,4,2,3,30,0,1
171652,-100,4,2,2,60,0,1
171997,-100,4,2,3,50,0,1
172083,-100,4,2,3,30,0,1
172169,-100,4,2,2,60,0,1
172686,-100,4,2,3,50,0,1
172773,-100,4,2,3,30,0,1
172859,-100,4,2,2,60,0,1
173204,-100,4,2,3,50,0,1
173290,-100,4,2,3,30,0,1
173376,-100,4,2,2,60,0,1
174238,-100,4,2,3,60,0,1
174324,-100,4,2,3,30,0,1
174410,-100,4,2,2,60,0,1
174755,-100,4,2,3,60,0,1
174841,-100,4,2,3,30,0,1
174928,-100,4,2,2,60,0,1
175273,-100,4,2,3,60,0,1
175359,-100,4,2,3,30,0,1
175445,-100,4,2,2,60,0,1
175962,-100,4,2,3,50,0,1
176048,-100,4,2,2,30,0,1
176135,-100,4,2,2,60,0,1
176307,-100,4,2,2,30,0,1
176393,-100,4,2,2,60,0,1
176479,-100,4,2,1,60,0,0
176824,-100,4,2,1,50,0,1
176910,-100,4,2,1,50,0,0
198893,-100,4,3,1,40,0,0
199583,-100,4,3,1,40,0,0
199755,-100,4,3,1,40,0,0
199928,-100,4,3,1,40,0,0
200100,-100,4,3,1,40,0,0
200445,-100,4,3,1,40,0,0
201135,-100,4,3,1,40,0,0
201479,-100,4,3,1,40,0,0
201652,-100,4,3,1,40,0,0
202341,-100,4,3,1,40,0,0
202514,-100,4,3,1,40,0,0
202686,-100,4,3,1,40,0,0
202859,-100,4,3,1,40,0,0
203204,-100,4,3,1,40,0,0
203548,-100,4,3,1,40,0,0
203893,-100,4,3,1,40,0,0
204066,-100,4,3,1,40,0,0
204410,-100,4,3,1,40,0,0

[Colours]
Combo1 : 255,128,192
Combo2 : 170,0,0
SliderBorder : 170,0,0
SliderTrackOverride : 30,30,30

[HitObjects]
65,351,273,6,0,L|53:128,1,207,0|0,0:0|0:0,0:0:0:0:
191,131,1135,1,8,0:0:0:0:
328,120,1479,2,0,L|144:123,2,138,10|2|2,0:0|0:0|0:0,0:0:0:0:
464,120,2514,1,2,0:0:0:0:
320,72,2859,6,0,P|240:160|336:272,1,276,2|0,0:0|0:0,0:0:0:0:
456,288,3893,1,8,0:0:0:0:
312,254,4238,2,0,L|331:99,1,138,10|2,0:0|0:0,0:0:0:0:
190,106,4928,2,0,L|39:106,2,138,10|2|2,0:0|0:0|0:0,0:0:0:0:
327,99,5962,6,0,P|395:139|279:234,1,276,0|8,0:0|0:0,0:0:0:0:
155,248,6997,2,0,L|135:76,1,138,10|2,0:0|0:0,0:0:0:0:
277,110,7686,2,0,L|448:112,2,138,2|2|2,0:0|0:0|0:0,0:0:0:0:
138,112,8721,6,0,P|53:168|162:272,1,276,0|10,0:0|0:0,0:0:0:0:
278,276,9755,2,0,L|87:273,2,138,10|2|10,0:0|0:0|0:0,0:0:0:0:
416,280,10790,1,8,0:1:0:0:
472,296,10962,1,8,0:0:0:0:
346,256,11307,5,6,0:0:0:0:
484,254,11652,2,0,L|253:246,1,207,8|8,0:0|1:0,0:0:0:0:
415,250,12514,2,0,L|443:73,1,138,2|2,0:1|0:1,0:0:0:0:
298,105,13204,2,0,L|450:108,2,138,2|10|2,1:0|1:0|0:1,0:0:0:0:
160,95,14238,6,0,P|89:135|86:318,1,276,2|10,0:0|0:1,0:0:0:0:
219,319,15273,2,0,L|284:174,1,138,2|10,0:0|0:1,0:0:0:0:
137,197,15962,2,0,P|67:143|150:80,1,207,10|8,0:1|0:0,0:0:0:0:
271,72,16824,5,6,0:0:0:0:
409,69,17169,2,0,L|165:65,1,207,8|8,0:0|1:0,0:0:0:0:
320,67,18031,2,0,L|427:187,1,138,2|2,0:0|0:0,0:0:0:0:
275,193,18721,2,0,L|127:192,2,138,2|10|2,1:0|1:0|0:0,0:0:0:0:
413,190,19755,6,0,P|447:271|292:373,1,276,2|10,0:0|0:1,0:0:0:0:
186,367,20790,2,0,L|160:206,1,138,2|10,0:0|0:1,0:0:0:0:
302,234,21479,2,0,P|397:205|401:92,1,207,10|8,0:1|0:0,0:0:0:0:
272,317,22341,5,6,0:0:0:0:
134,315,22686,2,0,L|365:307,1,207,8|8,0:0|1:0,0:0:0:0:
203,311,23548,2,0,L|175:134,1,138,2|2,0:0|0:0,0:0:0:0:
319,179,24238,2,0,P|388:150|371:35,1,207,2|8,1:0|0:0,0:0:0:0:
234,35,25100,5,6,1:2:0:0:
372,35,25445,2,0,L|156:30,1,207,8|8,1:2|1:0,0:0:0:0:
303,34,26307,2,0,L|262:169,1,138,2|10,0:0|0:1,0:0:0:0:
125,151,26997,2,0,P|35:205|41:336,1,207,10|8,0:1|0:0,0:0:0:0:
160,299,27859,5,6,0:0:0:0:
297,291,28204,2,0,L|76:276,1,207,8|8,0:0|1:0,0:0:0:0:
228,279,29066,2,0,L|262:121,1,138,2|2,0:0|0:0,0:0:0:0:
119,139,29755,2,0,P|165:71|309:82,1,207,2|8,1:0|0:0,0:0:0:0:
143,63,30617,5,6,1:2:0:0:
281,62,30962,2,0,P|380:137|334:254,1,207,8|8,1:2|1:0,0:0:0:0:
236,204,31824,2,0,L|187:370,1,138,2|10,0:0|0:1,0:0:0:0:
334,323,32514,5,10,0:1:0:0:
399,304,32686,1,10,0:1:0:0:
442,251,32858,1,2,0:0:0:0:
446,183,33031,1,10,0:0:0:0:
308,180,33376,5,6,0:2:0:0:
169,75,33721,2,0,L|147:324,1,207,8|8,0:0|0:1,0:0:0:0:
288,269,34583,2,0,P|351:304|267:376,1,207,2|8,0:0|0:0,0:0:0:0:
144,369,35445,2,0,L|144:215,1,138,2|8,0:0|0:0,0:0:0:0:
281,216,36135,5,10,0:1:0:0:
143,216,36479,2,0,P|87:155|141:50,1,207,10|10,0:0|0:1,0:0:0:0:
271,59,37341,2,0,L|436:56,1,138,2|8,0:0|0:1,0:0:0:0:
271,76,38031,2,0,P|187:132|195:248,1,207,10|10,0:1|1:2,0:0:0:0:
322,228,38893,5,8,0:1:0:0:
184,215,39238,2,0,L|398:197,1,207,10|10,0:0|0:1,0:0:0:0:
252,205,40100,2,0,P|178:158|252:90,1,207,2|8,0:0|0:0,0:0:0:0:
379,84,40962,2,0,L|391:254,1,138,2|8,0:0|0:0,0:0:0:0:
250,228,41652,5,10,0:1:0:0:
112,236,41997,2,0,L|102:16,1,207,8|10,0:0|0:1,0:0:0:0:
240,27,42859,2,0,L|92:25,1,138,2|8,0:0|0:1,0:0:0:0:
239,39,43548,2,0,P|327:88|313:232,1,207,10|8,0:1|0:0,0:0:0:0:
203,197,44410,6,0,P|133:251|232:280,1,207,10|2,0:1|0:0,0:0:0:0:
345,293,45273,1,2,0:0:0:0:
207,290,45617,2,0,L|50:290,2,138,2|2|2,0:0|0:0|0:0,0:0:0:0:
345,284,46652,1,10,0:1:0:0:
207,278,46997,6,0,P|174:209|344:133,1,276,2|2,0:0|0:0,0:0:0:0:
446,110,48031,1,10,0:1:0:0:
307,110,48376,2,0,L|315:266,1,138,2|10,0:0|0:1,0:0:0:0:
452,246,49066,2,0,P|465:327|340:359,1,207,10|8,0:1|0:0,0:0:0:0:
227,362,49928,6,0,L|442:356,2,207,6|2|8,0:0|0:0|0:0,0:0:0:0:
88,359,51307,2,0,L|87:195,1,138,10|8,0:1|0:0,0:0:0:0:
225,226,51997,2,0,L|226:62,1,138,2|8,0:0|0:0,0:0:0:0:
87,82,52686,6,0,P|29:124|138:189,1,207,8|2,0:1|0:0,0:0:0:0:
234,209,53548,1,10,0:1:0:0:
371,204,53893,2,0,P|450:273|310:357,1,276,2|10,0:0|0:1,0:0:0:0:
216,370,54928,1,2,0:0:0:0:
147,370,55100,1,10,0:0:0:0:
284,365,55445,5,4,0:2:0:0:
172,119,66479,6,0,L|130:262,1,138,12|8,0:0|0:0,0:0:0:0:
271,251,67169,2,0,L|313:394,1,138,8|8,0:0|0:0,0:0:0:0:
172,368,67859,6,0,L|478:370,2,276,12|8|12,0:0|0:0|0:0,0:0:0:0:
312,21,69583,2,0,L|354:164,1,138,8|8,0:0|0:0,0:0:0:0:
212,148,70273,1,8,0:0:0:0:
349,146,70617,6,0,L|306:300,1,138,12|8,0:0|0:0,0:0:0:0:
173,267,71307,2,0,L|163:95,1,138,8|8,0:0|0:0,0:0:0:0:
303,120,71997,6,0,L|161:118,1,138,12|8,0:0|0:0,0:0:0:0:
302,197,72686,2,0,L|439:198,1,138,8|8,0:0|0:0,0:0:0:0:
301,193,73376,2,0,L|142:183,2,138,12|8|8,0:0|0:0|0:0,0:0:0:0:
440,200,74410,1,8,0:0:0:0:
300,168,74755,6,0,P|425:234|255:361,1,414,8|8,0:0|0:0,0:0:0:0:
140,365,76135,2,0,L|108:59,1,276,2|0,0:0|0:0,0:0:0:0:
96,77,77514,5,4,0:3:0:0:
248,79,77859,2,0,L|38:70,1,207,8|10,0:0|0:1,0:0:0:0:
192,77,78721,2,0,L|334:80,1,138,4|4,0:1|0:1,0:0:0:0:
178,215,79410,2,0,L|4:220,2,138,4|12|4,0:1|0:1|0:1,0:0:0:0:
330,213,80445,6,0,P|416:181|320:75,1,276,2|10,0:0|0:1,0:0:0:0:
181,66,81479,2,0,L|155:214,1,138,4|12,0:1|0:1,0:0:0:0:
309,205,82169,2,0,P|407:264|408:357,1,207,12|12,0:1|0:0,0:0:0:0:
259,351,83031,5,8,0:1:0:0:
409,328,83376,2,0,P|464:242|373:156,1,207,10|10,0:0|0:1,0:0:0:0:
260,164,84238,2,0,L|443:156,1,138,4|4,0:1|0:1,0:0:0:0:
245,156,84928,2,0,L|98:159,2,138,4|4|4,0:1|0:1|0:1,0:0:0:0:
396,147,85962,6,0,L|111:142,1,276,2|10,0:0|0:1,0:0:0:0:
272,142,86997,2,0,L|273:314,1,138,4|4,0:1|0:1,0:0:0:0:
120,284,87686,2,0,P|56:222|132:152,1,207,12|8,0:1|0:0,0:0:0:0:
274,143,88548,5,4,0:3:0:0:
121,173,88893,2,0,P|95:87|190:13,1,207,8|10,0:0|0:1,0:0:0:0:
324,13,89755,2,0,L|159:28,1,138,4|4,0:1|0:1,0:0:0:0:
338,163,90445,2,0,L|509:204,2,138,2|12|4,0:0|0:1|0:1,0:0:0:0:
187,144,91479,6,0,P|88:183|144:333,1,276,2|10,0:0|0:1,0:0:0:0:
272,333,92514,2,0,L|109:322,1,138,4|12,0:1|0:1,0:0:0:0:
286,316,93204,2,0,P|368:274|283:205,1,207,2|12,0:0|0:0,0:0:0:0:
164,196,94066,5,8,0:1:0:0:
315,201,94410,2,0,L|384:-9,1,207,8|10,0:0|0:1,0:0:0:0:
227,10,95273,2,0,L|408:6,1,138,12|4,0:1|0:1,0:0:0:0:
214,25,95962,2,0,L|62:32,2,138,2|8|8,0:0|0:1|0:1,0:0:0:0:
366,124,96997,6,0,P|450:184|294:337,1,345,2|8,0:0|0:0,0:0:0:0:
193,354,98204,1,8,0:1:0:0:
117,354,98376,1,8,0:1:0:0:
41,349,98548,2,0,P|1:236|140:132,1,276,8|8,0:1|0:0,0:0:0:0:
237,138,99583,5,6,0:0:0:0:
375,141,99928,2,0,L|155:135,1,207,8|8,0:0|1:0,0:0:0:0:
306,137,100790,2,0,L|306:293,1,138,2|2,0:0|0:0,0:0:0:0:
167,279,101479,2,0,P|106:348|192:374,1,207,2|8,1:0|0:0,0:0:0:0:
321,364,102341,5,6,1:2:0:0:
183,371,102686,2,0,L|157:135,1,207,8|8,1:2|1:0,0:0:0:0:
298,157,103548,2,0,L|442:155,1,138,2|10,0:0|0:1,0:0:0:0:
297,143,104238,2,0,P|194:249|219:323,1,207,10|8,0:1|0:0,0:0:0:0:
339,298,105100,5,6,0:0:0:0:
477,299,105445,2,0,L|483:78,1,207,8|8,0:0|1:0,0:0:0:0:
344,94,106307,2,0,L|499:80,1,138,2|2,0:0|0:0,0:0:0:0:
344,62,106997,2,0,L|92:62,1,207,2|8,1:0|0:0,0:0:0:0:
275,61,107859,5,6,1:2:0:0:
138,82,108204,2,0,P|49:133|59:273,1,207,8|8,1:2|1:0,0:0:0:0:
172,231,109066,2,0,L|313:219,1,138,2|10,0:0|0:1,0:0:0:0:
172,206,109755,2,0,P|99:167|184:120,1,207,10|10,0:1|0:0,0:0:0:0:
309,104,110617,5,6,0:0:0:0:
170,107,110962,2,0,L|180:330,1,207,2|10,0:0|0:1,0:0:0:0:
317,316,111824,2,0,P|409:273|303:197,1,276,10|2,0:1|0:0,0:0:0:0:
173,196,112859,1,10,0:1:0:0:
379,197,113376,5,10,0:1:0:0:
240,199,113721,2,0,L|510:189,1,207,8|10,0:0|0:1,0:0:0:0:
309,181,114583,2,0,L|150:164,1,138,2|8,0:0|0:1,0:0:0:0:
310,73,115273,2,0,P|376:153|261:219,1,207,10|8,0:1|1:2,0:0:0:0:
185,234,116135,5,10,1:0:0:0:
46,175,116479,2,0,L|41:392,1,207,8|10,0:0|0:1,0:0:0:0:
179,374,117341,2,0,L|432:324,1,207,2|8,0:0|0:0,0:0:0:0:
243,333,118204,2,0,L|198:179,1,138,2|8,0:0|0:0,0:0:0:0:
341,187,118893,5,10,0:1:0:0:
479,188,119238,2,0,P|481:97|340:29,1,207,8|10,0:0|0:1,0:0:0:0:
190,27,120273,2,0,P|105:67|91:189,1,207,2|2,0:0|0:0,0:0:0:0:
221,174,121135,2,0,L|478:167,1,207,2|4,0:0|0:0,0:0:0:0:
289,168,121997,6,0,P|241:271|312:304,1,207,8|10,0:0|0:1,0:0:0:0:
440,307,122859,2,0,L|468:90,1,207,2|8,0:0|0:0,0:0:0:0:
329,85,123721,1,2,0:0:0:0:
191,78,124066,1,8,0:0:0:0:
122,81,124238,6,0,P|48:139|128:282,1,276,2|2,0:0|0:0,0:0:0:0:
254,284,125273,1,10,0:1:0:0:
391,273,125617,2,0,L|242:271,1,138,2|10,0:0|0:1,0:0:0:0:
390,256,126307,2,0,L|458:45,1,207,10|8,0:1|0:0,0:0:0:0:
315,58,127169,6,0,L|88:57,2,207,4|2|8,0:0|0:0|0:0,0:0:0:0:
176,62,128548,2,0,L|138:244,1,138,8|8,0:1|0:0,0:0:0:0:
286,201,129238,2,0,L|339:339,1,138,0|8,0:0|0:0,0:0:0:0:
197,343,129928,6,0,L|453:318,1,207,8|2,0:1|0:0,0:0:0:0:
264,324,130790,1,10,0:1:0:0:
127,65,131135,2,0,P|48:134|188:218,1,276,2|10,0:0|0:1,0:0:0:0:
282,231,132169,1,2,0:0:0:0:
351,231,132341,1,10,0:0:0:0:
214,226,132686,5,4,0:2:0:0:
395,119,143721,6,0,L|437:262,1,138,12|8,0:0|0:0,0:0:0:0:
296,251,144410,2,0,L|254:394,1,138,8|8,0:0|0:0,0:0:0:0:
395,368,145100,6,0,L|89:370,2,276,12|8|12,0:0|0:0|0:0,0:0:0:0:
255,21,146824,2,0,L|213:164,1,138,8|8,0:0|0:0,0:0:0:0:
354,153,147514,6,0,L|396:296,1,138,8|12,0:0|0:0,0:0:0:0:
256,277,148204,1,8,0:0:0:0:
394,267,148548,2,0,L|404:95,1,138,8|8,0:0|0:0,0:0:0:0:
264,120,149238,6,0,L|406:118,1,138,12|8,0:0|0:0,0:0:0:0:
265,197,149928,2,0,L|128:198,1,138,8|8,0:0|0:0,0:0:0:0:
266,193,150617,2,0,L|425:183,2,138,12|8|8,0:0|0:0|0:0,0:0:0:0:
128,200,151652,1,8,0:0:0:0:
267,168,151997,6,0,P|142:234|312:361,1,414,8|8,0:0|0:0,0:0:0:0:
427,365,153376,2,0,L|164:226,1,276,2|2,0:0|1:0,0:0:0:0:
456,102,154755,5,4,0:3:0:0:
304,104,155100,2,0,L|495:203,1,207,8|10,0:0|0:1,0:0:0:0:
335,194,155962,2,0,L|193:197,1,138,4|4,0:1|0:1,0:0:0:0:
343,236,156652,2,0,L|517:241,2,138,4|12|4,0:1|0:1|0:1,0:0:0:0:
222,238,157686,6,0,P|136:206|232:100,1,276,2|10,0:0|0:1,0:0:0:0:
371,91,158721,2,0,L|397:239,1,138,4|12,0:1|0:1,0:0:0:0:
243,230,159410,2,0,P|145:289|144:382,1,207,4|12,0:1|0:0,0:0:0:0:
292,372,160273,5,8,0:1:0:0:
143,353,160617,2,0,P|88:267|179:181,1,207,10|2,0:0|0:0,0:0:0:0:
292,189,161479,2,0,L|109:181,1,138,4|4,0:1|0:1,0:0:0:0:
307,181,162169,2,0,L|454:184,2,138,4|12|4,0:1|0:1|0:1,0:0:0:0:
156,172,163204,6,0,L|441:167,1,276,2|10,0:0|0:1,0:0:0:0:
279,175,164238,2,0,L|132:167,1,138,4|12,0:1|0:1,0:0:0:0:
293,167,164928,2,0,P|360:231|296:299,1,207,12|8,0:1|0:0,0:0:0:0:
144,296,165790,5,4,0:3:0:0:
295,283,166135,2,0,L|66:263,1,207,8|10,0:0|0:1,0:0:0:0:
239,255,166997,2,0,L|404:270,1,138,4|4,0:1|0:1,0:0:0:0:
224,252,167686,2,0,L|53:293,2,138,2|12|4,0:0|0:1|0:1,0:0:0:0:
374,197,168721,6,0,P|473:236|417:386,1,276,2|10,0:0|0:1,0:0:0:0:
287,376,169755,2,0,L|450:365,1,138,4|12,0:1|0:1,0:0:0:0:
272,361,170445,2,0,P|190:319|275:250,1,207,2|12,0:0|0:0,0:0:0:0:
393,234,171307,5,8,0:1:0:0:
241,225,171652,2,0,L|498:223,1,207,10|10,0:0|0:1,0:0:0:0:
295,226,172514,2,0,L|114:222,1,138,4|4,0:1|0:1,0:0:0:0:
307,205,173204,2,0,L|459:212,2,138,2|8|8,0:0|0:1|0:1,0:0:0:0:
155,47,174238,6,0,P|71:107|227:260,1,345,2|8,0:0|0:0,0:0:0:0:
327,280,175445,1,8,0:1:0:0:
403,280,175617,1,8,0:1:0:0:
479,275,175790,2,0,L|182:277,1,276,8|8,0:1|0:0,0:0:0:0:
341,252,176824,5,6,0:0:0:0:
203,261,177169,2,0,P|136:228|216:144,1,207,8|8,0:0|1:0,0:0:0:0:
330,145,178031,2,0,L|409:1,1,138,2|2,0:0|0:0,0:0:0:0:
257,24,178721,2,0,P|218:119|300:170,1,207,2|8,1:0|0:0,0:0:0:0:
429,164,179583,5,6,0:0:0:0:
291,154,179928,2,0,L|75:149,1,207,8|8,1:2|1:0,0:0:0:0:
218,179,180790,2,0,L|258:46,1,138,2|10,0:0|0:1,0:0:0:0:
119,56,181479,2,0,P|31:129|62:247,1,207,10|8,1:0|0:0,0:0:0:0:
174,217,182341,5,6,0:0:0:0:
36,229,182686,2,0,L|242:243,1,207,8|8,0:0|1:0,0:0:0:0:
106,220,183548,2,0,L|140:62,1,138,2|2,0:0|0:0,0:0:0:0:
273,85,184238,2,0,P|354:141|355:270,1,207,2|8,1:0|0:0,0:0:0:0:
229,237,185100,5,6,0:0:0:0:
367,237,185445,2,0,L|385:16,1,207,8|8,1:2|1:0,0:0:0:0:
245,28,186307,2,0,L|87:23,1,138,2|10,0:0|0:1,0:0:0:0:
244,41,186997,2,0,P|280:157|214:165,1,207,10|10,0:1|0:0,0:0:0:0:
95,176,187859,5,6,0:0:0:0:
233,174,188204,2,0,L|3:174,1,207,8|8,0:0|1:0,0:0:0:0:
164,177,189066,2,0,L|346:180,1,138,2|2,0:0|0:0,0:0:0:0:
439,171,189755,2,0,P|487:241|403:328,1,207,2|8,1:0|0:0,0:0:0:0:
282,329,190617,5,6,1:2:0:0:
419,321,190962,2,0,P|486:291|411:229,1,207,8|8,1:2|1:0,0:0:0:0:
274,237,191824,2,0,P|178:184|176:73,1,207,2|8,0:0|0:0,0:0:0:0:
303,75,192686,2,0,L|331:222,1,138,0|8,0:0|0:0,0:0:0:0:
190,209,193376,5,6,0:0:0:0:
328,210,193721,2,0,P|411:186|422:65,1,207,8|8,0:0|1:0,0:0:0:0:
291,72,194583,2,0,L|123:75,1,138,2|2,0:0|0:0,0:0:0:0:
291,71,195273,2,0,L|314:315,1,207,2|8,1:0|0:0,0:0:0:0:
172,278,196135,5,6,1:2:0:0:
309,280,196479,2,0,L|75:279,1,207,8|8,1:2|1:0,0:0:0:0:
239,272,197341,2,0,L|389:263,1,138,2|10,0:0|0:1,0:0:0:0:
238,267,198031,2,0,P|205:194|307:123,1,207,10|10,0:1|0:0,0:0:0:0:
427,120,198893,5,2,0:2:0:0:
288,123,199238,2,0,L|218:339,1,207,2|2,0:2|0:2,0:0:0:0:
362,326,200100,2,0,P|430:240|243:66,1,414,2|2,0:2|0:2,0:0:0:0:
48,74,201652,5,2,0:2:0:0:
185,78,201997,2,0,L|429:102,1,207,2|2,0:2|0:2,0:0:0:0:
253,103,202859,2,0,L|205:260,1,138,2|0,0:2|0:0,0:0:0:0:
349,251,203548,2,0,P|411:309|337:376,1,207,2|2,0:2|0:2,0:0:0:0:
