osu file format v14

[General]
AudioFilename: audio.mp3
AudioLeadIn: 0
PreviewTime: 72686
Countdown: 0
SampleSet: None
StackLeniency: 0.5
Mode: 0
LetterboxInBreaks: 0
WidescreenStoryboard: 0

[Editor]
Bookmarks: 11307,16824,22341,25100,66479,77514,88548,99583,110617,132686,143721,165790,176824,198893
DistanceSpacing: 0.8
BeatDivisor: 4
GridSize: 32
TimelineZoom: 2.4

[Metadata]
Title:Sleep-walking
TitleUnicode:Sleep-walking
Artist:Dreamcatcher
ArtistUnicode:Dreamcatcher
Creator:TequilaWolf
Version:where is that flower that you gave to me?
Source:
Tags:tjen 지유 수아 시연 한동 유현 다미 가현 ji-u jiu su-a siyeon handong yoohyeon dami gahyeon happy face entertainment prequel 1st mini album electronic kpop k-pop butt
BeatmapID:2121070
BeatmapSetID:1013379

[Difficulty]
HPDrainRate:4
CircleSize:4
OverallDifficulty:8.5
ApproachRate:9
SliderMultiplier:2.4
SliderTickRate:1

[Events]
//Background and Video events
0,0,"0..jpg",0,0
//Break Periods
//Storyboard Layer 0 (Background)
//Storyboard Layer 1 (Fail)
//Storyboard Layer 2 (Pass)
//Storyboard Layer 3 (Foreground)
//Storyboard Sound Samples

[TimingPoints]
273,344.827586206897,4,2,0,35,1,0
11307,-100,4,2,0,50,0,0
69066,-66.6666666666667,4,2,0,50,0,0
70100,-83.3333333333333,4,2,0,50,0,0
74755,-100,4,2,0,50,0,0
76135,-200,4,2,0,50,0,0
76652,-100,4,2,0,50,0,0
92169,-133.333333333333,4,2,0,50,0,0
92514,-100,4,2,0,50,0,0
153376,-1000,4,2,0,50,0,0
153893,-100,4,2,0,50,0,0
196135,-50,4,2,0,50,0,0
196652,-100,4,2,0,50,0,0

[HitObjects]
445,360,273,5,0,0:0:0:0:
374,314,445,1,0,0:0:0:0:
294,340,617,2,0,P|229:335|174:354,1,120
105,309,962,2,0,B|92:247|92:247|115:183,2,120
200,232,1479,5,0,0:0:0:0:
282,183,1824,1,0,0:0:0:0:
376,165,2169,1,0,0:0:0:0:
193,237,2341,2,0,L|192:169,2,60
382,286,2686,2,0,P|350:286|308:273,1,60
287,196,2859,1,0,0:0:0:0:
90,66,3031,6,0,P|149:55|205:80,1,120
474,195,3376,1,0,0:0:0:0:
440,271,3548,1,0,0:0:0:0:
357,252,3721,2,0,L|238:272,1,120
238,271,3979,1,0,0:0:0:0:
238,271,4066,1,0,0:0:0:0:
301,60,4238,5,0,0:0:0:0:
100,23,4583,1,0,0:0:0:0:
63,224,4928,1,0,0:0:0:0:
264,263,5273,2,0,L|282:141,1,120
348,89,5617,1,0,0:0:0:0:
168,233,5962,5,0,0:0:0:0:
63,205,6135,1,0,0:0:0:0:
35,100,6307,1,0,0:0:0:0:
112,24,6479,1,0,0:0:0:0:
216,52,6652,1,0,0:0:0:0:
244,156,6824,1,0,0:0:0:0:
300,14,6997,6,0,P|358:9|419:29,1,120
428,236,7341,1,0,0:0:0:0:
428,236,7686,6,0,L|412:355,1,120
312,313,8031,1,0,0:0:0:0:
207,341,8204,1,0,0:0:0:0:
103,310,8376,6,0,L|87:190,1,120
47,103,8721,1,0,0:0:0:0:
149,41,8893,1,0,0:0:0:0:
223,135,9066,1,0,0:0:0:0:
321,66,9238,1,0,0:0:0:0:
430,113,9410,1,0,0:0:0:0:
430,113,9583,1,0,0:0:0:0:
147,325,9755,5,0,0:0:0:0:
142,331,10100,1,0,0:0:0:0:
137,337,10445,1,0,0:0:0:0:
78,96,10790,5,0,0:0:0:0:
184,41,10962,1,0,0:0:0:0:
196,68,11048,1,0,0:0:0:0:
192,98,11135,2,0,L|252:94,1,60
323,135,11307,6,0,B|366:121|366:121|445:140,1,120
421,221,11652,1,0,0:0:0:0:
390,295,11824,1,0,0:0:0:0:
251,86,11997,1,0,0:0:0:0:
282,160,12169,1,0,0:0:0:0:
175,345,12341,1,0,0:0:0:0:
133,336,12428,1,0,0:0:0:0:
92,345,12514,6,0,L|103:223,1,120
167,85,12773,1,0,0:0:0:0:
187,104,12859,2,0,L|198:226,1,120
15,77,13204,2,0,L|73:62,1,60
68,147,13376,2,0,L|189:143,1,120
293,134,13721,1,0,0:0:0:0:
400,164,13893,2,0,P|399:232|445:263,1,120
464,98,14238,5,0,0:0:0:0:
409,28,14410,1,0,0:0:0:0:
230,107,14583,1,0,0:0:0:0:
175,177,14755,1,0,0:0:0:0:
155,46,14928,1,0,0:0:0:0:
155,46,15014,1,0,0:0:0:0:
155,46,15100,1,0,0:0:0:0:
147,261,15273,6,0,L|26:245,1,120
264,339,15617,2,0,L|385:323,1,120
438,224,15962,1,0,0:0:0:0:
411,72,16135,1,0,0:0:0:0:
367,52,16221,1,0,0:0:0:0:
322,68,16307,1,0,0:0:0:0:
311,114,16393,1,0,0:0:0:0:
331,157,16479,2,0,L|278:184,1,60
201,243,16652,2,0,L|174:190,1,60
81,146,16824,6,0,B|110:108|110:108|184:90,1,120
81,64,17169,1,0,0:0:0:0:
232,28,17341,1,0,0:0:0:0:
262,198,17514,1,0,0:0:0:0:
413,162,17686,1,0,0:0:0:0:
366,351,17859,1,0,0:0:0:0:
345,321,17945,1,0,0:0:0:0:
309,314,18031,6,0,P|246:308|209:262,1,120
165,87,18376,2,0,P|228:93|265:139,1,120
298,292,18721,2,0,L|294:229,1,60
212,292,18893,2,0,L|86:300,1,120
202,204,19238,1,0,0:0:0:0:
26,268,19410,2,0,L|145:260,1,120
479,228,19755,5,0,0:0:0:0:
320,112,19928,1,0,0:0:0:0:
301,27,20100,1,0,0:0:0:0:
143,128,20273,1,0,0:0:0:0:
254,220,20445,1,0,0:0:0:0:
254,220,20531,1,0,0:0:0:0:
254,220,20617,1,0,0:0:0:0:
139,343,20790,6,0,B|92:304|137:280|83:234,1,120
231,318,21135,2,0,P|284:291|352:298,1,120
440,314,21479,1,0,0:0:0:0:
390,176,21652,1,0,0:0:0:0:
360,146,21738,1,0,0:0:0:0:
330,116,21824,1,0,0:0:0:0:
300,146,21911,1,0,0:0:0:0:
270,176,21997,2,0,P|237:169|210:169,1,60
166,251,22169,2,0,P|133:258|106:258,1,60
4,159,22341,6,0,B|72:114|72:114|119:115,1,120
81,16,22686,1,0,0:0:0:0:
98,199,22858,1,0,0:0:0:0:
24,98,23031,1,0,0:0:0:0:
231,69,23203,1,0,0:0:0:0:
344,237,23376,1,0,0:0:0:0:
374,212,23462,1,0,0:0:0:0:
380,166,23548,6,0,L|502:145,1,120
85,137,23893,2,0,L|204:117,1,120
157,232,24238,2,0,P|152:289|177:350,1,120
401,262,24497,1,0,0:0:0:0:
389,254,24583,2,0,P|332:249|270:275,1,120
376,61,24928,1,0,0:0:0:0:
259,112,25100,6,0,P|201:100|133:93,1,120
384,49,25445,1,0,0:0:0:0:
202,197,25617,2,0,P|143:214|99:272,1,120
63,111,25962,1,0,0:0:0:0:
99,196,26135,1,0,0:0:0:0:
158,268,26307,1,0,0:0:0:0:
247,301,26479,2,0,B|306:279|306:279|372:299,2,120
209,367,26997,1,0,0:0:0:0:
242,144,27169,5,0,0:0:0:0:
232,96,27255,1,0,0:0:0:0:
188,76,27341,1,0,0:0:0:0:
145,99,27428,1,0,0:0:0:0:
128,143,27514,2,0,P|117:171|115:202,1,60
230,284,27686,2,0,P|219:256|217:225,1,60
305,148,27859,6,0,L|424:133,1,120
210,29,28204,2,0,L|329:44,1,120
105,148,28548,1,0,0:0:0:0:
177,127,28721,1,0,0:0:0:0:
383,212,28893,1,0,0:0:0:0:
455,191,29066,1,0,0:0:0:0:
50,199,29238,6,0,B|27:259|27:259|82:259,1,120
421,44,29583,2,0,B|427:107|427:107|374:93,1,120
377,189,29928,1,0,0:0:0:0:
115,293,30100,1,0,0:0:0:0:
222,339,30273,1,0,0:0:0:0:
331,296,30445,1,0,0:0:0:0:
105,280,30617,6,0,L|95:159,2,120
218,59,31135,2,0,L|208:178,1,120
214,45,31479,1,0,0:0:0:0:
114,290,31652,1,0,0:0:0:0:
361,156,31824,1,0,0:0:0:0:
33,278,31997,5,0,0:0:0:0:
128,239,32169,1,0,0:0:0:0:
326,45,32341,1,0,0:0:0:0:
231,84,32513,1,0,0:0:0:0:
419,297,32686,5,0,0:0:0:0:
399,273,32773,1,0,0:0:0:0:
363,269,32859,1,0,0:0:0:0:
325,288,32945,1,0,0:0:0:0:
290,329,33031,5,0,0:0:0:0:
266,274,33117,1,0,0:0:0:0:
216,229,33204,1,0,0:0:0:0:
145,213,33290,1,0,0:0:0:0:
54,227,33376,1,0,0:0:0:0:
45,222,33721,6,0,L|40:285,1,60
261,20,34238,5,0,0:0:0:0:
353,65,34410,2,0,L|474:63,1,120
245,179,34755,1,0,0:0:0:0:
299,313,34928,1,0,0:0:0:0:
337,224,35100,2,0,L|458:222,1,120
245,127,35445,1,0,0:0:0:0:
142,64,35617,1,0,0:0:0:0:
26,87,35790,1,0,0:0:0:0:
26,87,35962,1,0,0:0:0:0:
108,288,36135,6,0,B|90:311|90:311|187:308,1,120
324,261,36479,2,0,B|342:238|342:238|245:241,1,120
256,235,36997,5,0,0:0:0:0:
303,147,37169,1,0,0:0:0:0:
421,251,37341,2,0,L|416:130,1,120
219,149,37686,2,0,L|224:28,1,120
104,168,38031,2,0,P|158:146|226:151,1,120
346,212,38376,1,0,0:0:0:0:
346,212,38462,1,0,0:0:0:0:
346,212,38548,1,0,0:0:0:0:
312,93,38721,5,0,0:0:0:0:
242,250,38893,2,0,L|233:374,1,120
43,255,39238,1,0,0:0:0:0:
227,145,39410,1,0,0:0:0:0:
130,188,39583,1,0,0:0:0:0:
243,276,39755,2,0,P|185:295|165:371,1,120
345,224,40100,2,0,P|397:192|422:128,2,120
140,262,40617,5,0,0:0:0:0:
112,39,40790,1,0,0:0:0:0:
100,79,40876,1,0,0:0:0:0:
126,111,40962,2,0,P|190:109|248:91,1,120
215,200,41307,1,0,0:0:0:0:
343,329,41479,6,0,L|332:209,1,120
332,209,41738,1,0,0:0:0:0:
332,209,41824,1,0,0:0:0:0:
227,55,41997,2,0,P|155:86|116:154,1,120
285,232,42341,1,0,0:0:0:0:
94,200,42514,1,0,0:0:0:0:
289,221,42686,1,0,0:0:0:0:
461,355,42859,5,0,0:0:0:0:
446,238,43031,1,0,0:0:0:0:
431,121,43204,1,0,0:0:0:0:
416,4,43376,1,0,0:0:0:0:
461,355,43548,1,0,0:0:0:0:
347,291,43721,1,0,0:0:0:0:
215,296,43893,1,0,0:0:0:0:
194,317,43979,1,0,0:0:0:0:
182,345,44066,2,0,L|161:226,1,120
24,334,44410,5,0,0:0:0:0:
95,362,44583,1,0,0:0:0:0:
244,161,44755,1,0,0:0:0:0:
315,189,44928,2,0,L|195:217,1,120
191,224,45273,5,0,0:0:0:0:
177,22,45445,1,0,0:0:0:0:
357,110,45617,1,0,0:0:0:0:
357,110,45790,1,0,0:0:0:0:
210,64,45962,1,0,0:0:0:0:
69,122,46135,1,0,0:0:0:0:
69,122,46307,1,0,0:0:0:0:
170,337,46479,5,0,0:0:0:0:
236,284,46566,1,0,0:0:0:0:
307,288,46652,1,0,0:0:0:0:
354,324,46738,1,0,0:0:0:0:
375,366,46824,1,0,0:0:0:0:
276,342,46997,6,0,B|307:185|307:185|377:144,1,240
272,212,47514,1,0,0:0:0:0:
152,215,47686,1,0,0:0:0:0:
61,135,47859,1,0,0:0:0:0:
152,215,48031,1,0,0:0:0:0:
272,212,48203,1,0,0:0:0:0:
282,76,48376,6,0,P|332:41|399:48,1,120
395,138,48721,2,0,P|455:148|497:200,1,120
450,272,49066,1,0,0:0:0:0:
313,28,49238,1,0,0:0:0:0:
258,237,49410,1,0,0:0:0:0:
233,271,49497,1,0,0:0:0:0:
229,312,49583,2,0,L|185:253,1,60
228,121,49755,1,0,0:0:0:0:
376,105,49928,6,0,B|272:130|310:-22|186:-15|159:56|255:43,1,240
392,211,50445,2,0,P|450:184|513:184,1,120
302,267,50790,1,0,0:0:0:0:
223,144,50962,6,0,P|165:117|102:117,1,120
108,215,51307,1,0,0:0:0:0:
236,333,51479,1,0,0:0:0:0:
315,222,51652,1,0,0:0:0:0:
142,356,51824,1,0,0:0:0:0:
43,108,51997,6,0,L|52:229,1,120
269,52,52341,1,0,0:0:0:0:
18,99,52514,2,0,L|26:218,1,120
117,285,52859,1,0,0:0:0:0:
227,262,53031,1,0,0:0:0:0:
150,182,53204,1,0,0:0:0:0:
439,193,53376,6,0,P|417:145|359:156,1,120
128,55,53720,1,0,0:0:0:0:
122,49,53893,2,0,P|67:36|42:86,1,120
268,53,54238,1,0,0:0:0:0:
365,137,54410,1,0,0:0:0:0:
385,12,54583,1,0,0:0:0:0:
94,187,54755,5,0,0:0:0:0:
97,216,54841,1,0,0:0:0:0:
132,238,54928,1,0,0:0:0:0:
185,230,55014,1,0,0:0:0:0:
222,176,55100,1,0,0:0:0:0:
298,163,55186,1,0,0:0:0:0:
378,205,55273,2,0,P|397:228|405:260,1,60
441,150,55445,6,0,P|462:90|505:48,1,120
390,352,55790,1,0,0:0:0:0:
201,40,56135,5,0,0:0:0:0:
3,49,56307,2,0,B|49:46|49:46|81:27|81:27|122:29,1,120
104,128,56652,6,0,B|107:174|107:174|125:206|125:206|124:247,1,120
124,242,56910,1,0,0:0:0:0:
124,242,56997,1,0,0:0:0:0:
236,194,57169,1,0,0:0:0:0:
29,226,57341,1,0,0:0:0:0:
181,67,57514,2,0,P|220:31|299:29,1,120
354,90,57859,1,0,0:0:0:0:
333,173,58031,1,0,0:0:0:0:
278,384,58204,5,0,0:0:0:0:
273,379,58548,1,0,0:0:0:0:
512,115,58893,5,0,0:0:0:0:
470,22,59066,2,0,L|343:29,1,120
123,115,59410,6,0,L|242:121,1,120
326,171,59755,1,0,0:0:0:0:
168,82,59928,1,0,0:0:0:0:
177,346,60100,1,0,0:0:0:0:
113,165,60273,1,0,0:0:0:0:
154,252,60445,1,0,0:0:0:0:
41,100,60617,1,0,0:0:0:0:
93,319,60790,6,0,P|168:300|213:329,1,120
366,187,61307,1,0,0:0:0:0:
371,182,61652,5,0,0:0:0:0:
476,362,61824,2,0,L|458:233,1,120
462,24,62169,2,0,L|444:153,1,120
285,116,62514,1,0,0:0:0:0:
457,137,62686,1,0,0:0:0:0:
254,201,62859,2,0,P|201:223|131:196,1,120
119,316,63204,1,0,0:0:0:0:
201,303,63376,1,0,0:0:0:0:
279,332,63548,1,0,0:0:0:0:
269,116,63721,5,0,0:0:0:0:
274,111,64066,1,0,0:0:0:0:
201,303,64238,1,0,0:0:0:0:
48,110,64410,6,0,L|169:126,1,120
245,209,64755,1,0,0:0:0:0:
341,269,64928,2,0,L|460:254,1,120
255,199,65273,1,0,0:0:0:0:
156,120,65445,2,0,L|38:105,1,120
442,54,65790,5,0,0:0:0:0:
376,107,65877,1,0,0:0:0:0:
305,103,65963,1,0,0:0:0:0:
258,67,66049,1,0,0:0:0:0:
237,25,66135,1,0,0:0:0:0:
270,291,66307,1,0,0:0:0:0:
136,214,66479,2,0,P|77:180|25:192,1,120
285,269,66824,2,0,B|333:263|355:226|355:226|407:267|472:256|472:256|451:277,1,240
429,170,67341,5,0,0:0:0:0:
170,115,67514,1,0,0:0:0:0:
362,325,67686,1,0,0:0:0:0:
163,106,67859,1,0,0:0:0:0:
223,335,68031,1,0,0:0:0:0:
436,165,68204,1,0,0:0:0:0:
230,15,68376,1,0,0:0:0:0:
212,345,68548,6,0,L|333:347,1,120
482,331,68893,1,0,0:0:0:0:
109,340,69066,2,0,B|144:315|144:315|182:337|182:337|290:339,1,180.000006866455
208,255,69410,1,0,0:0:0:0:
348,44,69583,2,0,P|361:28|366:148,1,360.000013732911
243,84,70100,5,0,0:0:0:0:
354,342,70273,1,0,0:0:0:0:
411,87,70445,1,0,0:0:0:0:
135,175,70617,1,0,0:0:0:0:
364,352,70790,1,0,0:0:0:0:
102,59,70962,2,0,L|93:204,1,143.999995605469
190,72,71307,5,0,0:0:0:0:
367,339,71479,1,0,0:0:0:0:
438,288,71652,2,0,L|446:144,1,143.999995605469
86,45,71997,2,0,L|76:205,1,143.999995605469
456,297,72341,2,0,L|465:139,1,143.999995605469
263,276,72686,5,0,0:0:0:0:
230,87,72859,1,0,0:0:0:0:
263,280,73031,1,0,0:0:0:0:
228,81,73204,1,0,0:0:0:0:
180,341,73376,5,0,0:0:0:0:
375,270,73548,1,0,0:0:0:0:
74,242,73721,1,0,0:0:0:0:
384,261,73893,1,0,0:0:0:0:
326,26,74066,5,0,0:0:0:0:
250,372,74238,1,0,0:0:0:0:
454,231,74410,1,0,0:0:0:0:
62,177,74583,1,0,0:0:0:0:
191,24,74755,5,0,0:0:0:0:
180,38,74841,1,0,0:0:0:0:
172,61,74928,1,0,0:0:0:0:
171,90,75014,1,0,0:0:0:0:
179,124,75100,1,0,0:0:0:0:
204,157,75186,1,0,0:0:0:0:
247,178,75273,1,0,0:0:0:0:
251,124,75359,1,0,0:0:0:0:
274,69,75445,5,0,0:0:0:0:
335,45,75531,1,0,0:0:0:0:
399,76,75617,1,0,0:0:0:0:
425,15,75704,1,0,0:0:0:0:
445,64,75790,1,0,0:0:0:0:
453,104,75876,1,0,0:0:0:0:
440,132,75962,2,0,L|435:210,1,60
382,251,76135,6,0,B|343:275|343:275|342:197,1,120
348,108,76652,1,0,0:0:0:0:
111,189,76824,2,0,B|252:142|193:256|369:191,1,240
166,275,77341,1,0,0:0:0:0:
424,143,77514,5,0,0:0:0:0:
449,9,77686,1,0,0:0:0:0:
350,102,77859,1,0,0:0:0:0:
485,85,78031,1,0,0:0:0:0:
366,19,78204,1,0,0:0:0:0:
434,285,78376,5,0,0:0:0:0:
487,76,78548,1,0,0:0:0:0:
192,319,78721,2,0,B|267:319|267:319|246:319|246:319|270:319,1,120
141,56,79066,2,0,B|66:56|66:56|87:56|87:56|63:56,1,120
251,44,79410,5,0,0:0:0:0:
59,171,79583,1,0,0:0:0:0:
174,357,79755,1,0,0:0:0:0:
174,357,79841,1,0,0:0:0:0:
174,357,79928,1,0,0:0:0:0:
55,163,80100,1,0,0:0:0:0:
149,148,80273,1,0,0:0:0:0:
476,347,80445,5,0,0:0:0:0:
382,332,80618,1,0,0:0:0:0:
115,379,80790,1,0,0:0:0:0:
33,360,80962,1,0,0:0:0:0:
8,279,81135,5,0,0:0:0:0:
65,217,81307,1,0,0:0:0:0:
347,172,81479,2,0,B|347:247|347:247|347:226|347:226|347:250,1,120
25,114,81824,2,0,B|25:39|25:39|25:60|25:60|25:36,1,120
88,195,82169,5,0,0:0:0:0:
260,92,82341,2,0,P|286:72|320:69,1,60
380,129,82514,1,0,0:0:0:0:
392,149,82600,1,0,0:0:0:0:
491,179,82686,2,0,L|251:169,1,240
426,215,83204,5,0,0:0:0:0:
321,141,83376,1,0,0:0:0:0:
174,53,83548,1,0,0:0:0:0:
101,105,83720,1,0,0:0:0:0:
69,178,83893,1,0,0:0:0:0:
75,192,84066,1,0,0:0:0:0:
260,271,84238,6,0,L|138:256,1,120
5,114,84583,2,0,P|63:109|124:128,1,120
215,223,84928,1,0,0:0:0:0:
287,159,85100,1,0,0:0:0:0:
359,95,85273,1,0,0:0:0:0:
353,289,85445,1,0,0:0:0:0:
360,324,85531,1,0,0:0:0:0:
331,362,85617,6,0,P|298:312|229:301,1,120
255,308,85962,5,0,0:0:0:0:
157,341,86135,1,0,0:0:0:0:
368,185,86307,1,0,0:0:0:0:
466,218,86480,1,0,0:0:0:0:
476,214,86652,1,0,0:0:0:0:
215,130,86997,1,0,0:0:0:0:
220,125,87341,5,0,0:0:0:0:
166,59,87514,1,0,0:0:0:0:
85,37,87686,1,0,0:0:0:0:
4,61,87859,1,0,0:0:0:0:
50,333,88031,1,0,0:0:0:0:
50,333,88117,1,0,0:0:0:0:
50,333,88204,1,0,0:0:0:0:
116,174,88376,1,0,0:0:0:0:
428,159,88548,5,0,0:0:0:0:
273,110,88721,1,0,0:0:0:0:
98,116,88893,1,0,0:0:0:0:
438,157,89066,5,0,0:0:0:0:
260,152,89239,1,0,0:0:0:0:
89,112,89411,1,0,0:0:0:0:
327,99,89583,1,0,0:0:0:0:
247,49,89755,2,0,L|252:107,1,60
265,343,89928,5,0,0:0:0:0:
347,368,90100,2,0,L|341:309,1,60
253,214,90273,1,0,0:0:0:0:
361,373,90445,5,0,0:0:0:0:
377,113,90617,1,0,0:0:0:0:
70,277,90790,1,0,0:0:0:0:
96,302,90876,1,0,0:0:0:0:
119,297,90962,2,0,L|179:301,1,60
308,269,91135,1,0,0:0:0:0:
48,192,91307,2,0,L|108:196,1,60
117,12,91479,5,0,0:0:0:0:
340,183,91652,1,0,0:0:0:0:
343,203,91824,2,0,P|326:233|302:251,1,60
228,307,91997,5,0,0:0:0:0:
302,122,92169,2,0,P|319:92|343:74,2,45.0000017166138
401,182,92514,2,0,L|401:248,1,60
219,366,92686,5,0,0:0:0:0:
211,288,92859,1,0,0:0:0:0:
203,210,93031,1,0,0:0:0:0:
34,208,93203,5,0,0:0:0:0:
23,114,93376,1,0,0:0:0:0:
14,20,93548,1,0,0:0:0:0:
56,15,93635,1,0,0:0:0:0:
88,42,93721,2,0,B|148:36|148:36|204:73,1,120
169,145,94066,2,0,P|194:168|226:185,1,60
326,188,94238,5,0,0:0:0:0:
436,157,94410,1,0,0:0:0:0:
203,260,94583,2,0,P|217:229|239:200,1,60
330,159,94755,5,0,0:0:0:0:
444,144,94927,1,0,0:0:0:0:
329,356,95100,2,0,L|263:351,1,60
243,303,95273,2,0,L|177:292,1,60
387,230,95445,5,0,0:0:0:0:
249,18,95617,1,0,0:0:0:0:
76,214,95790,2,0,P|103:200|142:203,1,60
239,238,95962,5,0,0:0:0:0:
342,194,96135,1,0,0:0:0:0:
451,227,96307,2,0,P|480:227|507:241,1,60
472,90,96479,5,0,0:0:0:0:
458,339,96652,1,0,0:0:0:0:
383,152,96824,2,0,L|321:142,1,60
340,317,96997,5,0,0:0:0:0:
358,12,97170,1,0,0:0:0:0:
248,88,97342,2,0,L|171:75,1,60
52,351,97514,5,0,0:0:0:0:
67,232,97686,1,0,0:0:0:0:
82,113,97859,2,0,L|90:54,1,60
164,23,98031,1,0,0:0:0:0:
393,353,98204,5,0,0:0:0:0:
378,307,98290,1,0,0:0:0:0:
341,259,98376,1,0,0:0:0:0:
276,229,98462,1,0,0:0:0:0:
191,225,98548,1,0,0:0:0:0:
301,357,98721,1,0,0:0:0:0:
295,107,98893,1,0,0:0:0:0:
161,245,99066,1,0,0:0:0:0:
135,261,99152,1,0,0:0:0:0:
101,235,99238,2,0,L|115:295,2,60
15,348,99583,6,0,B|50:316|50:316|128:335,1,120
240,374,99928,1,0,0:0:0:0:
223,241,100100,2,0,P|280:247|343:216,2,120
112,181,100617,1,0,0:0:0:0:
404,161,100790,1,0,0:0:0:0:
415,82,100962,5,0,0:0:0:0:
500,179,101135,2,0,L|377:181,1,120
399,294,101480,1,0,0:0:0:0:
259,36,101652,1,0,0:0:0:0:
225,21,101738,1,0,0:0:0:0:
183,23,101824,1,0,0:0:0:0:
147,55,101910,1,0,0:0:0:0:
95,72,101997,2,0,L|36:71,1,60
65,155,102169,2,0,L|64:214,1,60
0,32,102341,6,0,L|121:51,1,120
118,50,102600,1,0,0:0:0:0:
118,50,102686,1,0,0:0:0:0:
241,109,102859,1,0,0:0:0:0:
422,42,103031,1,0,0:0:0:0:
403,294,103204,1,0,0:0:0:0:
320,14,103376,1,0,0:0:0:0:
211,347,103548,6,0,P|261:316|282:261,1,120
165,230,103893,2,0,P|114:199|93:144,1,120
107,305,104238,1,0,0:0:0:0:
38,93,104410,1,0,0:0:0:0:
55,76,104497,1,0,0:0:0:0:
92,56,104583,1,0,0:0:0:0:
151,47,104669,1,0,0:0:0:0:
224,72,104755,1,0,0:0:0:0:
375,240,104928,1,0,0:0:0:0:
103,138,105100,6,0,L|92:263,2,120
247,320,105617,1,0,0:0:0:0:
326,281,105790,1,0,0:0:0:0:
186,247,105962,1,0,0:0:0:0:
446,198,106135,1,0,0:0:0:0:
106,264,106307,6,0,L|116:144,1,120
200,125,106652,2,0,P|252:87|316:89,1,120
438,199,106997,1,0,0:0:0:0:
199,150,107169,2,0,P|229:138|259:147,1,60
335,203,107341,1,0,0:0:0:0:
335,203,107428,1,0,0:0:0:0:
335,203,107514,1,0,0:0:0:0:
124,195,107686,1,0,0:0:0:0:
115,373,107859,6,0,B|77:249|77:249|110:143,1,240
347,155,108376,1,0,0:0:0:0:
405,227,108548,1,0,0:0:0:0:
364,310,108721,2,0,P|298:326|249:308,1,120
352,150,109066,5,0,0:0:0:0:
357,145,109410,1,0,0:0:0:0:
285,63,109583,1,0,0:0:0:0:
178,45,109755,1,0,0:0:0:0:
42,241,109928,5,0,0:3:0:0:
82,214,110014,1,0,0:3:0:0:
129,216,110100,1,0,0:3:0:0:
168,242,110186,1,0,0:3:0:0:
229,288,110273,1,0,0:3:0:0:
264,240,110359,1,0,0:3:0:0:
317,213,110445,1,0,0:3:0:0:
376,220,110531,1,0,0:3:0:0:
453,278,110617,5,0,0:3:0:0:
458,273,110962,1,0,0:0:0:0:
390,105,111307,5,0,0:0:0:0:
336,18,111479,1,0,0:0:0:0:
266,92,111652,1,0,0:0:0:0:
213,5,111824,1,0,0:0:0:0:
208,10,112169,5,0,0:0:0:0:
302,240,112514,1,0,0:0:0:0:
297,245,112859,1,0,0:0:0:0:
240,300,113031,2,0,P|210:316|182:312,1,60
127,224,113376,5,0,0:0:0:0:
38,268,113548,1,0,0:0:0:0:
11,164,113721,2,0,L|17:101,1,60
21,99,114238,5,0,0:0:0:0:
140,49,114410,1,0,0:0:0:0:
238,125,114583,6,0,L|357:115,1,120
296,168,114928,2,0,P|261:228|213:260,1,120
358,357,115273,2,0,L|348:238,1,120
426,277,115617,2,0,P|461:337|509:369,1,120
233,120,115962,1,0,0:0:0:0:
376,5,116135,5,0,0:0:0:0:
420,80,116307,1,0,0:0:0:0:
464,155,116479,1,0,0:0:0:0:
474,165,116997,5,0,0:0:0:0:
354,266,117169,2,0,P|319:258|293:266,1,60
268,332,117341,2,0,L|146:311,1,120
360,352,117686,1,0,0:0:0:0:
20,174,117859,6,0,B|118:144|118:144|135:152,1,120
229,196,118204,2,0,B|244:188|244:188|342:218,1,120
342,218,118462,1,0,0:0:0:0:
342,218,118548,1,0,0:0:0:0:
114,124,118721,6,0,L|0:159,1,120
52,41,119066,1,0,0:0:0:0:
63,197,119238,2,0,P|83:260|130:280,1,120
288,274,119583,1,0,0:0:0:0:
362,287,119755,1,0,0:0:0:0:
437,301,119928,1,0,0:0:0:0:
512,315,120100,1,0,0:0:0:0:
0,229,120273,6,0,B|50:204|50:204|100:228|100:228|143:189|222:237,1,240
477,210,120790,2,0,B|420:164|361:169|361:169|309:203,1,180
482,205,121135,6,0,P|318:197|303:239,1,240
305,42,121652,5,0,0:0:0:0:
370,303,121824,1,0,0:0:0:0:
131,210,121997,1,0,0:0:0:0:
224,198,122169,1,0,0:0:0:0:
82,141,122341,1,0,0:0:0:0:
408,275,122514,1,0,0:0:0:0:
219,193,122686,1,0,0:0:0:0:
456,16,122859,6,0,P|430:81|380:97,1,120
454,160,123204,2,0,P|399:203|347:193,1,120
241,146,123548,1,0,0:0:0:0:
378,18,123721,1,0,0:0:0:0:
378,18,123807,1,0,0:0:0:0:
378,18,123893,1,0,0:0:0:0:
412,247,124066,1,0,0:0:0:0:
89,227,124238,6,0,B|116:213|150:138|196:185|235:242|292:209|240:145,1,240
166,278,124755,1,0,0:0:0:0:
175,66,124928,1,0,0:0:0:0:
55,149,125100,6,0,B|14:195|14:195|6:261,1,120
99,21,125445,1,0,0:0:0:0:
271,97,125617,1,0,0:0:0:0:
208,301,125790,1,0,0:0:0:0:
372,142,125962,2,0,P|428:120|492:125,1,120
203,306,126307,1,0,0:0:0:0:
261,84,126479,1,0,0:0:0:0:
398,339,126652,1,0,0:0:0:0:
411,315,126738,1,0,0:0:0:0:
454,303,126824,2,0,P|414:251|356:231,1,120
167,147,127169,6,0,P|213:109|271:101,1,120
450,140,127514,1,0,0:0:0:0:
33,45,127686,2,0,P|91:35|146:57,1,120
298,212,128031,1,0,0:0:0:0:
139,206,128204,1,0,0:0:0:0:
63,155,128376,1,0,0:0:0:0:
226,362,128548,6,0,L|214:240,1,120
181,119,128893,2,0,L|170:0,1,120
246,189,129238,1,0,0:0:0:0:
454,253,129410,1,0,0:0:0:0:
199,264,129583,1,0,0:0:0:0:
390,167,129755,6,0,B|419:206|419:206|401:290,1,120
441,69,130100,1,0,0:0:0:0:
344,38,130273,1,0,0:0:0:0:
103,91,130445,1,0,0:0:0:0:
349,30,130617,1,0,0:0:0:0:
351,138,130790,1,0,0:0:0:0:
313,238,130962,1,0,0:0:0:0:
230,308,131135,6,0,P|172:277|144:224,1,120
66,256,131479,2,0,P|46:193|64:135,1,120
154,132,131824,1,0,0:0:0:0:
369,98,131997,5,0,0:0:0:0:
326,360,132169,1,0,0:0:0:0:
326,360,132255,1,0,0:0:0:0:
326,360,132341,1,0,0:0:0:0:
198,312,132514,1,0,0:0:0:0:
375,88,132686,1,0,0:0:0:0:
380,83,133031,5,0,0:0:0:0:
16,109,133548,5,0,0:0:0:0:
41,198,133721,1,0,0:0:0:0:
113,258,133893,2,0,P|167:266|234:226,1,120
297,149,134238,1,0,0:0:0:0:
344,306,134410,2,0,P|396:278|454:285,1,120
426,180,134755,5,0,0:0:0:0:
186,39,134927,1,0,0:0:0:0:
361,108,135099,1,0,0:0:0:0:
90,47,135272,1,0,0:0:0:0:
279,60,135444,5,0,0:0:0:0:
284,56,135790,1,0,0:0:0:0:
270,333,136307,1,0,0:0:0:0:
277,340,136652,6,0,L|159:322,1,120
95,241,136997,1,0,0:0:0:0:
372,206,137169,1,0,0:0:0:0:
439,138,137341,1,0,0:0:0:0:
472,269,137514,2,0,P|413:240|349:251,1,120
246,314,137859,1,0,0:0:0:0:
239,321,138204,5,0,0:0:0:0:
24,54,138548,2,0,L|34:175,1,120
3,369,138893,5,0,0:0:0:0:
86,337,139066,1,0,0:0:0:0:
86,337,139238,1,0,0:0:0:0:
0,39,139410,6,0,L|30:156,1,120
423,159,139755,1,0,0:0:0:0:
301,97,139928,1,0,0:0:0:0:
166,111,140100,1,0,0:0:0:0:
377,214,140273,2,0,P|428:179|495:185,1,120
295,88,140617,1,0,0:0:0:0:
300,83,140962,5,0,0:0:0:0:
171,269,141307,1,0,0:0:0:0:
190,349,141479,1,0,0:0:0:0:
288,17,141652,5,0,0:0:0:0:
294,26,141824,2,0,B|356:32|356:32|409:70,1,120
512,184,142169,2,0,B|418:227|368:114|281:163,1,240
489,109,142686,1,0,0:0:0:0:
272,173,142859,1,0,0:0:0:0:
87,317,143031,6,0,L|68:198,1,120
68,198,143290,1,0,0:0:0:0:
68,198,143376,1,0,0:0:0:0:
170,335,143548,1,0,0:0:0:0:
86,82,143721,6,0,B|165:58|165:58|215:68,1,120
17,16,144066,2,0,B|33:104|154:5|200:121|148:175|129:108,1,240
114,225,144583,5,0,0:0:0:0:
363,246,144755,1,0,0:0:0:0:
204,59,144928,1,0,0:0:0:0:
182,361,145100,1,0,0:0:0:0:
199,51,145273,5,0,0:0:0:0:
377,238,145445,1,0,0:0:0:0:
177,367,145617,1,0,0:0:0:0:
386,230,145790,2,0,B|401:171|401:171|388:111,1,120
452,354,146135,1,0,0:0:0:0:
472,114,146307,2,0,B|451:22|451:22|464:-4,1,120
462,348,146652,1,0,0:0:0:0:
294,342,146824,6,0,B|206:292|148:400|53:340,1,240
129,313,147341,1,0,0:0:0:0:
315,159,147514,1,0,0:0:0:0:
75,173,147686,1,0,0:0:0:0:
278,305,147859,5,0,0:0:0:0:
190,79,148031,1,0,0:0:0:0:
371,5,148204,2,0,P|420:27|405:82,1,120
163,302,148548,1,0,0:0:0:0:
358,352,148720,1,0,0:0:0:0:
432,121,148893,2,0,P|460:73|418:37,1,120
44,261,149238,6,0,L|34:138,1,120
342,279,149583,2,0,L|352:156,1,120
208,41,149928,1,0,0:0:0:0:
192,249,150100,1,0,0:0:0:0:
216,37,150273,1,0,0:0:0:0:
180,252,150445,1,0,0:0:0:0:
352,69,150617,5,0,0:0:0:0:
427,50,150790,1,0,0:0:0:0:
110,263,150962,1,0,0:0:0:0:
14,239,151135,1,0,0:0:0:0:
223,362,151307,6,0,B|276:330|276:330|341:329,1,120
493,188,151566,1,0,0:0:0:0:
490,169,151652,2,0,B|440:199|440:199|378:199,1,120
345,184,151910,5,0,0:0:0:0:
331,172,151997,1,0,0:0:0:0:
318,158,152083,1,0,0:0:0:0:
309,142,152169,1,0,0:0:0:0:
304,124,152255,1,0,0:0:0:0:
378,105,152341,5,0,0:0:0:0:
353,70,152428,1,0,0:0:0:0:
313,54,152514,1,0,0:0:0:0:
272,62,152600,1,0,0:0:0:0:
212,23,152686,5,0,0:0:0:0:
222,75,152772,1,0,0:0:0:0:
201,127,152858,1,0,0:0:0:0:
156,159,152945,1,0,0:0:0:0:
213,205,153031,5,0,0:0:0:0:
249,212,153117,1,0,0:0:0:0:
277,238,153203,1,0,0:0:0:0:
287,276,153290,1,0,0:0:0:0:
357,240,153376,6,0,L|364:214,1,24
131,102,153894,1,0,0:0:0:0:
78,308,154066,5,0,0:0:0:0:
97,293,154152,1,0,0:0:0:0:
132,285,154238,1,0,0:0:0:0:
178,297,154324,1,0,0:0:0:0:
207,249,154410,5,0,0:0:0:0:
215,308,154497,1,0,0:0:0:0:
246,344,154583,1,0,0:0:0:0:
280,355,154669,1,0,0:0:0:0:
301,344,154755,5,0,0:0:0:0:
401,301,154928,1,0,0:0:0:0:
163,263,155100,1,0,0:0:0:0:
179,43,155273,1,0,0:0:0:0:
155,270,155445,1,0,0:0:0:0:
273,85,155617,2,0,P|317:66|393:68,1,120
53,33,155962,5,0,0:0:0:0:
73,357,156307,1,0,0:0:0:0:
73,357,156393,1,0,0:0:0:0:
73,357,156479,1,0,0:0:0:0:
188,282,156652,1,0,0:0:0:0:
312,319,156824,1,0,0:0:0:0:
274,142,156997,6,0,P|219:101|168:97,1,120
455,53,157341,2,0,P|400:94|349:98,1,120
138,77,157686,5,0,0:0:0:0:
321,41,157859,1,0,0:0:0:0:
127,75,158031,1,0,0:0:0:0:
392,198,158204,1,0,0:0:0:0:
392,198,158376,1,0,0:0:0:0:
356,275,158548,1,0,0:0:0:0:
59,282,158721,1,0,0:0:0:0:
54,287,159066,5,0,0:0:0:0:
192,20,159410,5,0,0:0:0:0:
268,147,159583,1,0,0:0:0:0:
385,228,159755,1,0,0:0:0:0:
406,219,159841,1,0,0:0:0:0:
490,232,159928,2,0,B|339:276|339:276|332:270|332:270|328:281|328:281|268:302,1,240
384,307,160445,5,0,0:0:0:0:
349,229,160617,1,0,0:0:0:0:
30,201,160790,1,0,0:0:0:0:
83,121,160962,1,0,0:0:0:0:
195,78,161135,1,0,0:0:0:0:
338,82,161307,1,0,0:0:0:0:
257,272,161479,6,0,P|191:345|147:334,1,120
147,211,161824,2,0,P|243:230|256:274,1,120
150,335,162169,2,0,P|118:241|150:208,1,120
264,279,162514,2,0,P|198:352|154:341,1,120
25,143,162859,1,0,0:0:0:0:
36,126,163031,5,0,0:0:0:0:
154,82,163204,1,0,0:0:0:0:
164,188,163376,1,0,0:0:0:0:
300,19,163548,1,0,0:0:0:0:
315,210,163721,1,0,0:0:0:0:
146,78,163893,1,0,0:0:0:0:
468,94,164066,1,0,0:0:0:0:
421,267,164238,6,0,B|364:238|364:238|314:281,1,120
136,328,164583,2,0,L|229:250,1,120
227,250,164841,1,0,0:0:0:0:
227,250,164928,1,0,0:0:0:0:
421,267,165100,1,0,0:0:0:0:
113,239,165273,1,0,0:0:0:0:
113,239,165359,1,0,0:0:0:0:
113,239,165445,1,0,0:0:0:0:
430,261,165617,1,0,0:0:0:0:
221,73,165790,5,0,0:0:0:0:
299,71,165962,1,0,0:0:0:0:
458,60,166135,1,0,0:0:0:0:
63,60,166307,5,0,0:0:0:0:
222,49,166480,1,0,0:0:0:0:
300,47,166652,1,0,0:0:0:0:
55,64,166825,5,0,0:0:0:0:
106,266,166997,2,0,L|109:333,1,60
409,315,167169,5,0,0:0:0:0:
449,249,167341,1,0,0:0:0:0:
352,381,167514,2,0,L|330:303,1,60
321,40,167686,5,0,0:0:0:0:
457,239,167859,1,0,0:0:0:0:
255,93,168031,1,0,0:0:0:0:
205,71,168117,1,0,0:0:0:0:
164,82,168204,2,0,P|141:108|132:131,1,60
100,343,168377,1,0,0:0:0:0:
159,69,168548,6,0,P|133:92|122:115,1,60
356,68,168721,1,0,0:0:0:0:
68,52,168894,1,0,0:0:0:0:
367,233,169066,6,0,P|393:256|404:279,1,60
267,12,169239,1,0,0:0:0:0:
151,251,169410,2,0,L|92:249,2,60
98,333,169755,2,0,L|39:331,1,60
350,363,169928,5,0,0:0:0:0:
152,144,170101,1,0,0:0:0:0:
475,75,170273,2,0,L|459:12,1,60
468,329,170446,5,0,0:0:0:0:
448,12,170618,1,0,0:0:0:0:
260,294,170790,1,0,0:0:0:0:
239,290,170876,1,0,0:0:0:0:
150,305,170962,2,0,B|174:290|174:290|261:318,1,120
79,135,171307,2,0,P|65:104|63:75,1,60
141,21,171480,5,0,0:0:0:0:
285,107,171652,1,0,0:0:0:0:
31,39,171824,2,0,P|34:68|47:95,1,60
95,338,171997,5,0,0:0:0:0:
126,251,172170,1,0,0:0:0:0:
26,367,172342,2,0,P|37:332|71:300,1,60
302,226,172514,2,0,P|284:201|276:172,1,60
497,43,172687,5,0,0:0:0:0:
469,134,172859,1,0,0:0:0:0:
487,281,173031,2,0,L|482:222,1,60
492,29,173204,5,0,0:0:0:0:
362,322,173377,1,0,0:0:0:0:
173,180,173548,2,0,L|232:172,1,60
14,125,173721,5,0,0:0:0:0:
81,181,173894,1,0,0:0:0:0:
81,7,174066,2,0,L|79:75,1,60
477,166,174238,5,0,0:0:0:0:
485,253,174411,1,0,0:0:0:0:
354,289,174583,2,0,L|403:242,1,60
56,326,174755,5,0,0:0:0:0:
72,249,174928,1,0,0:0:0:0:
295,227,175100,1,0,0:0:0:0:
279,150,175273,1,0,0:0:0:0:
330,373,175445,5,0,0:0:0:0:
342,339,175531,1,0,0:0:0:0:
371,301,175617,1,0,0:0:0:0:
421,266,175704,1,0,0:0:0:0:
492,256,175790,1,0,0:0:0:0:
427,44,175963,1,0,0:0:0:0:
486,245,176135,1,0,0:0:0:0:
328,84,176307,1,0,0:0:0:0:
292,57,176393,1,0,0:0:0:0:
274,58,176479,2,0,P|263:89|262:123,2,60
338,132,176824,6,0,B|303:125|303:125|219:140,1,120
113,178,177169,1,0,0:0:0:0:
79,333,177341,2,0,B|93:274|204:303|204:303|204:303,1,120
259,242,177686,1,0,0:0:0:0:
328,318,177859,1,0,0:0:0:0:
439,213,178031,5,0,0:0:0:0:
499,265,178204,1,0,0:0:0:0:
454,118,178376,2,0,B|422:169|521:227|521:227|521:227,1,120,0|0,2:0|2:0,2:0:0:0:
355,106,178721,1,0,0:0:0:0:
228,189,178893,5,0,0:0:0:0:
210,220,178979,1,0,0:0:0:0:
174,243,179066,1,0,0:0:0:0:
127,255,179152,1,0,0:0:0:0:
73,248,179238,2,0,B|58:213|58:213|35:193,1,60
153,76,179410,2,0,B|118:91|118:91|98:114,1,60
238,86,179583,6,0,B|241:23|357:73|357:73|357:73,1,120
335,64,179841,1,0,0:0:0:0:
335,64,179928,1,0,0:0:0:0:
16,99,180100,1,0,0:0:0:0:
63,328,180273,5,0,0:0:0:0:
155,273,180445,1,0,0:0:0:0:
262,281,180617,1,0,0:0:0:0:
14,73,180790,1,0,0:0:0:0:
61,340,180962,6,0,B|64:403|180:353|180:353|180:353,1,120
250,268,181307,1,0,0:0:0:0:
274,362,181479,1,0,0:0:0:0:
283,135,181652,5,0,0:0:0:0:
305,143,181738,1,0,0:0:0:0:
340,142,181824,1,0,0:0:0:0:
385,127,181910,1,0,0:0:0:0:
430,87,181997,1,0,0:0:0:0:
486,8,182169,1,0,0:0:0:0:
228,229,182341,6,0,B|159:262|212:108|212:108|212:108,2,120
330,204,182859,1,0,0:0:0:0:
30,136,183031,1,0,0:0:0:0:
336,184,183204,1,0,0:0:0:0:
358,89,183376,1,0,0:0:0:0:
176,271,183548,6,0,B|92:224|101:306|58:249|58:249|58:249,1,120
386,277,183893,2,0,B|470:230|461:312|504:255|504:255|504:255,1,120
472,189,184238,1,0,0:0:0:0:
295,43,184410,2,0,L|290:105,1,60
282,243,184583,1,0,0:0:0:0:
279,264,184669,1,0,0:0:0:0:
283,298,184755,1,0,0:0:0:0:
211,51,184927,1,0,0:0:0:0:
88,147,185100,6,0,B|128:119|128:119|263:180|260:93|329:132|329:132|329:132,1,240
149,220,185617,1,0,0:0:0:0:
212,56,185789,1,0,0:0:0:0:
271,360,185962,2,0,B|279:253|258:240|258:240|258:240,1,120
78,142,186307,1,0,0:0:0:0:
73,138,186651,5,0,0:0:0:0:
157,103,186824,1,0,0:0:0:0:
241,68,186997,1,0,0:0:0:0:
396,126,187169,5,0,0:0:0:0:
384,184,187255,1,0,0:0:0:0:
345,229,187341,1,0,0:0:0:0:
289,252,187428,1,0,0:0:0:0:
227,213,187514,5,0,0:0:0:0:
236,247,187600,1,0,0:0:0:0:
253,277,187686,1,0,0:0:0:0:
285,292,187773,1,0,0:0:0:0:
332,230,187859,6,0,B|313:218|234:257|212:254|212:254|212:254,1,120
428,277,188204,1,0,0:0:0:0:
196,178,188376,2,0,B|106:225|122:143|73:191|73:191|73:191,1,120
176,71,188721,1,0,0:0:0:0:
165,337,188893,1,0,0:0:0:0:
165,337,189066,1,0,0:0:0:0:
426,197,189238,1,0,0:0:0:0:
143,9,189411,2,0,B|122:96|149:129|149:129|149:129,1,120
187,231,189756,1,0,0:0:0:0:
45,75,189928,5,0,0:0:0:0:
61,67,190014,1,0,0:0:0:0:
90,71,190100,1,0,0:0:0:0:
124,47,190186,1,0,0:0:0:0:
177,36,190273,2,0,B|195:63|195:63|199:91,1,60
304,85,190445,2,0,B|297:116|297:116|280:139,1,60
372,178,190618,6,0,B|463:176|492:150|492:150|492:150,1,120
487,153,190876,1,0,0:0:0:0:
487,153,190962,1,0,0:0:0:0:
222,205,191135,1,0,0:0:0:0:
205,13,191307,1,0,0:0:0:0:
202,214,191479,1,0,0:0:0:0:
201,7,191651,1,0,0:0:0:0:
249,344,191824,1,0,0:0:0:0:
489,225,191997,6,0,B|489:226|489:226|404:208|409:242|376:244,1,120
32,212,192341,2,0,B|115:197|110:231|147:235,1,120
210,29,192686,5,0,0:0:0:0:
196,28,192773,1,0,0:0:0:0:
167,35,192859,1,0,0:0:0:0:
129,65,192945,1,0,0:0:0:0:
105,113,193031,1,0,0:0:0:0:
295,88,193204,1,0,0:0:0:0:
8,288,193376,6,0,B|91:295|65:264|131:270|131:270|131:270,2,120
230,231,193893,1,0,0:0:0:0:
414,258,194066,1,0,0:0:0:0:
221,226,194238,1,0,0:0:0:0:
379,178,194411,1,0,0:0:0:0:
170,112,194583,6,0,B|131:98|140:-6|140:-6|140:-6,1,120
107,188,194928,2,0,B|72:164|108:66|108:66|108:66,1,120
224,43,195273,1,0,0:0:0:0:
165,271,195445,2,0,B|149:295|149:295|143:326,1,60
249,219,195617,1,0,0:0:0:0:
280,175,195704,1,0,0:0:0:0:
301,168,195790,1,0,0:0:0:0:
135,339,195962,1,0,0:0:0:0:
40,52,196135,6,0,B|242:29|337:116|208:235|131:188|80:115|225:25,1,480
318,31,196652,1,0,0:0:0:0:
398,103,196824,1,0,0:0:0:0:
110,151,196997,2,0,B|131:201|62:177|74:275,1,120
79,267,197342,1,0,0:0:0:0:
408,335,197686,5,0,0:0:0:0:
375,231,197859,1,0,0:0:0:0:
402,126,198031,1,0,0:0:0:0:
240,70,198204,5,0,0:0:0:0:
221,100,198290,1,0,0:0:0:0:
202,130,198376,1,0,0:0:0:0:
183,160,198462,1,0,0:0:0:0:
110,175,198548,5,0,0:0:0:0:
111,223,198635,1,0,0:0:0:0:
155,241,198721,1,0,0:0:0:0:
190,272,198807,1,0,0:0:0:0:
268,100,198893,5,0,0:0:0:0:
