osu file format v14

[General]
AudioFilename: audio.mp3
AudioLeadIn: 0
PreviewTime: 153990
Countdown: 0
SampleSet: Soft
StackLeniency: 0.5
Mode: 0
LetterboxInBreaks: 0
WidescreenStoryboard: 1

[Editor]
Bookmarks: 284,11318,22352,33387,44421,55456,66490,69249,72008,74766,77525,99594,110628,121663,132697,143732,154766,176835,187870,198904,204421
DistanceSpacing: 1.6
BeatDivisor: 4
GridSize: 4
TimelineZoom: 1.4

[Metadata]
Title:Sleep-walking
TitleUnicode:Sleep-walking
Artist:Dreamcatcher
ArtistUnicode:드림캐쳐
Creator:Natsu
Version:Hard
Source:
Tags:지유 수아 시연 한동 유현 다미 가현 Ji-U Su-A SiYeon Handong YooHyun DaMi Gahyeon Happy Face Entertainment Prequel 1st mini album electronic kpop k-pop euny dnb dnb drum and bass edm
BeatmapID:1370970
BeatmapSetID:645655

[Difficulty]
HPDrainRate:5
CircleSize:4
OverallDifficulty:6
ApproachRate:7.8
SliderMultiplier:1.4
SliderTickRate:1

[Events]
//Background and Video events
0,0,"KakaoTalk_20170728_140229720.jpg",0,0
//Break Periods
//Storyboard Layer 0 (Background)
//Storyboard Layer 1 (Fail)
//Storyboard Layer 2 (Pass)
//Storyboard Layer 3 (Foreground)
//Storyboard Sound Samples

[TimingPoints]
273,344.827586206897,4,3,1,25,1,0
273,-125,4,3,1,25,0,0
445,-125,4,3,1,5,0,0
3204,-125,4,3,1,10,0,0
5962,-125,4,3,1,15,0,0
8721,-125,4,3,1,20,0,0
10790,-125,4,2,1,40,0,0
11307,-100,4,2,1,50,0,1
11393,-100,4,2,1,50,0,0
33376,-111.111111111111,4,2,1,45,0,0
55445,-142.857142857143,4,3,1,50,0,0
66479,-125,4,2,1,40,0,0
69238,-111.111111111111,4,2,1,45,0,0
71997,-100,4,2,1,50,0,0
73376,-100,4,2,1,55,0,0
74755,-99.9999999999999,4,2,1,60,0,0
76135,-100,4,2,1,40,0,0
77514,-100,4,2,2,60,0,1
88204,-142.857142857143,4,2,2,60,0,0
88548,-100,4,2,2,60,0,1
89238,-100,4,2,3,40,0,1
89410,-100,4,2,2,60,0,1
89928,-100,4,2,3,40,0,1
90100,-100,4,2,2,60,0,1
90445,-100,4,2,3,40,0,1
90617,-100,4,2,2,60,0,1
90962,-100,4,2,3,40,0,1
91135,-100,4,2,2,60,0,1
91479,-100,4,2,3,40,0,1
91652,-100,4,2,2,60,0,1
91997,-100,4,2,3,40,0,1
92169,-100,4,2,2,60,0,1
92686,-100,4,2,3,40,0,1
92859,-100,4,2,2,60,0,1
93204,-100,4,2,3,40,0,1
93376,-100,4,2,3,60,0,1
93548,-100,4,2,2,60,0,1
94238,-100,4,2,3,50,0,1
94410,-100,4,2,2,60,0,1
94755,-100,4,2,3,50,0,1
94928,-100,4,2,2,60,0,1
95445,-100,4,2,3,50,0,1
95617,-100,4,2,2,60,0,1
95962,-100,4,2,3,50,0,1
96135,-100,4,2,2,60,0,1
96997,-100,4,2,3,60,0,1
97169,-100,4,2,2,60,0,1
97514,-100,4,2,3,60,0,1
97686,-100,4,2,2,60,0,1
98031,-100,4,2,3,60,0,1
98204,-100,4,2,2,60,0,1
98721,-100,4,2,3,40,0,1
98893,-100,4,2,2,60,0,1
99238,-100,4,2,1,60,0,0
99583,-99.9999999999999,4,2,1,50,0,1
99669,-99.9999999999999,4,2,1,50,0,0
110617,-111.111111111111,4,2,1,45,0,0
120273,-142.857142857143,4,2,1,20,0,0
120445,-200,4,2,1,5,0,0
120790,-142.857142857143,4,2,1,20,0,0
121307,-66.6666666666667,4,2,1,100,0,0
121652,-111.111111111111,4,2,1,45,0,0
132686,-142.857142857143,4,3,1,50,0,0
143721,-125,4,2,1,40,0,0
146479,-111.111111111111,4,2,1,45,0,0
149238,-99.9999999999999,4,2,1,50,0,0
150617,-99.9999999999999,4,2,1,55,0,0
151997,-99.9999999999999,4,2,1,60,0,0
153376,-100,4,2,1,40,0,0
154066,-100,4,2,1,60,0,0
154755,-100,4,2,2,60,0,1
165445,-142.857142857143,4,2,2,60,0,0
165790,-100,4,2,2,60,0,1
166479,-100,4,2,3,40,0,1
166652,-100,4,2,2,60,0,1
167169,-100,4,2,3,40,0,1
167341,-100,4,2,2,60,0,1
167686,-100,4,2,3,40,0,1
167859,-100,4,2,2,60,0,1
168204,-100,4,2,3,40,0,1
168376,-100,4,2,2,60,0,1
168721,-100,4,2,3,40,0,1
168893,-100,4,2,2,60,0,1
169238,-100,4,2,3,40,0,1
169410,-100,4,2,2,60,0,1
169928,-100,4,2,3,40,0,1
170100,-100,4,2,2,60,0,1
170445,-100,4,2,3,40,0,1
170617,-100,4,2,3,60,0,1
170790,-100,4,2,2,60,0,1
171479,-100,4,2,3,50,0,1
171652,-100,4,2,2,60,0,1
171997,-100,4,2,3,50,0,1
172169,-100,4,2,2,60,0,1
172686,-100,4,2,3,50,0,1
172859,-100,4,2,2,60,0,1
173204,-100,4,2,3,50,0,1
173376,-100,4,2,2,60,0,1
174238,-100,4,2,3,60,0,1
174410,-100,4,2,2,60,0,1
174755,-100,4,2,3,60,0,1
174928,-100,4,2,2,60,0,1
175273,-100,4,2,3,60,0,1
175445,-100,4,2,2,60,0,1
175962,-100,4,2,3,50,0,1
176135,-100,4,2,2,60,0,1
176479,-100,4,2,1,60,0,0
176824,-100,4,2,1,50,0,1
176910,-100,4,2,1,50,0,0
198893,-142.857142857143,4,3,1,70,0,0
199583,-142.857142857143,4,3,1,5,0,0
199755,-142.857142857143,4,3,1,70,0,0
199928,-142.857142857143,4,3,1,5,0,0
200100,-142.857142857143,4,3,1,70,0,0
200445,-142.857142857143,4,3,1,5,0,0
201135,-142.857142857143,4,3,1,70,0,0
201479,-142.857142857143,4,3,1,5,0,0
201652,-142.857142857143,4,3,1,70,0,0
202341,-142.857142857143,4,3,1,5,0,0
202514,-142.857142857143,4,3,1,70,0,0
202686,-142.857142857143,4,3,1,5,0,0
202859,-142.857142857143,4,3,1,70,0,0
203204,-142.857142857143,4,3,1,5,0,0
203548,-142.857142857143,4,3,1,70,0,0
203893,-142.857142857143,4,3,1,5,0,0
204066,-142.857142857143,4,3,1,70,0,0
204410,-142.857142857143,4,3,1,5,0,0

[Colours]
Combo1 : 255,98,98
Combo2 : 170,0,0
Combo3 : 85,85,85
Combo4 : 255,0,0
SliderBorder : 170,0,0
SliderTrackOverride : 30,30,30

[HitObjects]
22,262,273,54,0,L|15:399,2,112,0|0|0,0:0|0:0|0:0,0:0:0:0:
27,189,1135,1,8,0:0:0:0:
181,248,1479,21,10,0:0:0:0:
181,248,1824,1,2,0:0:0:0:
181,248,2169,1,2,0:0:0:0:
181,248,2514,1,2,0:0:0:0:
181,248,2859,1,2,0:0:0:0:
62,163,3203,21,0,0:0:0:0:
62,163,3376,2,0,L|48:277,1,112,0|0,0:0|0:0,0:0:0:0:
38,346,3893,1,8,0:0:0:0:
181,297,4238,21,10,0:0:0:0:
181,297,4583,1,2,0:0:0:0:
181,297,4928,1,10,0:0:0:0:
181,297,5273,1,2,0:0:0:0:
181,297,5617,1,2,0:0:0:0:
320,338,5962,21,0,0:0:0:0:
320,338,6135,2,0,L|310:217,1,112,0|0,0:0|0:0,0:0:0:0:
304,153,6652,1,8,0:0:0:0:
462,204,6997,21,10,0:0:0:0:
462,204,7342,1,2,0:0:0:0:
462,204,7686,1,2,0:0:0:0:
462,204,8031,1,2,0:0:0:0:
462,204,8376,1,2,0:0:0:0:
347,114,8721,21,0,0:0:0:0:
347,114,8893,2,0,L|342:239,1,112,0|0,0:0|0:0,0:0:0:0:
339,299,9410,1,10,0:0:0:0:
213,239,9755,21,10,0:0:0:0:
213,239,10100,1,2,0:0:0:0:
213,239,10445,1,10,0:0:0:0:
411,244,10790,37,8,0:1:0:0:
360,126,10962,1,8,0:0:0:0:
360,126,11307,6,0,P|291:151|229:130,1,140,6|8,0:0|0:0,0:0:0:0:
145,97,11824,2,0,L|133:146,3,35,2|0|0|0,1:0|1:0|1:0|1:0,0:0:0:0:
97,155,12169,2,0,L|79:230,1,70,8|8,1:0|0:0,0:0:0:0:
55,340,12514,38,0,P|112:317|198:342,1,140,2|2,0:1|0:1,0:0:0:0:
270,369,13031,1,8,0:0:0:0:
249,280,13204,2,0,P|226:223|251:137,1,140,2|10,1:0|1:0,0:0:0:0:
300,78,13721,1,8,0:0:0:0:
381,118,13893,2,0,L|463:110,1,70,2|8,0:1|0:1,0:0:0:0:
300,78,14238,5,2,0:0:0:0:
242,148,14410,2,0,P|166:172|102:141,1,140,10|2,0:0|0:0,0:0:0:0:
30,109,14928,2,0,L|40:188,1,70,10|8,0:1|0:0,0:0:0:0:
65,295,15273,38,0,P|126:314|201:285,1,140,2|10,0:0|0:1,0:0:0:0:
256,221,15790,1,8,0:0:0:0:
316,152,15962,2,0,P|346:216|313:292,1,140,10|2,0:1|1:0,0:0:0:0:
289,307,16393,1,8,1:0:0:0:
289,307,16479,2,0,L|202:307,1,70,8|0,0:0|0:0,0:0:0:0:
117,242,16824,6,0,L|258:220,1,140,6|8,0:0|0:0,0:0:0:0:
316,152,17341,2,0,L|328:98,3,35,2|0|0|0,1:0|1:0|1:0|1:0,0:0:0:0:
338,74,17686,2,0,P|374:83|411:73,1,70,8|8,1:0|0:0,0:0:0:0:
499,150,18031,38,0,L|489:295,1,140,2|2,0:0|0:0,0:0:0:0:
479,380,18548,1,8,0:0:0:0:
407,323,18721,2,0,P|338:301|268:330,1,140,2|10,1:0|1:0,0:0:0:0:
198,369,19238,1,8,0:0:0:0:
199,278,19410,2,0,L|180:209,1,70,2|8,0:0|0:1,0:0:0:0:
141,97,19755,5,2,0:0:0:0:
141,97,19928,2,0,P|200:119|275:88,1,140,10|2,0:0|0:0,0:0:0:0:
348,48,20445,2,0,P|385:42|419:50,1,70,10|8,0:1|0:0,0:0:0:0:
485,148,20790,38,0,L|483:242,1,70,2|0,0:0|0:0,0:0:0:0:
394,198,21135,2,0,L|391:279,1,70,10|8,0:1|0:0,0:0:0:0:
304,295,21479,2,0,P|232:273|162:304,1,140,10|2,0:1|1:0,0:0:0:0:
131,311,21910,1,8,1:0:0:0:
131,311,21996,2,0,L|132:223,1,70,8|0,0:0|0:0,0:0:0:0:
32,176,22341,6,0,L|26:325,1,140,6|8,0:0|0:0,0:0:0:0:
94,377,22859,2,0,L|152:384,3,35,2|0|0|0,1:0|1:0|1:0|1:0,0:0:0:0:
159,347,23204,2,0,L|239:351,1,70,8|8,1:0|0:0,0:0:0:0:
348,350,23548,38,0,B|368:301|368:301|368:209,1,140,2|2,0:0|0:0,0:0:0:0:
360,122,24066,1,8,0:0:0:0:
288,179,24238,2,0,P|254:184|220:178,1,70,2|0,1:0|1:0,0:0:0:0:
142,130,24583,2,0,P|107:123|73:129,2,70,10|8|2,0:1|0:0|1:0,0:0:0:0:
107,244,25100,6,0,L|99:393,1,140,6|8,1:2|1:2,0:0:0:0:
187,359,25617,2,0,L|189:325,3,35,2|0|0|0,1:0|1:0|1:0|1:0,0:0:0:0:
230,303,25962,2,0,L|234:217,1,70,8|8,1:0|0:0,0:0:0:0:
235,113,26307,38,0,P|269:118|303:112,1,70,2|0,0:0|0:0,0:0:0:0:
387,77,26652,2,0,P|421:70|455:76,1,70,10|8,0:1|0:0,0:0:0:0:
425,162,26997,2,0,L|419:327,1,140,10|2,0:1|1:0,0:0:0:0:
384,330,27427,1,8,1:0:0:0:
384,330,27514,2,0,P|343:321|309:330,1,70,8|0,0:0|0:0,0:0:0:0:
203,369,27859,6,0,L|221:224,1,140,6|8,0:0|0:0,0:0:0:0:
155,165,28376,2,0,L|164:115,3,35,2|0|0|0,1:0|1:0|1:0|1:0,0:0:0:0:
176,87,28721,2,0,P|209:97|251:94,1,70,8|8,1:0|0:0,0:0:0:0:
361,68,29066,38,0,L|373:209,1,140,2|2,0:0|0:0,0:0:0:0:
384,298,29583,1,8,0:0:0:0:
300,261,29755,2,0,P|265:256|231:263,1,70,2|0,1:0|1:0,0:0:0:0:
156,316,30100,2,0,P|121:322|87:318,2,70,10|8|2,1:0|0:0|1:0,0:0:0:0:
190,202,30617,6,0,B|206:156|206:156|206:54,1,140,6|8,1:2|1:2,0:0:0:0:
294,39,31135,2,0,L|342:35,3,35,2|0|0|0,1:0|1:0|1:0|1:0,0:0:0:0:
361,67,31479,2,0,L|456:59,1,70,8|8,1:0|0:0,0:0:0:0:
512,150,31824,38,0,L|442:156,1,70,2|0,0:0|0:0,0:0:0:0:
380,223,32169,1,10,0:1:0:0:
309,166,32341,2,0,P|300:127|312:93,1,70,8|10,0:0|0:1,0:0:0:0:
208,18,32686,6,0,L|199:65,3,35,10|2|2|10,0:1|0:0|0:0|0:1,0:0:0:0:
156,43,33031,2,0,L|147:90,3,35,10|2|2|2,0:0|0:0|0:0|0:0,0:0:0:0:
142,118,33376,6,0,P|77:92|18:124,2,125.999996154785,6|8|2,0:2|0:0|0:0,0:0:0:0:
82,174,34238,1,8,0:1:0:0:
20,228,34410,1,8,0:0:0:0:
98,253,34583,38,0,P|129:259|162:252,1,62.9999980773926,2|8,0:0|0:1,0:0:0:0:
235,220,34928,2,0,P|265:214|296:220,1,62.9999980773926,2|8,0:0|0:0,0:0:0:0:
377,255,35273,1,2,0:0:0:0:
377,255,35445,2,0,L|381:125,1,125.999996154785,2|8,0:0|0:0,0:0:0:0:
261,15,36135,2,0,L|264:140,1,125.999996154785,10|10,0:1|0:0,0:0:0:0:
101,324,36997,5,10,0:1:0:0:
178,298,37169,1,8,0:0:0:0:
115,244,37341,2,0,P|96:180|118:120,1,125.999996154785,2|8,0:0|0:1,0:0:0:0:
178,74,37859,1,8,0:0:0:0:
243,122,38031,2,0,P|298:137|374:112,1,125.999996154785,10|2,0:1|1:0,0:0:0:0:
363,119,38462,1,8,1:0:0:0:
363,119,38548,1,10,1:2:0:0:
451,142,38721,38,0,L|463:231,1,62.9999980773926,2|8,0:0|0:1,0:0:0:0:
362,336,39238,2,0,L|341:202,1,125.999996154785,10|0,0:0|0:0,0:0:0:0:
266,180,39755,2,0,P|235:187|204:181,1,62.9999980773926,10|8,0:1|0:0,0:0:0:0:
137,134,40100,2,0,P|106:128|75:135,1,62.9999980773926,2|8,0:0|0:1,0:0:0:0:
28,292,40617,6,0,L|44:358,1,62.9999980773926,8|0,0:0|0:0,0:0:0:0:
122,333,40962,2,0,P|177:309|247:330,1,125.999996154785,2|8,0:0|0:0,0:0:0:0:
308,367,41479,2,0,L|327:236,1,125.999996154785,2|2,0:0|0:0,0:0:0:0:
337,160,41997,1,8,0:0:0:0:
101,231,42514,2,0,P|73:240|35:230,2,62.9999980773926,10|8|2,0:1|0:0|0:0,0:0:0:0:
159,172,43031,38,0,P|187:236|159:290,1,125.999996154785,2|8,0:0|0:0,0:0:0:0:
141,362,43548,2,0,L|215:355,1,62.9999980773926,10|0,0:1|0:0,0:0:0:0:
291,347,43893,1,2,1:0:0:0:
291,347,43979,1,8,1:0:0:0:
291,347,44066,1,8,0:0:0:0:
399,225,44410,6,0,P|405:194|397:163,1,62.9999980773926,10|2,0:1|0:0,0:0:0:0:
323,199,44755,2,0,P|259:218|196:200,1,125.999996154785,10|2,0:0|0:0,0:0:0:0:
157,134,45273,38,0,L|144:60,1,62.9999980773926,6|8,0:0|0:0,0:0:0:0:
225,89,45617,2,0,L|264:18,1,62.9999980773926,2|8,0:0|0:1,0:0:0:0:
307,97,45962,2,0,L|366:72,1,62.9999980773926,2|8,0:0|0:0,0:0:0:0:
362,154,46307,5,2,0:0:0:0:
420,210,46479,2,0,P|350:233|294:198,1,125.999996154785,2|8,0:0|0:0,0:0:0:0:
256,145,46997,1,2,0:0:0:0:
206,211,47169,2,0,P|148:233|92:210,1,125.999996154785,6|8,0:0|0:0,0:0:0:0:
23,164,47686,37,2,0:0:0:0:
28,246,47859,2,0,L|37:320,1,62.9999980773926,2|10,0:0|0:1,0:0:0:0:
101,357,48204,1,8,0:0:0:0:
166,310,48376,6,0,P|223:284|283:300,1,125.999996154785,2|10,0:0|0:1,0:0:0:0:
231,364,48893,1,8,0:0:0:0:
166,310,49066,2,0,L|142:183,1,125.999996154785,10|2,0:1|1:0,0:0:0:0:
133,145,49497,1,8,1:0:0:0:
133,145,49583,2,0,P|165:147|204:132,1,62.9999980773926,8|0,0:0|0:0,0:0:0:0:
272,114,49928,38,0,L|265:248,1,125.999996154785,6|10,0:0|0:0,0:0:0:0:
203,294,50445,2,0,P|257:324|315:302,1,125.999996154785,2|10,0:0|0:1,0:0:0:0:
379,251,50962,2,0,P|400:308|371:363,2,125.999996154785,8|10|8,0:0|0:1|0:0,0:0:0:0:
230,180,51997,6,0,B|165:157|164:206|108:184,1,125.999996154785,2|8,0:0|0:0,0:0:0:0:
38,227,52514,2,0,L|14:291,1,62.9999980773926,2|8,0:0|0:1,0:0:0:0:
97,282,52859,2,0,L|102:345,1,62.9999980773926,2|8,0:0|0:0,0:0:0:0:
175,308,53204,37,2,0:0:0:0:
235,253,53376,2,0,P|284:226|353:251,1,125.999996154785,2|8,0:0|0:0,0:0:0:0:
410,298,53893,2,0,P|361:325|292:300,1,125.999996154785,2|10,0:0|0:1,0:0:0:0:
235,253,54410,2,0,L|220:185,1,62.9999980773926,8|10,0:0|0:1,0:0:0:0:
169,127,54755,6,0,L|184:94,3,31.4999990386963,6|2|2|10,0:0|0:0|0:0|0:1,0:0:0:0:
223,102,55100,2,0,L|243:57,3,31.4999990386963,10|2|2|2,0:0|0:0|0:0|0:0,0:0:0:0:
255,42,55445,6,0,P|302:56|365:39,1,97.9999970092774,4|2,0:2|0:2,0:0:0:0:
488,218,56307,1,2,0:2:0:0:
488,218,56652,22,0,L|476:326,2,97.9999970092774,2|2|2,0:2|0:0|0:0,0:0:0:0:
414,224,57514,2,0,P|362:235|316:219,1,97.9999970092774,2|2,0:2|0:0,0:0:0:0:
251,196,58031,1,2,0:0:0:0:
251,196,58204,2,0,L|240:310,1,97.9999970092774,2|2,0:0|0:2,0:0:0:0:
28,351,59066,1,2,0:2:0:0:
28,351,59410,22,0,L|9:237,2,97.9999970092774,2|2|2,0:2|0:0|0:2,0:0:0:0:
100,332,60273,2,0,P|143:316|203:330,1,97.9999970092774,2|2,0:0|0:2,0:0:0:0:
265,353,60789,1,2,0:0:0:0:
265,353,60962,2,0,L|278:245,1,97.9999970092774,2|2,0:0|0:2,0:0:0:0:
296,109,61652,22,0,L|289:180,1,48.9999985046387,2|2,0:0|0:2,0:0:0:0:
150,203,62169,2,0,P|104:216|57:203,1,97.9999970092774,2|0,0:2|0:0,0:0:0:0:
5,65,62859,2,0,P|51:51|98:64,1,97.9999970092774,0|0,0:0|0:0,0:0:0:0:
150,203,63548,1,2,0:0:0:0:
206,250,63721,2,0,P|222:204|194:143,1,97.9999970092774,2|2,0:0|0:2,0:0:0:0:
98,64,64410,22,0,L|159:56,1,48.9999985046387,2|2,0:0|0:2,0:0:0:0:
289,93,64928,2,0,L|399:78,2,97.9999970092774,2|0|2,0:2|0:0|0:0,0:0:0:0:
216,79,65790,2,0,P|214:106|272:164,1,97.9999970092774,2|2,0:2|0:2,0:0:0:0:
412,216,66479,38,0,L|376:260,1,56,12|0,0:0|0:0,0:0:0:0:
320,316,66824,2,0,P|264:300|204:320,1,112,8|8,0:0|0:0,0:0:0:0:
152,360,67341,1,2,0:0:0:0:
148,280,67514,2,0,L|136:208,1,56,8|2,0:0|0:0,0:0:0:0:
64,164,67859,38,0,L|54:219,1,56,12|2,0:0|0:0,0:0:0:0:
40,296,68204,2,0,L|30:351,1,56,8|2,0:0|0:0,0:0:0:0:
108,352,68548,2,0,P|160:336|224:356,1,112,8|8,0:0|0:0,0:0:0:0:
288,379,69066,1,2,0:0:0:0:
351,304,69238,6,0,L|353:227,1,62.9999980773926,12|0,0:0|0:0,0:0:0:0:
294,181,69583,2,0,P|351:156|407:180,1,125.999996154785,8|8,0:0|0:0,0:0:0:0:
462,242,70100,1,2,0:0:0:0:
484,162,70273,2,0,L|490:93,1,62.9999980773926,8|2,0:0|0:0,0:0:0:0:
406,40,70618,37,12,0:0:0:0:
327,61,70790,1,2,0:0:0:0:
248,84,70962,1,8,0:0:0:0:
127,195,71307,5,8,0:0:0:0:
206,216,71479,1,2,0:0:0:0:
285,239,71651,1,8,0:0:0:0:
133,384,71997,38,0,L|120:303,1,70,12|8,0:0|0:1,0:0:0:0:
206,216,72341,2,0,L|217:285,1,70,8|8,0:0|0:1,0:0:0:0:
319,316,72686,2,0,L|306:235,1,70,8|8,0:0|0:1,0:0:0:0:
392,148,73031,2,0,L|403:217,1,70,8|8,0:0|0:1,0:0:0:0:
436,377,73376,38,0,L|421:297,1,70,12|8,0:0|0:1,0:0:0:0:
307,246,73720,2,0,L|319:321,1,70,8|8,0:0|0:1,0:0:0:0:
237,380,74065,2,0,L|225:301,1,70,8|8,0:0|0:1,0:0:0:0:
129,266,74410,2,0,L|139:336,1,70,8|8,0:0|0:1,0:0:0:0:
50,318,74755,5,8,0:0:0:0:
50,318,74841,1,8,0:0:0:0:
50,318,74928,1,8,0:1:0:0:
52,227,75100,2,0,L|36:179,2,35,8|8|8,0:0|0:0|0:1,0:0:0:0:
138,274,75445,37,8,0:0:0:0:
138,274,75531,1,8,0:0:0:0:
138,274,75618,1,8,1:0:0:0:
140,183,75790,2,0,L|124:135,2,35,8|8|2,0:0|0:0|0:1,0:0:0:0:
219,228,76135,5,2,0:0:0:0:
219,228,76997,37,8,0:1:0:0:
373,197,77169,1,8,0:0:0:0:
373,197,77514,6,0,L|364:343,1,140,4|8,0:3|0:0,0:0:0:0:
275,357,78031,1,2,0:0:0:0:
184,369,78204,1,2,0:0:0:0:
229,290,78376,2,0,L|234:212,1,70,10|8,0:1|0:0,0:0:0:0:
249,102,78721,38,0,L|320:97,1,70,4|8,0:1|0:1,0:0:0:0:
375,168,79066,2,0,L|305:172,1,70,4|8,0:1|0:0,0:0:0:0:
215,184,79410,2,0,L|145:188,1,70,4|8,0:1|0:1,0:0:0:0:
119,276,79755,2,0,L|188:271,1,70,12|8,0:1|0:0,0:0:0:0:
279,264,80100,2,0,L|348:259,1,70,4|8,0:1|0:1,0:0:0:0:
468,252,80445,5,2,0:0:0:0:
406,185,80617,2,0,P|397:151|403:116,1,70,10|2,0:0|0:0,0:0:0:0:
470,55,80962,1,2,0:0:0:0:
403,117,81134,2,0,P|369:125|334:119,1,70,10|8,0:1|0:0,0:0:0:0:
216,103,81479,38,0,L|207:183,1,70,4|0,0:1|0:0,0:0:0:0:
194,262,81824,2,0,L|136:207,1,70,12|8,0:1|0:0,0:0:0:0:
76,151,82169,2,0,L|67:231,1,70,12|8,0:1|0:1,0:0:0:0:
88,346,82514,5,8,0:1:0:0:
88,346,82600,1,8,0:1:0:0:
88,346,82686,2,0,P|31:379|27:312,1,140,12|8,0:0|0:1,0:0:0:0:
68,220,83204,37,2,0:0:0:0:
138,162,83376,2,0,L|230:166,1,70,10|2,0:0|0:0,0:0:0:0:
290,203,83721,1,2,0:0:0:0:
220,261,83893,2,0,L|128:257,1,70,10|8,0:1|0:0,0:0:0:0:
49,195,84238,6,0,L|30:120,1,70,4|8,0:1|0:1,0:0:0:0:
100,66,84583,2,0,L|117:133,1,70,4|8,0:1|0:0,0:0:0:0:
207,147,84928,2,0,L|188:72,1,70,4|8,0:1|0:1,0:0:0:0:
258,18,85273,2,0,L|275:85,1,70,4|8,0:1|0:0,0:0:0:0:
364,101,85617,2,0,L|345:26,1,70,4|8,0:1|0:1,0:0:0:0:
457,79,85962,37,2,0:0:0:0:
428,164,86135,2,0,P|420:198|427:232,1,70,10|2,0:0|0:0,0:0:0:0:
480,307,86479,1,2,0:0:0:0:
427,232,86652,2,0,P|393:224|359:231,1,70,10|8,0:1|0:0,0:0:0:0:
253,286,86997,6,0,L|247:205,1,70,4|8,0:1|0:1,0:0:0:0:
166,257,87341,2,0,L|128:195,1,70,4|8,0:1|0:1,0:0:0:0:
81,275,87686,2,0,L|10:263,1,70,12|8,0:1|0:1,0:0:0:0:
37,361,88031,1,8,0:1:0:0:
37,361,88117,1,8,0:1:0:0:
37,361,88204,1,8,0:0:0:0:
263,289,88548,37,4,0:3:0:0:
176,260,88721,1,2,0:0:0:0:
176,169,88893,1,8,0:0:0:0:
263,141,89066,1,2,0:0:0:0:
317,215,89238,2,0,L|398:213,2,70,2|10|8,0:0|0:1|0:0,0:0:0:0:
267,293,89755,5,4,0:1:0:0:
267,293,89928,2,0,L|288:375,2,70,10|4|8,0:1|0:1|0:0,0:0:0:0:
176,260,90445,2,0,L|103:303,2,70,2|8|12,0:0|0:1|0:1,0:0:0:0:
176,169,90962,2,0,L|93:115,2,70,10|4|8,0:0|0:1|0:1,0:0:0:0:
263,141,91479,38,0,L|287:53,2,70,2|10|2,0:0|0:0|0:0,0:0:0:0:
316,215,91997,2,0,L|299:299,2,70,2|10|8,0:0|0:1|0:0,0:0:0:0:
416,146,92514,5,4,0:1:0:0:
416,146,92686,2,0,P|449:153|501:140,2,70,2|12|8,0:0|0:1|0:0,0:0:0:0:
339,94,93204,2,0,P|301:88|257:99,1,70,2|8,0:0|0:1,0:0:0:0:
209,197,93548,37,8,0:1:0:0:
209,197,93634,1,8,0:1:0:0:
209,197,93721,2,0,P|165:216|162:135,1,140,12|8,0:0|0:1,0:0:0:0:
270,93,94238,6,0,L|357:75,2,70,2|8|2,0:0|0:0|0:0,0:0:0:0:
324,166,94755,2,0,L|409:151,2,70,2|10|8,0:0|0:1|0:0,0:0:0:0:
211,199,95273,37,12,0:1:0:0:
211,199,95445,2,0,P|222:234|211:275,2,70,2|4|8,0:0|0:1|0:0,0:0:0:0:
146,133,95962,2,0,P|134:97|146:57,1,70,2|8,0:0|0:1,0:0:0:0:
257,96,96307,5,8,0:1:0:0:
323,158,96479,1,8,0:0:0:0:
348,70,96651,1,8,0:1:0:0:
257,96,96824,1,8,0:1:0:0:
323,158,96997,38,0,L|316:248,2,70,2|10|4,0:0|0:0|0:1,0:0:0:0:
238,192,97514,2,0,L|230:275,2,70,2|12|8,0:0|0:1|0:0,0:0:0:0:
251,101,98031,1,2,0:0:0:0:
168,140,98204,1,8,1:0:0:0:
168,140,98290,1,8,1:0:0:0:
168,140,98376,2,0,L|118:147,2,35,8|8|8,0:1|0:1|0:1,0:0:0:0:
251,101,98721,6,0,L|341:87,1,70,10|8,1:0|1:0,0:0:0:0:
448,138,99152,2,0,L|405:146,1,35,8|8,0:1|0:0,0:0:0:0:
263,247,99583,38,0,P|288:316|267:378,1,140,6|8,0:0|0:0,0:0:0:0:
176,384,100100,2,0,L|127:372,3,35,2|0|0|0,1:0|1:0|1:0|1:0,0:0:0:0:
118,336,100445,2,0,L|43:318,1,70,8|8,1:0|0:0,0:0:0:0:
66,201,100790,6,0,P|89:144|64:58,1,140,2|2,0:0|0:0,0:0:0:0:
1,11,101307,1,8,0:0:0:0:
72,69,101480,2,0,P|129:92|215:67,1,140,2|10,1:0|0:1,0:0:0:0:
280,25,101997,1,8,0:0:0:0:
289,115,102169,2,0,L|280:199,1,70,2|6,1:0|1:2,0:0:0:0:
270,304,102514,37,2,1:0:0:0:
336,242,102686,2,0,P|412:218|476:249,1,140,8|0,1:2|1:0,0:0:0:0:
502,155,103204,2,0,L|493:85,1,70,8|8,1:0|0:0,0:0:0:0:
374,102,103549,6,0,P|313:121|238:92,1,140,2|10,0:0|0:1,0:0:0:0:
183,28,104066,1,8,0:0:0:0:
114,88,104238,2,0,P|84:152|117:228,1,140,10|2,0:1|1:0,0:0:0:0:
141,242,104669,1,8,1:0:0:0:
141,242,104755,2,0,L|228:242,1,70,8|0,0:0|0:0,0:0:0:0:
331,250,105100,38,0,P|308:182|335:120,1,140,6|8,0:0|0:0,0:0:0:0:
286,43,105617,2,0,L|232:31,3,35,2|0|0|0,1:0|1:0|1:0|1:0,0:0:0:0:
210,55,105962,2,0,L|126:42,1,70,8|8,1:0|0:0,0:0:0:0:
43,112,106307,6,0,P|64:179|30:250,1,140,2|2,0:0|0:0,0:0:0:0:
49,331,106824,1,8,0:0:0:0:
121,274,106997,2,0,P|190:252|260:281,1,140,2|10,1:0|0:1,0:0:0:0:
309,344,107514,1,8,0:0:0:0:
348,262,107686,2,0,L|359:182,1,70,2|6,1:0|1:2,0:0:0:0:
374,78,108031,37,2,1:0:0:0:
374,78,108204,2,0,P|315:100|240:69,1,140,8|0,1:2|1:0,0:0:0:0:
163,33,108721,2,0,P|126:27|92:35,1,70,8|8,1:0|0:0,0:0:0:0:
30,136,109066,6,0,L|58:214,1,70,2|0,0:0|0:0,0:0:0:0:
115,268,109411,2,0,L|136:197,1,70,10|8,0:1|0:0,0:0:0:0:
161,114,109755,1,10,0:1:0:0:
226,178,109928,38,0,L|268:185,3,35,10|2|2|10,0:1|0:0|0:0|0:1,0:0:0:0:
271,227,110272,2,0,L|317:235,3,35,10|2|2|2,0:0|0:0|0:0|0:0,0:0:0:0:
346,239,110617,6,0,P|320:304|352:363,2,125.999996154785,6|2|2,0:0|0:0|0:0,0:0:0:0:
402,299,111479,1,10,0:1:0:0:
482,285,111651,1,2,0:0:0:0:
431,227,111824,5,10,0:1:0:0:
431,227,112169,1,2,0:0:0:0:
431,227,112514,1,2,0:0:0:0:
275,175,112859,38,0,P|265:138|276:104,1,62.9999980773926,10|8,0:1|0:0,0:0:0:0:
130,29,113376,2,0,L|-5:29,1,125.999996154785,10|8,0:1|0:0,0:0:0:0:
8,275,114238,5,10,0:1:0:0:
34,352,114410,1,8,0:0:0:0:
89,292,114583,2,0,P|153:273|213:295,1,125.999996154785,2|8,0:0|0:1,0:0:0:0:
282,326,115100,1,8,0:0:0:0:
357,356,115272,2,0,P|412:372|488:347,1,125.999996154785,10|2,0:1|1:0,0:0:0:0:
476,355,115703,1,8,1:0:0:0:
476,355,115789,1,8,1:2:0:0:
491,274,115962,38,0,L|496:211,1,62.9999980773926,2|10,0:0|1:0,0:0:0:0:
500,47,116479,2,0,P|436:66|376:42,1,125.999996154785,8|0,0:0|0:0,0:0:0:0:
301,28,116996,2,0,P|270:21|239:27,1,62.9999980773926,10|8,0:1|0:0,0:0:0:0:
172,74,117341,2,0,P|141:80|110:73,1,62.9999980773926,2|8,0:0|0:1,0:0:0:0:
22,211,117858,6,0,L|38:277,1,62.9999980773926,8|0,0:0|0:0,0:0:0:0:
67,348,118203,2,0,P|122:324|192:345,1,125.999996154785,2|8,0:0|0:0,0:0:0:0:
256,377,118721,2,0,L|275:246,1,125.999996154785,2|2,0:0|0:0,0:0:0:0:
286,170,119238,1,8,0:0:0:0:
72,49,119755,2,0,P|44:40|6:50,2,62.9999980773926,10|8|0,0:1|0:0|0:0,0:0:0:0:
127,110,120272,6,0,L|132:190,1,62.9999980773926,2|0,0:0|0:0,0:0:0:0:
144,300,120790,1,2,0:0:0:0:
247,225,121134,1,2,0:0:0:0:
247,225,121307,38,0,B|255:229|255:229|259:221|259:221|263:229|263:229|267:221|267:221|271:229|271:229|275:221|275:221|279:229|279:229|283:221|283:221|287:229|287:229|291:221|291:221|295:229|295:229|299:221|299:221|303:229|303:229|307:221|307:221|311:229|311:229|315:221|315:221|319:229|319:229|323:221|323:221|327:229|327:229|331:221|331:221|335:229|335:229|339:221|339:221|343:229|343:229|347:221|347:221|351:229|351:229|355:221|355:221|359:229|359:229,1,210.000008010865,4|4,3:0|0:0,0:0:0:0:
508,230,121996,38,0,P|489:166|507:103,1,125.999996154785,8|2,0:0|0:0,0:0:0:0:
435,62,122514,2,0,L|364:55,1,62.9999980773926,10|8,0:1|0:0,0:0:0:0:
319,118,122858,2,0,L|232:111,1,62.9999980773926,2|8,0:0|0:1,0:0:0:0:
205,177,123203,2,0,L|126:173,1,62.9999980773926,2|8,0:0|0:0,0:0:0:0:
83,230,123548,5,2,0:0:0:0:
27,288,123721,2,0,P|4:218|39:162,1,125.999996154785,2|8,0:0|0:0,0:0:0:0:
83,115,124238,1,2,0:0:0:0:
142,173,124410,2,0,P|200:195|256:172,1,125.999996154785,4|8,0:0|0:0,0:0:0:0:
332,140,124927,37,2,0:0:0:0:
320,221,125100,2,0,L|309:289,1,62.9999980773926,2|10,0:0|0:1,0:0:0:0:
294,363,125445,1,8,0:0:0:0:
234,306,125617,6,0,P|177:280|117:296,1,125.999996154785,2|10,0:0|0:1,0:0:0:0:
56,349,126134,1,8,0:0:0:0:
40,268,126307,2,0,L|26:138,1,125.999996154785,10|2,0:1|1:0,0:0:0:0:
28,101,126738,1,8,1:0:0:0:
28,101,126824,2,0,P|60:103|99:88,1,62.9999980773926,8|0,0:0|0:0,0:0:0:0:
164,60,127169,38,0,L|179:196,1,125.999996154785,4|8,0:0|0:0,0:0:0:0:
193,265,127686,2,0,P|255:244|318:272,1,125.999996154785,2|10,0:0|0:1,0:0:0:0:
379,220,128203,2,0,P|394:279|358:333,2,125.999996154785,8|8|8,0:0|0:1|0:0,0:0:0:0:
241,129,129238,6,0,B|104:126,1,125.999996154785,4|8,0:0|0:0,0:0:0:0:
48,174,129755,2,0,P|38:202|48:238,1,62.9999980773926,2|8,0:0|0:1,0:0:0:0:
108,286,130100,2,0,P|113:315|105:349,1,62.9999980773926,2|8,0:0|0:0,0:0:0:0:
185,366,130445,37,2,0:0:0:0:
250,317,130617,2,0,P|303:297|368:315,1,125.999996154785,2|8,0:0|0:0,0:0:0:0:
447,335,131134,2,0,L|419:195,1,125.999996154785,2|10,0:0|0:1,0:0:0:0:
340,213,131651,2,0,L|325:145,1,62.9999980773926,8|10,0:0|0:1,0:0:0:0:
256,107,131996,6,0,L|238:153,3,31.4999990386963,6|2|2|10,0:0|0:0|0:0|0:1,0:0:0:0:
203,134,132341,2,0,L|185:173,3,31.4999990386963,10|2|2|2,0:0|0:0|0:0|0:0,0:0:0:0:
173,196,132686,6,0,P|124:185|70:201,1,97.9999970092774,4|2,0:2|0:2,0:0:0:0:
238,348,133548,1,2,0:2:0:0:
238,348,133893,22,0,P|281:358|336:344,2,97.9999970092774,2|2|2,0:2|0:0|0:0,0:0:0:0:
185,296,134755,2,0,L|179:187,1,97.9999970092774,2|2,0:2|0:0,0:0:0:0:
178,124,135272,1,2,0:0:0:0:
178,124,135445,2,0,P|225:132|289:114,1,97.9999970092774,2|2,0:2|0:2,0:0:0:0:
477,35,136307,1,2,0:2:0:0:
477,35,136651,22,0,L|496:149,2,97.9999970092774,2|2|2,2:0|0:0|0:2,0:0:0:0:
409,66,137514,2,0,L|423:172,1,97.9999970092774,2|2,0:0|0:2,0:0:0:0:
351,185,138030,1,2,0:0:0:0:
351,185,138203,2,0,L|337:77,1,97.9999970092774,2|2,0:2|0:2,0:0:0:0:
195,50,138893,22,0,P|165:55|126:45,1,48.9999985046387,2|2,0:0|0:2,0:0:0:0:
33,147,139410,2,0,P|49:186|34:253,1,97.9999970092774,2|0,0:2|0:0,0:0:0:0:
130,357,140100,2,0,P|176:343|223:356,1,97.9999970092774,0|0,0:0|0:0,0:0:0:0:
368,375,140789,1,2,0:0:0:0:
315,322,140962,2,0,P|299:276|327:215,1,97.9999970092774,10|2,0:0|0:2,0:0:0:0:
418,128,141651,22,0,L|369:134,1,48.9999985046387,2|2,0:0|0:2,0:0:0:0:
223,152,142169,2,0,B|147:190|147:123|64:160,1,146.999995513916,2|2,0:2|0:0,0:0:0:0:
132,291,143031,2,0,P|179:304|230:288,1,97.9999970092774,2|2,0:2|0:2,0:0:0:0:
364,218,143721,38,0,L|381:272,1,56,12|0,0:0|0:0,0:0:0:0:
449,309,144065,2,0,L|472:194,1,112,8|8,0:0|0:0,0:0:0:0:
489,122,144582,1,2,0:0:0:0:
414,147,144755,2,0,P|381:150|347:139,1,56,8|2,0:0|0:0,0:0:0:0:
274,116,145100,38,0,L|264:171,1,56,12|2,0:0|0:0,0:0:0:0:
324,221,145445,2,0,L|314:276,1,56,8|2,0:0|0:0,0:0:0:0:
267,338,145790,2,0,P|215:322|151:342,1,112,8|8,0:0|0:0,0:0:0:0:
89,371,146307,1,2,0:0:0:0:
49,278,146479,6,0,L|51:201,1,62.9999980773926,12|0,0:0|0:0,0:0:0:0:
79,131,146824,2,0,P|134:152|202:123,1,125.999996154785,8|8,0:0|0:0,0:0:0:0:
261,72,147341,1,2,0:0:0:0:
280,158,147514,2,0,L|274:220,1,62.9999980773926,8|2,0:0|0:0,0:0:0:0:
268,322,147859,37,12,0:0:0:0:
189,343,148031,1,2,0:0:0:0:
110,366,148203,1,8,0:0:0:0:
22,212,148548,5,8,0:0:0:0:
101,233,148720,1,2,0:0:0:0:
180,256,148892,1,8,0:0:0:0:
366,193,149238,38,0,L|380:116,1,70,12|0,0:0|0:0,0:0:0:0:
257,82,149583,2,0,L|180:68,1,70,8|8,0:0|0:1,0:0:0:0:
146,191,149928,2,0,L|132:268,1,70,8|8,0:0|0:1,0:0:0:0:
255,302,150273,2,0,L|332:316,1,70,8|8,0:0|0:1,0:0:0:0:
469,343,150617,38,0,P|459:310|473:267,1,70,12|8,0:0|0:1,0:0:0:0:
485,150,150962,2,0,L|409:157,1,70,8|8,0:0|0:1,0:0:0:0:
289,170,151307,2,0,P|298:202|285:246,1,70,8|8,0:0|0:1,0:0:0:0:
273,363,151652,2,0,L|349:356,1,70,8|8,0:0|0:1,0:0:0:0:
445,352,151996,5,8,0:0:0:0:
445,352,152082,1,8,0:0:0:0:
445,352,152169,1,8,0:1:0:0:
387,282,152341,2,0,L|376:231,2,35,8|8|8,0:0|0:0|0:1,0:0:0:0:
350,365,152686,37,8,0:0:0:0:
350,365,152772,1,8,0:0:0:0:
350,365,152859,1,8,0:1:0:0:
292,295,153031,2,0,L|281:244,2,35,8|8|2,0:0|0:0|0:0,0:0:0:0:
251,376,153376,5,2,0:0:0:0:
251,376,154066,38,0,L|204:369,3,35,2|0|8|0,1:0|1:0|1:0|1:0,0:0:0:0:
203,327,154410,2,0,L|158:318,3,35,8|0|0|0,1:2|1:0|1:0|1:0,0:0:0:0:
124,307,154755,6,0,P|148:236|125:176,1,140,4|8,0:3|0:0,0:0:0:0:
55,120,155272,1,2,0:0:0:0:
143,99,155445,1,2,0:0:0:0:
231,77,155617,2,0,L|224:157,1,70,10|8,0:1|0:0,0:0:0:0:
215,267,155962,38,0,P|250:274|285:262,1,70,4|8,0:1|0:1,0:0:0:0:
366,299,156307,2,0,P|373:264|361:229,1,70,4|8,0:1|0:0,0:0:0:0:
392,145,156652,2,0,P|357:138|322:150,1,70,4|8,0:1|0:1,0:0:0:0:
241,113,156997,2,0,P|234:148|246:183,1,70,12|8,0:1|0:0,0:0:0:0:
215,267,157341,2,0,P|250:274|285:262,1,70,4|8,0:1|0:1,0:0:0:0:
396,230,157686,5,2,0:0:0:0:
481,199,157858,2,0,L|487:128,1,70,10|2,0:0|0:0,0:0:0:0:
431,56,158204,1,2,0:0:0:0:
346,87,158376,2,0,L|340:158,1,70,10|8,0:1|0:0,0:0:0:0:
324,276,158720,38,0,P|289:267|248:279,1,70,4|0,0:1|0:0,0:0:0:0:
189,336,159065,2,0,P|153:345|111:331,1,70,12|8,0:1|0:0,0:0:0:0:
56,273,159410,2,0,L|39:194,1,70,4|0,0:1|0:0,0:0:0:0:
36,94,159755,5,8,0:1:0:0:
36,94,159841,1,8,0:1:0:0:
36,94,159928,2,0,P|93:61|97:128,1,140,12|8,0:0|0:1,0:0:0:0:
41,204,160445,37,2,0:0:0:0:
126,234,160617,2,0,P|158:241|210:227,1,70,10|2,0:0|0:0,0:0:0:0:
224,149,160962,1,2,0:0:0:0:
194,234,161134,2,0,P|186:266|201:318,1,70,2|8,0:0|0:0,0:0:0:0:
303,348,161479,6,0,L|378:335,1,70,4|8,0:1|0:1,0:0:0:0:
438,273,161824,2,0,L|359:263,1,70,4|8,0:1|0:0,0:0:0:0:
301,201,162169,2,0,L|378:190,1,70,4|0,0:1|0:0,0:0:0:0:
437,129,162514,2,0,L|357:116,1,70,12|8,0:1|0:0,0:0:0:0:
302,54,162858,2,0,L|378:42,1,70,4|8,0:1|0:1,0:0:0:0:
231,20,163203,37,2,0:0:0:0:
183,98,163376,2,0,P|175:132|182:166,1,70,10|2,0:0|0:0,0:0:0:0:
234,240,163720,1,2,0:0:0:0:
181,165,163893,2,0,P|147:157|113:164,1,70,10|8,0:1|0:0,0:0:0:0:
36,255,164238,6,0,L|44:338,1,70,4|8,0:1|0:0,0:0:0:0:
114,269,164582,2,0,L|149:342,1,70,12|8,0:1|0:1,0:0:0:0:
190,253,164927,2,0,L|258:272,1,70,12|8,0:1|0:1,0:0:0:0:
242,189,165272,1,8,0:1:0:0:
242,189,165358,1,8,0:1:0:0:
242,189,165445,1,8,0:0:0:0:
389,110,165789,37,4,0:3:0:0:
302,139,165962,1,2,0:0:0:0:
302,230,166134,1,8,0:0:0:0:
389,258,166307,1,2,0:0:0:0:
443,184,166479,2,0,L|476:121,2,70,2|10|8,0:0|0:1|0:0,0:0:0:0:
346,124,166996,5,4,0:1:0:0:
346,124,167169,2,0,L|380:55,2,70,10|4|8,0:1|0:1|0:0,0:0:0:0:
274,180,167686,2,0,L|185:188,2,70,2|8|12,0:0|0:1|0:1,0:0:0:0:
359,211,168203,2,0,L|413:276,2,70,10|4|8,0:0|0:1|0:1,0:0:0:0:
450,134,168721,38,0,L|506:203,2,70,2|10|2,0:0|0:0|0:0,0:0:0:0:
410,51,169238,2,0,P|444:42|486:53,2,70,2|10|8,0:0|0:1|0:0,0:0:0:0:
330,142,169755,5,4,0:1:0:0:
330,142,169928,2,0,L|342:227,2,70,2|12|8,0:0|0:1|0:0,0:0:0:0:
255,195,170445,2,0,L|262:272,1,70,2|8,0:0|0:1,0:0:0:0:
178,350,170789,37,8,0:1:0:0:
178,350,170875,1,8,0:1:0:0:
178,350,170962,2,0,P|134:369|131:288,1,140,12|8,0:0|0:1,0:0:0:0:
149,185,171479,6,0,L|138:100,2,70,2|10|2,0:0|0:0|0:0,0:0:0:0:
222,130,171996,2,0,L|212:52,2,70,2|10|8,0:0|0:1|0:0,0:0:0:0:
243,253,172514,37,4,0:1:0:0:
243,253,172686,2,0,P|276:259|316:247,2,70,10|4|8,0:1|0:1|0:0,0:0:0:0:
167,202,173203,2,0,P|132:196|89:210,1,70,2|8,0:0|0:1,0:0:0:0:
38,309,173548,5,8,0:1:0:0:
104,371,173720,1,8,0:0:0:0:
129,283,173892,1,8,0:1:0:0:
38,309,174065,1,8,0:1:0:0:
104,371,174238,38,0,L|191:372,2,70,2|8|4,0:0|0:0|0:1,0:0:0:0:
129,283,174755,2,0,L|222:253,2,70,2|12|8,0:0|0:1|0:0,0:0:0:0:
119,192,175272,1,2,0:0:0:0:
49,251,175445,1,8,0:1:0:0:
49,251,175531,1,8,0:1:0:0:
49,251,175617,2,0,L|0:264,2,35,8|8|8,0:1|0:1|0:1,0:0:0:0:
119,192,175962,6,0,P|124:160|113:119,1,70,10|8,0:1|0:1,0:0:0:0:
18,27,176393,2,0,L|52:20,1,35,8|8,0:1|0:0,0:0:0:0:
216,100,176824,38,0,P|285:125|347:104,1,140,6|8,0:0|0:0,0:0:0:0:
432,132,177341,2,0,L|420:181,3,35,2|0|0|0,1:0|1:0|1:0|1:0,0:0:0:0:
384,190,177686,2,0,L|366:265,1,70,8|8,1:0|0:0,0:0:0:0:
337,375,178031,6,0,P|280:352|194:377,1,140,2|2,0:0|0:0,0:0:0:0:
114,363,178548,1,8,0:0:0:0:
166,287,178721,2,0,L|178:147,1,140,2|10,1:0|0:1,0:0:0:0:
188,56,179238,1,8,0:0:0:0:
255,116,179410,2,0,P|289:123|337:108,1,70,2|6,0:0|0:0,0:0:0:0:
430,64,179755,37,2,1:0:0:0:
396,148,179928,2,0,L|411:299,1,140,8|0,1:0|1:0,0:0:0:0:
339,346,180445,2,0,P|303:340|265:351,1,70,8|8,1:0|0:0,0:0:0:0:
155,379,180790,6,0,P|174:318|145:243,1,140,2|10,0:0|0:1,0:0:0:0:
75,194,181307,1,8,0:0:0:0:
149,248,181479,2,0,P|216:267|286:223,1,140,10|2,1:0|1:0,0:0:0:0:
315,213,181910,1,8,1:0:0:0:
315,213,181996,2,0,L|315:300,1,70,8|0,0:0|0:0,0:0:0:0:
399,370,182341,38,0,L|396:214,1,140,6|8,0:0|0:0,0:0:0:0:
388,139,182858,2,0,L|374:87,3,35,2|0|0|0,1:0|1:0|1:0|1:0,0:0:0:0:
360,63,183203,2,0,P|324:72|287:62,1,70,8|8,1:0|0:0,0:0:0:0:
174,41,183548,6,0,L|164:186,1,140,2|2,0:0|0:0,0:0:0:0:
157,271,184065,1,8,0:0:0:0:
91,335,184238,2,0,P|154:364|230:328,1,140,2|10,1:0|0:1,0:0:0:0:
284,279,184755,1,8,0:0:0:0:
327,199,184927,2,0,P|332:159|322:125,1,70,2|6,0:0|0:0,0:0:0:0:
245,50,185272,37,2,1:0:0:0:
245,50,185445,2,0,P|186:72|111:41,1,140,8|0,1:2|1:0,0:0:0:0:
28,22,185962,2,0,L|39:103,1,70,8|8,1:0|0:0,0:0:0:0:
59,208,186307,6,0,P|92:201|127:206,1,70,2|0,0:0|0:0,0:0:0:0:
209,245,186652,2,0,P|243:250|277:242,1,70,10|8,0:1|0:0,0:0:0:0:
358,201,186997,1,10,0:1:0:0:
359,291,187169,38,0,L|344:322,3,35,10|2|2|10,0:1|0:0|0:0|0:1,0:0:0:0:
298,321,187514,2,0,L|283:352,3,35,10|2|2|2,0:0|0:0|0:0|0:0,0:0:0:0:
238,353,187859,6,0,P|164:335|97:361,1,140,6|8,0:0|0:0,0:0:0:0:
49,282,188376,2,0,L|56:224,3,35,2|0|0|0,1:0|1:0|1:0|1:0,0:0:0:0:
19,217,188721,2,0,L|23:137,1,70,8|8,1:0|0:0,0:0:0:0:
118,77,189065,38,0,B|167:97|167:97|259:97,1,140,2|2,0:0|0:0,0:0:0:0:
345,92,189583,1,8,0:0:0:0:
303,172,189755,2,0,P|298:206|304:240,1,70,2|0,1:0|1:0,0:0:0:0:
375,297,190100,2,0,P|382:332|376:366,2,70,10|8|2,0:1|0:0|1:0,0:0:0:0:
259,333,190617,6,0,L|110:325,1,140,6|8,1:2|1:2,0:0:0:0:
64,252,191134,2,0,L|98:240,3,35,2|0|0|0,1:0|1:0|1:0|1:0,0:0:0:0:
140,225,191479,2,0,P|131:187|144:144,1,70,8|8,1:0|0:0,0:0:0:0:
241,94,191824,38,0,P|275:99|309:93,1,70,2|0,0:0|0:0,0:0:0:0:
396,64,192169,2,0,P|430:57|464:63,1,70,10|8,0:1|0:0,0:0:0:0:
506,144,192514,2,0,L|500:309,1,140,10|2,0:1|1:0,0:0:0:0:
500,329,192944,1,8,1:0:0:0:
500,329,193031,2,0,P|459:320|425:329,1,70,8|0,0:0|0:0,0:0:0:0:
315,354,193376,6,0,P|238:371|169:347,1,140,6|8,0:0|0:0,0:0:0:0:
120,286,193893,2,0,L|114:231,3,35,2|0|0|0,1:0|1:0|1:0|1:0,0:0:0:0:
81,221,194238,2,0,L|71:132,1,70,8|8,1:0|0:0,0:0:0:0:
52,33,194583,38,0,P|116:54|193:31,1,140,2|2,0:0|0:0,0:0:0:0:
273,14,195100,1,8,0:0:0:0:
234,96,195272,2,0,P|229:131|236:165,1,70,2|0,1:0|1:0,0:0:0:0:
320,129,195617,2,0,P|355:123|389:127,2,70,10|8|2,0:1|0:0|1:0,0:0:0:0:
281,242,196134,6,0,B|126:242,1,140,6|8,1:2|1:2,0:0:0:0:
70,183,196652,2,0,L|54:126,3,35,2|0|0|0,1:0|1:0|1:0|1:0,0:0:0:0:
48,105,196996,2,0,L|30:20,1,70,8|8,1:0|0:0,0:0:0:0:
152,44,197341,38,0,P|186:50|222:42,1,70,2|0,0:0|0:0,0:0:0:0:
308,22,197686,1,10,0:1:0:0:
280,108,197858,2,0,P|271:141|280:174,1,70,8|10,0:0|0:1,0:0:0:0:
349,235,198203,6,0,L|396:244,3,35,10|2|2|10,0:1|0:0|0:0|0:1,0:0:0:0:
391,286,198548,2,0,L|438:295,3,35,10|2|2|2,0:0|0:0|0:0|0:0,0:0:0:0:
463,301,198893,21,2,0:2:0:0:
497,147,199238,2,0,P|510:104|489:50,1,97.9999970092774,2|0,0:2|0:0,0:0:0:0:
430,102,199755,2,0,L|377:101,1,48.9999985046387,2|0,0:2|0:0,0:0:0:0:
314,143,200100,2,0,L|207:141,1,97.9999970092774,2|0,0:2|0:0,0:0:0:0:
216,141,201135,22,0,P|227:190|209:245,1,97.9999970092774,2|0,0:2|0:0,0:0:0:0:
157,288,201652,1,2,0:2:0:0:
301,348,201997,22,0,P|343:336|398:352,1,97.9999970092774,2|0,0:2|0:0,0:0:0:0:
467,321,202514,2,0,L|473:257,1,48.9999985046387,2|0,0:2|0:0,0:0:0:0:
475,193,202859,2,0,P|433:205|378:189,1,97.9999970092774,2|0,0:2|0:0,0:0:0:0:
249,106,203548,22,0,L|217:204,1,97.9999970092774,2|0,0:2|0:0,0:0:0:0:
153,243,204066,2,0,L|133:133,1,97.9999970092774,2|0,0:2|0:0,0:0:0:0:
