osu file format v14

[General]
AudioFilename: audio.ogg
AudioLeadIn: 0
PreviewTime: 105056
Countdown: 0
SampleSet: Soft
StackLeniency: 0.7
Mode: 3
LetterboxInBreaks: 0
SpecialStyle: 0
WidescreenStoryboard: 0

[Editor]
DistanceSpacing: 0.2
BeatDivisor: 4
GridSize: 32
TimelineZoom: 2.199999

[Metadata]
Title:Odd Eye
TitleUnicode:Odd Eye
Artist:Dreamcatcher
ArtistUnicode:드림캐쳐
Creator:Gahyeonln
Version:Utopia
Source:
Tags:6th Mini Album dystopia: road to utopia deukae 유현 yoohyeon 가현 gahyeon 수아 sua 지우 jiu 다미 dami 한동 handong 시연 siyeon k-pop kpop pop rock leez Ollounder 올라운더 leez korean title song Rio1- Rio rio1111 leah -_[_L_e_a_h_]_- koeiprogenitor1 FAMoss
BeatmapID:3571606
BeatmapSetID:1644863

[Difficulty]
HPDrainRate:8
CircleSize:4
OverallDifficulty:8
ApproachRate:5
SliderMultiplier:1.4
SliderTickRate:1

[Events]
//Background and Video events
Video,-1430,"video.mp4"
0,0,"BG ODD EYE.jpg",0,0
//Break Periods
//Storyboard Layer 0 (Background)
//Storyboard Layer 1 (Fail)
//Storyboard Layer 2 (Pass)
//Storyboard Layer 3 (Foreground)
//Storyboard Layer 4 (Overlay)
//Storyboard Sound Samples

[TimingPoints]
1556,375,4,2,1,60,1,0
43556,-100,4,2,1,70,0,1
67556,-100,4,2,1,60,0,0
106556,-100,4,2,1,70,0,1
130556,-100,4,2,1,60,0,0
156056,-100,4,2,1,70,0,1
180056,-100,4,2,1,60,0,0

[HitObjects]
64,192,1556,128,2,1931:0:0:0:0:
320,192,1556,1,0,0:0:0:0:
448,192,1556,128,0,1743:0:0:0:0:
192,192,1743,1,0,0:0:0:0:
320,192,1931,1,0,0:0:0:0:
448,192,2118,1,0,0:0:0:0:
64,192,2306,1,0,0:0:0:0:
320,192,2306,1,0,0:0:0:0:
192,192,2681,1,0,0:0:0:0:
448,192,2681,1,0,0:0:0:0:
64,192,2868,1,0,0:0:0:0:
320,192,3056,128,0,3243:0:0:0:0:
448,192,3056,128,0,3431:0:0:0:0:
192,192,3243,1,0,0:0:0:0:
64,192,3431,1,0,0:0:0:0:
320,192,3431,1,0,0:0:0:0:
64,192,3806,1,0,0:0:0:0:
192,192,3806,1,0,0:0:0:0:
448,192,3806,1,0,0:0:0:0:
320,192,4087,1,0,0:0:0:0:
64,192,4181,1,0,0:0:0:0:
192,192,4181,1,0,0:0:0:0:
448,192,4181,1,0,0:0:0:0:
320,192,4368,1,0,0:0:0:0:
64,192,4556,128,0,4931:0:0:0:0:
192,192,4556,128,0,4743:0:0:0:0:
320,192,4743,1,0,0:0:0:0:
448,192,4931,1,0,0:0:0:0:
192,192,5118,1,0,0:0:0:0:
64,192,5306,1,0,0:0:0:0:
320,192,5306,1,0,0:0:0:0:
448,192,5306,1,0,0:0:0:0:
192,192,5493,1,0,0:0:0:0:
64,192,5681,1,0,0:0:0:70:LR_Tom Hit 2.wav
320,192,5681,1,0,0:0:0:0:
448,192,5681,1,0,0:0:0:0:
192,192,5868,1,2,0:0:0:0:
448,192,5868,1,0,0:0:0:0:
64,192,6056,1,0,0:0:0:0:
320,192,6056,1,0,0:0:0:0:
64,192,6243,1,0,0:0:0:70:LR_Tom Hit.wav
192,192,6243,1,0,0:0:0:0:
448,192,6243,1,0,0:0:0:0:
64,192,6431,1,2,0:0:0:0:
192,192,6431,1,0,0:0:0:0:
320,192,6431,1,0,0:0:0:0:
320,192,6712,128,8,6806:0:0:0:0:
448,192,6712,128,0,6806:0:0:0:0:
64,192,6806,128,8,6899:0:0:0:0:
192,192,6806,128,0,6899:0:0:0:0:
320,192,6899,128,8,6993:0:0:0:0:
448,192,6899,128,0,6993:0:0:0:0:
64,192,6993,128,8,7087:0:0:0:0:
192,192,6993,128,0,7087:0:0:0:0:
320,192,7087,128,0,7181:0:0:0:70:LR_Tom Hit.wav
448,192,7087,128,0,7181:0:0:0:0:
64,192,7181,128,2,7368:0:0:0:0:
192,192,7181,128,0,7368:0:0:0:0:
320,192,7368,128,8,7556:0:0:0:0:
448,192,7368,128,0,7556:0:0:0:0:
64,192,7556,128,0,9056:0:0:0:0:
192,192,7556,1,0,0:0:0:0:
320,192,8118,1,0,0:0:0:0:
192,192,8306,128,0,9056:0:0:0:100:LR_Clap hollow echo.wav
448,192,8306,1,0,0:0:0:0:
320,192,8493,1,0,0:0:0:0:
448,192,8681,1,0,0:0:0:0:
320,192,9056,1,0,0:0:0:0:
448,192,9056,128,0,10556:0:0:0:0:
192,192,9618,1,0,0:0:0:0:
64,192,9806,1,0,0:0:0:100:LR_Clap hollow echo.wav
320,192,9806,128,0,10556:0:0:0:0:
192,192,9993,1,0,0:0:0:0:
64,192,10181,1,0,0:0:0:0:
64,192,10556,128,0,13556:0:0:0:0:
192,192,10556,1,0,0:0:0:0:
192,192,11306,1,0,0:0:0:100:LR_Clap hollow echo.wav
448,192,11306,128,0,12056:0:0:0:0:
320,192,12056,1,0,0:0:0:0:
192,192,12243,128,0,12306:0:0:0:70:Snare 3 - B.wav
448,192,12243,128,0,12306:0:0:0:0:
192,192,12806,128,0,13556:0:0:0:100:LR_Clap hollow echo.wav
320,192,12806,1,0,0:0:0:0:
448,192,12806,1,0,0:0:0:0:
448,192,12993,1,0,0:0:0:0:
320,192,13181,1,0,0:0:0:0:
448,192,13368,1,0,0:0:0:0:
320,192,13556,128,0,14306:0:0:0:0:
448,192,13556,1,0,0:0:0:0:
64,192,14118,1,0,0:0:0:0:
192,192,14306,1,0,0:0:0:70:Snare 3 - B.wav
448,192,14306,1,0,0:0:0:0:
64,192,14431,1,0,0:0:0:70:Snare 3 - B.wav
320,192,14431,1,0,0:0:0:0:
192,192,14556,1,0,0:0:0:70:Snare 3 - B.wav
448,192,14556,1,0,0:0:0:0:
64,192,14681,1,0,0:0:0:70:Snare 3 - B.wav
320,192,14681,128,0,15056:0:0:0:0:
64,192,15056,1,0,0:0:0:0:
192,192,15056,128,0,15806:0:0:0:0:
448,192,15618,1,0,0:0:0:0:
64,192,15806,1,0,0:0:0:70:Snare 3 - B.wav
320,192,15806,1,0,0:0:0:0:
192,192,15931,1,0,0:0:0:70:Snare 3 - B.wav
448,192,15931,1,0,0:0:0:0:
64,192,16056,1,0,0:0:0:70:Snare 3 - B.wav
320,192,16056,1,0,0:0:0:0:
192,192,16181,1,0,0:0:0:70:Snare 3 - B.wav
448,192,16181,1,0,0:0:0:0:
320,192,16556,128,0,17306:0:0:0:0:
448,192,16556,128,0,16743:0:0:0:0:
192,192,16743,128,0,16931:0:0:0:0:
64,192,16931,128,0,17306:0:0:0:0:
192,192,17306,1,0,0:0:0:70:Snare 3 - B.wav
448,192,17306,1,0,0:0:0:0:
64,192,17431,1,0,0:0:0:70:Snare 3 - B.wav
320,192,17431,1,0,0:0:0:0:
192,192,17556,1,0,0:0:0:70:Snare 3 - B.wav
448,192,17556,1,0,0:0:0:0:
64,192,17681,1,0,0:0:0:70:Snare 3 - B.wav
320,192,17681,1,0,0:0:0:0:
192,192,17868,128,0,17931:0:0:0:70:Snare 3 - B.wav
448,192,17868,128,0,17931:0:0:0:0:
64,192,18056,128,0,18806:0:0:0:0:
320,192,18056,1,0,0:0:0:0:
192,192,18243,128,0,18306:0:0:0:70:Snare 3 - B.wav
448,192,18243,128,0,18306:0:0:0:0:
320,192,18806,1,2,0:0:0:0:
448,192,18806,1,0,0:0:0:0:
320,192,18931,1,2,0:0:0:0:
448,192,18931,1,0,0:0:0:0:
320,192,19056,1,2,0:0:0:0:
448,192,19056,1,0,0:0:0:0:
64,192,19181,1,2,0:0:0:0:
192,192,19181,1,0,0:0:0:0:
64,192,19306,1,2,0:0:0:0:
192,192,19306,1,0,0:0:0:0:
64,192,19431,1,2,0:0:0:0:
192,192,19431,1,0,0:0:0:0:
320,192,19556,1,2,0:0:0:0:
448,192,19556,128,0,19931:0:0:0:0:
64,192,19743,1,2,0:0:0:0:
192,192,19743,128,0,19931:0:0:0:0:
320,192,19931,128,0,20118:0:0:0:0:
64,192,20118,128,0,20306:0:0:0:0:
192,192,20306,1,0,0:0:0:70:snare21.wav
320,192,20306,1,0,0:0:0:0:
448,192,20306,128,0,20681:0:0:0:0:
192,192,20493,1,0,0:0:0:0:
320,192,20681,128,0,20868:0:0:0:0:
64,192,20868,128,0,21056:0:0:0:70:Snare 3 - B.wav
448,192,20868,1,0,0:0:0:0:
192,192,21056,128,2,21431:0:0:0:0:
320,192,21056,1,0,0:0:0:0:
64,192,21243,1,0,0:0:0:70:Snare 3 - B.wav
448,192,21243,1,0,0:0:0:0:
320,192,21431,128,0,21806:0:0:0:0:
448,192,21431,1,0,0:0:0:0:
192,192,21618,1,0,0:0:0:0:
64,192,21806,128,0,22181:0:0:0:70:snare21.wav
192,192,21806,1,0,0:0:0:0:
448,192,21806,1,0,0:0:0:0:
320,192,21993,1,0,0:0:0:0:
448,192,22181,128,0,22368:0:0:0:0:
320,192,22274,128,0,22462:0:0:0:0:
192,192,22368,128,0,22556:0:0:0:0:
64,192,22462,128,0,22649:0:0:0:0:
320,192,22556,1,2,0:0:0:0:
448,192,22556,128,0,22931:0:0:0:0:
192,192,22743,128,0,22931:0:0:0:0:
64,192,22931,128,0,23118:0:0:0:0:
320,192,22931,1,0,0:0:0:0:
192,192,23118,1,0,0:0:0:70:Snare 3 - B.wav
320,192,23118,128,0,23306:0:0:0:0:
64,192,23306,1,0,0:0:0:70:snare21.wav
192,192,23306,128,0,23681:0:0:0:0:
448,192,23306,1,0,0:0:0:0:
320,192,23493,1,0,0:0:0:0:
64,192,23681,1,0,0:0:0:70:Snare 3 - B.wav
448,192,23681,128,0,23868:0:0:0:0:
64,192,23868,128,2,24056:0:0:0:0:
320,192,23868,1,0,0:0:0:0:
192,192,24056,1,0,0:0:0:0:
448,192,24056,128,0,24431:0:0:0:0:
192,192,24243,1,0,0:0:0:70:Snare 3 - B.wav
320,192,24243,1,0,0:0:0:0:
64,192,24431,128,2,24806:0:0:0:0:
320,192,24431,1,0,0:0:0:0:
192,192,24618,1,0,0:0:0:70:Snare 3 - B.wav
448,192,24618,1,0,0:0:0:0:
192,192,24806,1,0,0:0:0:70:snare21.wav
320,192,24806,128,0,24993:0:0:0:0:
448,192,24806,1,0,0:0:0:0:
64,192,24993,128,0,25087:0:0:0:0:
448,192,25087,128,0,25181:0:0:0:0:
192,192,25181,128,0,25274:0:0:0:0:
320,192,25368,128,0,25462:0:0:0:0:
64,192,25462,128,0,25556:0:0:0:0:
320,192,25556,1,2,0:0:0:0:
448,192,25556,128,0,25931:0:0:0:0:
64,192,25743,1,2,0:0:0:0:
192,192,25743,128,0,25931:0:0:0:0:
320,192,25931,128,0,26118:0:0:0:0:
64,192,26118,128,0,26306:0:0:0:0:
192,192,26306,1,0,0:0:0:70:snare21.wav
320,192,26306,1,0,0:0:0:0:
448,192,26306,128,0,26681:0:0:0:0:
64,192,26493,1,0,0:0:0:0:
192,192,26681,128,0,26868:0:0:0:0:
320,192,26681,1,0,0:0:0:0:
64,192,26868,1,0,0:0:0:70:Snare 3 - B.wav
320,192,26868,128,0,27056:0:0:0:0:
64,192,27056,128,2,27431:0:0:0:0:
448,192,27056,1,0,0:0:0:0:
192,192,27243,1,0,0:0:0:70:Snare 3 - B.wav
320,192,27243,1,0,0:0:0:0:
320,192,27431,1,0,0:0:0:0:
448,192,27431,128,0,27806:0:0:0:0:
192,192,27618,1,0,0:0:0:0:
64,192,27806,1,0,0:0:0:70:snare21.wav
192,192,27806,128,0,28181:0:0:0:0:
320,192,27806,1,0,0:0:0:0:
448,192,27993,1,0,0:0:0:0:
320,192,28181,128,0,28556:0:0:0:0:
448,192,28181,1,0,0:0:0:0:
64,192,28368,1,2,0:0:0:0:
192,192,28368,1,0,0:0:0:0:
64,192,28556,128,2,28743:0:0:0:0:
448,192,28556,1,0,0:0:0:0:
192,192,28649,128,0,28837:0:0:0:0:
320,192,28743,128,0,28931:0:0:0:0:
448,192,28837,128,0,29024:0:0:0:0:
64,192,28931,128,0,29118:0:0:0:0:
192,192,29118,128,0,29306:0:0:0:70:Snare 3 - B.wav
64,192,29306,128,0,29681:0:0:0:70:snare21.wav
320,192,29306,128,0,29493:0:0:0:0:
448,192,29306,128,0,29493:0:0:0:0:
192,192,29493,128,0,29681:0:0:0:0:
320,192,29681,128,0,29868:0:0:0:0:
448,192,29681,128,0,30056:0:0:0:0:
64,192,29868,128,2,30056:0:0:0:0:
192,192,29868,1,0,0:0:0:0:
320,192,30056,128,0,30618:0:0:0:0:
192,192,30243,1,0,0:0:0:70:Snare 3 - B.wav
448,192,30243,128,0,30618:0:0:0:0:
64,192,30431,1,2,0:0:0:0:
192,192,30431,128,0,30806:0:0:0:0:
64,192,30618,128,0,30806:0:0:0:0:
320,192,30806,1,0,0:0:0:70:snare21.wav
448,192,30806,1,0,0:0:0:0:
64,192,30993,1,2,0:0:0:0:
192,192,30993,1,0,0:0:0:0:
320,192,31087,1,0,0:0:0:70:Snare 3 - B.wav
448,192,31087,1,0,0:0:0:0:
192,192,31181,1,0,0:0:0:0:
320,192,31368,1,0,0:0:0:70:Snare 3 - B.wav
448,192,31368,1,0,0:0:0:0:
192,192,31462,1,0,0:0:0:0:
64,192,31556,1,4,0:0:0:0:
320,192,31556,1,2,0:0:0:0:
448,192,31556,1,0,0:0:0:0:
192,192,31743,128,0,32118:0:0:0:0:
64,192,31931,128,2,32118:0:0:0:0:
320,192,31931,1,0,0:0:0:0:
448,192,31931,1,0,0:0:0:0:
320,192,32118,128,0,32493:0:0:0:0:
64,192,32306,1,2,0:0:0:0:
192,192,32306,128,0,32493:0:0:0:0:
448,192,32306,1,0,0:0:0:0:
448,192,32493,128,0,32868:0:0:0:0:
64,192,32681,1,2,0:0:0:0:
192,192,32681,1,0,0:0:0:0:
320,192,32681,128,0,32868:0:0:0:0:
192,192,32868,128,0,33337:0:0:0:0:
64,192,33056,128,2,33337:0:0:0:0:
320,192,33056,128,0,33337:0:0:0:0:
448,192,33056,128,0,33712:0:0:0:0:
64,192,33431,128,2,34087:0:0:0:0:
192,192,33431,128,0,33712:0:0:0:0:
320,192,33431,128,0,33712:0:0:0:0:
192,192,33806,128,2,34087:0:0:0:0:
320,192,33806,128,0,34087:0:0:0:0:
448,192,33806,128,0,34462:0:0:0:0:
64,192,34181,128,2,34556:0:0:0:0:
192,192,34181,128,0,34462:0:0:0:0:
320,192,34181,128,0,34462:0:0:0:0:
192,192,34556,1,2,0:0:0:0:
320,192,34556,1,0,0:0:0:0:
448,192,34556,1,0,0:0:0:0:
320,192,34743,128,0,35118:0:0:0:0:
64,192,34931,1,2,0:0:0:0:
192,192,34931,1,0,0:0:0:0:
448,192,34931,128,0,35118:0:0:0:0:
192,192,35118,128,0,35493:0:0:0:0:
64,192,35306,1,2,0:0:0:0:
320,192,35306,128,0,35493:0:0:0:0:
448,192,35306,1,0,0:0:0:0:
64,192,35493,128,0,35868:0:0:0:0:
192,192,35681,128,2,35868:0:0:0:0:
320,192,35681,1,0,0:0:0:0:
448,192,35681,1,0,0:0:0:0:
320,192,35868,128,0,36337:0:0:0:0:
64,192,36056,128,2,36712:0:0:0:0:
192,192,36056,128,0,36337:0:0:0:0:
448,192,36056,128,0,36337:0:0:0:0:
192,192,36431,128,2,36712:0:0:0:0:
320,192,36431,128,0,36712:0:0:0:0:
448,192,36431,128,0,37087:0:0:0:0:
64,192,36806,128,2,37462:0:0:0:0:
192,192,36806,128,0,37087:0:0:0:0:
320,192,36806,128,0,37087:0:0:0:0:
192,192,37181,128,2,37462:0:0:0:0:
320,192,37181,128,0,37462:0:0:0:0:
448,192,37181,128,0,37556:0:0:0:0:
64,192,37556,1,2,0:0:0:0:
192,192,37556,1,0,0:0:0:0:
320,192,37556,1,0,0:0:0:0:
64,192,37743,1,2,0:0:0:0:
192,192,37743,1,0,0:0:0:0:
320,192,37837,1,0,0:0:0:0:
64,192,37931,1,2,0:0:0:0:
192,192,37931,1,0,0:0:0:0:
448,192,37931,1,0,0:0:0:0:
320,192,38118,1,2,0:0:0:0:
448,192,38118,1,0,0:0:0:0:
64,192,38306,1,2,0:0:0:0:
192,192,38306,1,0,0:0:0:0:
320,192,38493,1,2,0:0:0:0:
448,192,38493,1,0,0:0:0:0:
192,192,38587,1,0,0:0:0:0:
64,192,38681,1,2,0:0:0:0:
320,192,38681,1,0,0:0:0:0:
448,192,38681,1,0,0:0:0:0:
64,192,38868,1,2,0:0:0:0:
192,192,38868,1,0,0:0:0:0:
320,192,39056,1,2,0:0:0:0:
448,192,39056,1,0,0:0:0:0:
64,192,39243,1,2,0:0:0:0:
192,192,39243,1,0,0:0:0:0:
320,192,39337,1,0,0:0:0:0:
64,192,39431,1,2,0:0:0:0:
192,192,39431,1,0,0:0:0:0:
448,192,39431,1,0,0:0:0:0:
320,192,39618,1,2,0:0:0:0:
448,192,39618,1,0,0:0:0:0:
64,192,39806,1,2,0:0:0:0:
192,192,39806,1,0,0:0:0:0:
320,192,39993,1,2,0:0:0:0:
448,192,39993,1,0,0:0:0:0:
192,192,40087,1,0,0:0:0:0:
64,192,40181,1,2,0:0:0:0:
320,192,40181,1,0,0:0:0:0:
448,192,40181,1,0,0:0:0:0:
64,192,40368,1,2,0:0:0:0:
192,192,40368,1,0,0:0:0:0:
320,192,40556,1,2,0:0:0:0:
448,192,40556,1,0,0:0:0:0:
192,192,40649,1,2,0:0:0:0:
64,192,40743,1,2,0:0:0:0:
448,192,40743,1,0,0:0:0:0:
320,192,40837,1,2,0:0:0:0:
64,192,40931,1,2,0:0:0:0:
192,192,40931,1,0,0:0:0:0:
320,192,41024,1,2,0:0:0:0:
64,192,41118,1,2,0:0:0:0:
448,192,41118,1,0,0:0:0:0:
192,192,41212,1,2,0:0:0:0:
320,192,41306,1,2,0:0:0:0:
448,192,41306,1,0,0:0:0:0:
64,192,41399,1,2,0:0:0:0:
192,192,41399,1,0,0:0:0:0:
320,192,41493,1,2,0:0:0:0:
448,192,41493,1,0,0:0:0:0:
64,192,41587,1,2,0:0:0:0:
192,192,41587,1,0,0:0:0:0:
320,192,41681,1,2,0:0:0:0:
448,192,41681,1,0,0:0:0:0:
64,192,41774,1,2,0:0:0:0:
192,192,41774,1,0,0:0:0:0:
320,192,41868,1,2,0:0:0:0:
448,192,41868,1,0,0:0:0:0:
192,192,41962,1,2,0:0:0:0:
64,192,42056,1,2,0:0:0:0:
320,192,42056,1,0,0:0:0:0:
448,192,42056,1,0,0:0:0:0:
192,192,42431,128,0,42524:0:0:0:0:
192,192,42618,128,0,42712:0:0:0:0:
64,192,42806,128,0,43087:0:0:0:70:LR_Tom Hit 2.wav
320,192,42806,128,0,42899:0:0:0:0:
448,192,42806,1,0,0:0:0:0:
320,192,42993,128,0,43087:0:0:0:0:
64,192,43181,1,0,0:0:0:70:LR_Tom Hit 3.wav
192,192,43181,128,0,43274:0:0:0:0:
448,192,43181,128,0,43462:0:0:0:0:
192,192,43368,128,0,43462:0:0:0:0:
64,192,43556,128,4,44118:0:0:0:0:
192,192,43556,1,2,0:0:0:0:
320,192,43556,128,0,43743:0:0:0:0:
448,192,43556,128,0,43743:0:0:0:0:
192,192,43931,128,2,44118:0:0:0:0:
320,192,43931,128,0,44306:0:0:0:0:
64,192,44306,1,8,0:0:0:0:
192,192,44306,1,0,0:0:0:0:
448,192,44306,128,0,44493:0:0:0:0:
64,192,44493,1,0,0:0:0:0:
320,192,44681,1,2,0:0:0:0:
448,192,44681,128,0,44868:0:0:0:0:
192,192,44774,1,0,0:0:0:0:
64,192,44868,128,0,45056:0:0:0:0:
448,192,45056,128,0,45243:0:0:0:0:
192,192,45243,128,2,45431:0:0:0:0:
320,192,45243,1,0,0:0:0:0:
64,192,45431,1,2,0:0:0:0:
448,192,45431,128,0,45618:0:0:0:0:
320,192,45618,128,0,45806:0:0:0:0:
64,192,45806,128,8,46181:0:0:0:0:
192,192,45806,1,0,0:0:0:0:
448,192,45806,1,0,0:0:0:0:
192,192,45993,128,0,46181:0:0:0:0:
448,192,46181,128,0,46368:0:0:0:0:
192,192,46368,1,2,0:0:0:0:
320,192,46368,128,0,46556:0:0:0:0:
64,192,46556,128,2,46743:0:0:0:0:
448,192,46556,1,0,0:0:0:0:
192,192,46743,1,0,0:0:0:0:
64,192,46931,128,2,47118:0:0:0:0:
448,192,46931,1,0,0:0:0:0:
192,192,47118,1,0,0:0:0:0:
320,192,47118,1,0,0:0:0:0:
64,192,47306,1,8,0:0:0:0:
192,192,47306,1,0,0:0:0:0:
320,192,47306,1,0,0:0:0:0:
448,192,47306,1,0,0:0:0:0:
448,192,47493,1,0,0:0:0:0:
64,192,47681,128,2,48056:0:0:0:0:
192,192,47681,128,0,47868:0:0:0:0:
320,192,47774,1,0,0:0:0:0:
448,192,47868,1,0,0:0:0:0:
192,192,48056,128,0,48431:0:0:0:0:
320,192,48056,128,0,48243:0:0:0:0:
64,192,48243,1,2,0:0:0:0:
448,192,48243,1,0,0:0:0:0:
320,192,48431,128,2,48618:0:0:0:0:
448,192,48431,128,0,48806:0:0:0:0:
192,192,48618,1,0,0:0:0:0:
64,192,48806,128,8,49181:0:0:0:0:
192,192,48806,128,0,48993:0:0:0:0:
320,192,48806,1,0,0:0:0:0:
320,192,48993,1,2,0:0:0:0:
448,192,48993,1,0,0:0:0:0:
192,192,49181,128,2,49368:0:0:0:0:
320,192,49181,128,0,49837:0:0:0:0:
448,192,49368,1,0,0:0:0:0:
64,192,49556,128,2,50212:0:0:0:0:
192,192,49556,128,4,49837:0:0:0:0:
448,192,49556,128,0,49837:0:0:0:0:
192,192,49931,128,2,50212:0:0:0:0:
320,192,49931,128,0,50212:0:0:0:0:
448,192,49931,128,0,50212:0:0:0:0:
64,192,50306,128,8,50493:0:0:0:0:
192,192,50306,128,0,50681:0:0:0:0:
320,192,50306,1,0,0:0:0:0:
448,192,50306,1,0,0:0:0:0:
320,192,50493,1,0,0:0:0:0:
64,192,50681,128,2,51056:0:0:0:0:
448,192,50681,1,0,0:0:0:0:
320,192,50774,1,0,0:0:0:0:
192,192,50868,128,0,51056:0:0:0:0:
448,192,50868,1,0,0:0:0:0:
448,192,51056,128,0,51431:0:0:0:0:
64,192,51243,128,2,51431:0:0:0:0:
320,192,51243,1,0,0:0:0:0:
192,192,51431,1,2,0:0:0:0:
320,192,51431,128,0,51618:0:0:0:0:
192,192,51618,128,0,51806:0:0:0:0:
64,192,51806,128,8,52368:0:0:0:0:
320,192,51806,1,0,0:0:0:0:
448,192,51806,128,0,51993:0:0:0:0:
192,192,51993,1,0,0:0:0:0:
320,192,52181,1,0,0:0:0:0:
320,192,52368,1,2,0:0:0:0:
448,192,52368,1,0,0:0:0:0:
192,192,52462,1,2,0:0:0:0:
64,192,52556,1,2,0:0:0:0:
448,192,52556,128,0,53118:0:0:0:0:
320,192,52743,1,0,0:0:0:0:
64,192,52931,1,2,0:0:0:0:
192,192,52931,1,0,0:0:0:0:
64,192,53118,128,2,53681:0:0:0:0:
320,192,53118,1,0,0:0:0:0:
192,192,53306,1,8,0:0:0:0:
320,192,53306,1,0,0:0:0:0:
448,192,53306,1,0,0:0:0:0:
192,192,53493,1,0,0:0:0:0:
320,192,53681,1,2,0:0:0:0:
448,192,53681,128,0,54056:0:0:0:0:
192,192,53774,1,0,0:0:0:0:
64,192,53868,1,0,0:0:0:0:
64,192,54056,128,0,54712:0:0:0:0:
192,192,54243,1,0,0:0:0:70:LR_Tom Hit 2.wav
448,192,54243,1,0,0:0:0:0:
320,192,54431,128,0,54524:0:0:0:70:LR_Tom Hit 3.wav
448,192,54431,1,0,0:0:0:0:
192,192,54618,1,2,0:0:0:0:
320,192,54618,128,0,54712:0:0:0:0:
64,192,54806,1,8,0:0:0:0:
192,192,54806,128,0,54899:0:0:0:0:
448,192,54806,128,0,55087:0:0:0:0:
192,192,54993,128,2,55087:0:0:0:0:
320,192,54993,1,0,0:0:0:0:
64,192,55181,128,2,55462:0:0:0:0:
320,192,55181,128,0,55274:0:0:0:0:
448,192,55181,1,0,0:0:0:0:
192,192,55368,1,2,0:0:0:0:
320,192,55368,128,0,55462:0:0:0:0:
64,192,55556,128,2,55743:0:0:0:0:
192,192,55556,128,4,55743:0:0:0:0:
320,192,55556,1,0,0:0:0:0:
448,192,55556,128,0,56118:0:0:0:0:
192,192,55931,128,2,56306:0:0:0:0:
320,192,55931,128,0,56118:0:0:0:0:
64,192,56306,128,8,56493:0:0:0:0:
320,192,56306,1,0,0:0:0:0:
448,192,56306,1,0,0:0:0:0:
448,192,56493,1,0,0:0:0:0:
64,192,56681,128,2,56868:0:0:0:0:
192,192,56681,1,0,0:0:0:0:
320,192,56774,1,0,0:0:0:0:
448,192,56868,128,0,57056:0:0:0:0:
64,192,57056,128,0,57243:0:0:0:0:
192,192,57243,1,2,0:0:0:0:
320,192,57243,128,0,57431:0:0:0:0:
64,192,57431,128,2,57618:0:0:0:0:
448,192,57431,1,0,0:0:0:0:
192,192,57618,128,0,57806:0:0:0:0:
64,192,57806,1,8,0:0:0:0:
320,192,57806,1,0,0:0:0:0:
448,192,57806,128,0,58181:0:0:0:0:
320,192,57993,128,0,58181:0:0:0:0:
64,192,58181,128,0,58368:0:0:0:0:
192,192,58368,128,2,58556:0:0:0:0:
448,192,58368,1,0,0:0:0:0:
320,192,58556,1,2,0:0:0:0:
448,192,58556,128,0,59212:0:0:0:0:
192,192,58743,1,0,0:0:0:0:
64,192,58931,1,2,0:0:0:0:
320,192,58931,128,0,59212:0:0:0:0:
192,192,59118,1,0,0:0:0:0:
64,192,59306,1,8,0:0:0:0:
192,192,59306,1,0,0:0:0:0:
320,192,59306,1,0,0:0:0:0:
448,192,59306,1,0,0:0:0:0:
64,192,59493,1,0,0:0:0:0:
320,192,59681,1,2,0:0:0:0:
448,192,59681,128,0,59868:0:0:0:0:
64,192,59774,1,0,0:0:0:0:
192,192,59868,128,0,60056:0:0:0:0:
320,192,60056,128,0,60431:0:0:0:0:
64,192,60243,1,2,0:0:0:0:
192,192,60243,1,0,0:0:0:0:
64,192,60431,128,2,60618:0:0:0:0:
448,192,60431,1,0,0:0:0:0:
192,192,60618,128,0,60993:0:0:0:0:
64,192,60806,1,8,0:0:0:0:
320,192,60806,1,0,0:0:0:0:
448,192,60806,1,0,0:0:0:0:
320,192,60993,1,2,0:0:0:0:
448,192,60993,128,0,61368:0:0:0:0:
64,192,61181,128,2,61837:0:0:0:0:
192,192,61181,1,0,0:0:0:0:
192,192,61368,1,2,0:0:0:0:
320,192,61368,1,0,0:0:0:0:
192,192,61556,128,2,61837:0:0:0:0:
320,192,61556,128,4,61837:0:0:0:0:
448,192,61556,128,0,62212:0:0:0:0:
64,192,61931,128,2,62212:0:0:0:0:
192,192,61931,128,0,62212:0:0:0:0:
320,192,61931,128,0,62212:0:0:0:0:
64,192,62306,1,8,0:0:0:0:
192,192,62306,1,0,0:0:0:0:
320,192,62306,128,0,62681:0:0:0:0:
448,192,62306,128,0,62681:0:0:0:0:
64,192,62493,1,0,0:0:0:0:
64,192,62681,128,2,63056:0:0:0:0:
192,192,62681,1,0,0:0:0:0:
320,192,62774,1,0,0:0:0:0:
192,192,62868,128,0,63056:0:0:0:0:
448,192,62868,1,0,0:0:0:0:
448,192,63056,128,0,63431:0:0:0:0:
64,192,63243,128,2,63431:0:0:0:0:
320,192,63243,1,0,0:0:0:0:
192,192,63431,1,2,0:0:0:0:
320,192,63431,128,0,63618:0:0:0:0:
192,192,63618,128,0,63806:0:0:0:0:
64,192,63806,128,8,64181:0:0:0:0:
320,192,63806,1,0,0:0:0:0:
448,192,63806,128,0,64462:0:0:0:0:
192,192,63993,1,0,0:0:0:0:
320,192,64181,128,0,64462:0:0:0:0:
64,192,64368,1,2,0:0:0:0:
192,192,64462,1,2,0:0:0:0:
64,192,64556,128,2,64931:0:0:0:0:
448,192,64556,128,0,64743:0:0:0:0:
320,192,64743,1,0,0:0:0:0:
192,192,64931,1,2,0:0:0:0:
320,192,64931,1,0,0:0:0:0:
192,192,65118,1,2,0:0:0:0:
448,192,65118,1,0,0:0:0:0:
64,192,65306,1,8,0:0:0:0:
192,192,65306,1,0,0:0:0:0:
320,192,65306,1,0,0:0:0:0:
448,192,65306,1,0,0:0:0:0:
320,192,65493,1,0,0:0:0:0:
64,192,65681,128,2,66243:0:0:0:0:
192,192,65681,1,0,0:0:0:0:
320,192,65774,1,0,0:0:0:0:
448,192,65868,1,0,0:0:0:0:
192,192,66056,128,0,66431:0:0:0:0:
320,192,66243,1,2,0:0:0:0:
448,192,66243,1,0,0:0:0:0:
64,192,66431,1,2,0:0:0:0:
448,192,66431,1,0,0:0:0:0:
192,192,66618,128,0,66806:0:0:0:0:
64,192,66806,1,8,0:0:0:0:
320,192,66806,1,0,0:0:0:0:
448,192,66806,1,0,0:0:0:0:
320,192,66993,128,2,67556:0:0:0:0:
448,192,66993,1,0,0:0:0:0:
64,192,67181,128,2,67556:0:0:0:0:
192,192,67181,1,0,0:0:0:0:
192,192,67556,1,0,0:0:0:70:LR_Tom Hit 2.wav
448,192,67556,1,0,0:0:0:0:
320,192,67649,1,0,0:0:0:0:
448,192,67743,1,0,0:0:0:0:
192,192,67931,1,0,0:0:0:0:
64,192,68118,1,0,0:0:0:70:LR_Tom Hit 2.wav
320,192,68118,1,0,0:0:0:0:
192,192,68306,128,0,68493:0:0:0:0:
448,192,68306,1,0,0:0:0:0:
320,192,68493,1,0,0:0:0:0:
64,192,68681,1,0,0:0:0:70:Snare 3 - B.wav
448,192,68681,1,0,0:0:0:0:
192,192,68868,1,0,0:0:0:0:
320,192,68962,1,0,0:0:0:0:
448,192,68962,1,0,0:0:0:0:
64,192,69056,1,0,0:0:0:100:LR_Clap hollow echo.wav
192,192,69149,1,0,0:0:0:0:
448,192,69243,1,0,0:0:0:0:
320,192,69337,1,0,0:0:0:0:
64,192,69431,1,0,0:0:0:70:Snare 3 - B.wav
192,192,69431,1,0,0:0:0:0:
448,192,69524,1,0,0:0:0:0:
320,192,69618,1,2,0:0:0:0:
192,192,69712,1,0,0:0:0:70:Snare 3 - B.wav
64,192,69806,128,0,69993:0:0:0:0:
320,192,69806,128,0,70181:0:0:0:0:
448,192,69806,128,0,69993:0:0:0:0:
192,192,70181,128,0,70368:0:0:0:0:
320,192,70556,1,2,0:0:0:0:
448,192,70556,1,0,0:0:0:0:
320,192,70743,1,2,0:0:0:0:
448,192,70743,1,0,0:0:0:0:
64,192,70931,1,0,0:0:0:0:
192,192,71056,1,0,0:0:0:0:
320,192,71181,1,0,0:0:0:0:
64,192,71306,1,0,0:0:0:70:snare21.wav
192,192,71306,1,0,0:0:0:0:
448,192,71306,1,0,0:0:0:0:
320,192,71493,1,0,0:0:0:0:
64,192,71681,1,0,0:0:0:0:
192,192,71868,1,0,0:0:0:70:Snare 3 - B.wav
448,192,71868,1,0,0:0:0:0:
64,192,72056,1,2,0:0:0:0:
192,192,72056,1,0,0:0:0:0:
320,192,72243,1,0,0:0:0:70:Snare 3 - B.wav
448,192,72243,1,0,0:0:0:0:
64,192,72337,1,0,0:0:0:0:
448,192,72431,1,0,0:0:0:0:
320,192,72556,1,0,0:0:0:0:
192,192,72681,1,0,0:0:0:0:
64,192,72806,1,0,0:0:0:70:snare21.wav
320,192,72806,1,0,0:0:0:0:
448,192,72806,1,0,0:0:0:0:
192,192,72993,1,0,0:0:0:0:
448,192,73181,128,0,73368:0:0:0:0:
320,192,73274,128,0,73462:0:0:0:0:
192,192,73368,128,0,73556:0:0:0:0:
64,192,73462,128,0,73649:0:0:0:0:
320,192,73556,1,2,0:0:0:0:
448,192,73556,1,0,0:0:0:0:
192,192,73743,1,0,0:0:0:0:
320,192,73931,1,0,0:0:0:0:
64,192,74024,1,0,0:0:0:0:
192,192,74118,1,0,0:0:0:70:Snare 3 - B.wav
448,192,74118,1,0,0:0:0:0:
320,192,74212,1,0,0:0:0:0:
64,192,74306,1,0,0:0:0:70:snare21.wav
192,192,74306,1,0,0:0:0:0:
448,192,74306,1,0,0:0:0:0:
320,192,74493,1,0,0:0:0:0:
64,192,74681,1,0,0:0:0:70:Snare 3 - B.wav
448,192,74681,1,0,0:0:0:0:
192,192,74868,1,2,0:0:0:0:
320,192,74868,1,0,0:0:0:0:
64,192,75056,1,0,0:0:0:0:
448,192,75056,1,0,0:0:0:0:
64,192,75243,1,0,0:0:0:70:Snare 3 - B.wav
320,192,75243,1,0,0:0:0:0:
192,192,75431,1,2,0:0:0:0:
448,192,75524,1,0,0:0:0:0:
64,192,75618,1,0,0:0:0:70:Snare 3 - B.wav
320,192,75618,1,0,0:0:0:0:
192,192,75712,1,0,0:0:0:0:
64,192,75806,1,0,0:0:0:70:snare21.wav
320,192,75806,1,0,0:0:0:0:
448,192,75806,1,0,0:0:0:0:
320,192,75993,128,0,76087:0:0:0:0:
448,192,75993,128,0,76087:0:0:0:0:
64,192,76087,128,0,76181:0:0:0:0:
192,192,76087,128,0,76181:0:0:0:0:
320,192,76181,128,0,76274:0:0:0:0:
448,192,76181,128,0,76274:0:0:0:0:
64,192,76368,128,0,76462:0:0:0:0:
192,192,76368,128,0,76462:0:0:0:0:
320,192,76462,128,0,76556:0:0:0:0:
448,192,76462,128,0,76556:0:0:0:0:
64,192,76556,1,2,0:0:0:0:
192,192,76556,1,0,0:0:0:0:
64,192,76743,1,2,0:0:0:0:
448,192,76743,1,0,0:0:0:0:
320,192,76931,1,0,0:0:0:0:
192,192,77024,1,0,0:0:0:0:
64,192,77118,1,0,0:0:0:0:
320,192,77212,1,0,0:0:0:0:
64,192,77306,1,0,0:0:0:70:snare21.wav
192,192,77306,1,0,0:0:0:0:
448,192,77306,128,0,77399:0:0:0:0:
320,192,77493,1,0,0:0:0:0:
192,192,77587,128,0,77681:0:0:0:0:
448,192,77681,1,0,0:0:0:0:
64,192,77868,128,0,77962:0:0:0:70:Snare 3 - B.wav
192,192,77868,1,0,0:0:0:0:
320,192,78056,128,2,78149:0:0:0:0:
448,192,78056,1,0,0:0:0:0:
64,192,78243,1,0,0:0:0:70:Snare 3 - B.wav
448,192,78243,1,0,0:0:0:0:
192,192,78337,128,0,78431:0:0:0:0:
320,192,78431,1,0,0:0:0:0:
320,192,78618,128,0,78712:0:0:0:0:
64,192,78806,128,0,78899:0:0:0:70:snare21.wav
192,192,78806,1,0,0:0:0:0:
448,192,78806,1,0,0:0:0:0:
320,192,78993,1,0,0:0:0:0:
192,192,79087,128,0,79181:0:0:0:0:
448,192,79181,1,0,0:0:0:0:
192,192,79368,1,2,0:0:0:0:
320,192,79368,128,0,79462:0:0:0:0:
64,192,79556,128,2,79649:0:0:0:0:
192,192,79556,1,0,0:0:0:0:
448,192,79743,1,0,0:0:0:0:
192,192,79837,128,0,79931:0:0:0:0:
320,192,79931,1,0,0:0:0:0:
64,192,80118,1,0,0:0:0:70:Snare 3 - B.wav
320,192,80118,128,0,80212:0:0:0:0:
64,192,80306,1,0,0:0:0:70:snare21.wav
192,192,80306,1,0,0:0:0:0:
448,192,80306,128,0,80399:0:0:0:0:
192,192,80493,1,0,0:0:0:0:
320,192,80587,128,0,80681:0:0:0:0:
64,192,80681,1,0,0:0:0:70:Snare 3 - B.wav
448,192,80681,1,0,0:0:0:0:
192,192,80868,128,2,80962:0:0:0:0:
320,192,80868,1,0,0:0:0:0:
320,192,81056,1,0,0:0:0:0:
448,192,81056,128,0,81149:0:0:0:0:
64,192,81243,1,0,0:0:0:70:Snare 3 - B.wav
192,192,81243,1,0,0:0:0:0:
320,192,81337,128,0,81431:0:0:0:0:
64,192,81431,1,2,0:0:0:0:
448,192,81431,1,0,0:0:0:0:
192,192,81618,128,0,81712:0:0:0:70:Snare 3 - B.wav
64,192,81806,1,0,0:0:0:70:snare21.wav
320,192,81806,128,0,81899:0:0:0:0:
448,192,81806,1,0,0:0:0:0:
192,192,81993,1,2,0:0:0:0:
448,192,81993,1,0,0:0:0:0:
64,192,82087,128,0,82181:0:0:0:70:Snare 3 - B.wav
320,192,82181,1,0,0:0:0:0:
64,192,82368,1,0,0:0:0:70:Snare 3 - B.wav
192,192,82368,1,0,0:0:0:0:
448,192,82368,128,0,82462:0:0:0:0:
320,192,82462,1,0,0:0:0:70:Snare 3 - B.wav
64,192,82556,1,2,0:0:0:0:
192,192,82556,1,0,0:0:0:0:
320,192,82743,1,2,0:0:0:0:
448,192,82743,1,0,0:0:0:0:
64,192,82931,1,0,0:0:0:0:
320,192,82931,1,0,0:0:0:0:
192,192,83118,128,0,83493:0:0:0:0:
448,192,83118,1,0,0:0:0:0:
64,192,83306,1,0,0:0:0:70:snare21.wav
320,192,83306,1,0,0:0:0:0:
448,192,83306,1,0,0:0:0:0:
64,192,83493,128,0,83868:0:0:0:0:
320,192,83493,1,0,0:0:0:0:
448,192,83681,1,0,0:0:0:0:
320,192,83868,1,0,0:0:0:70:Snare 3 - B.wav
192,192,83962,1,0,0:0:0:0:
64,192,84056,1,2,0:0:0:0:
320,192,84056,1,0,0:0:0:0:
448,192,84056,1,0,0:0:0:0:
64,192,84243,1,0,0:0:0:70:Snare 3 - B.wav
192,192,84243,1,0,0:0:0:0:
192,192,84431,1,0,0:0:0:0:
448,192,84431,1,0,0:0:0:0:
64,192,84618,1,0,0:0:0:0:
320,192,84618,128,0,84993:0:0:0:0:
64,192,84806,1,0,0:0:0:70:snare21.wav
192,192,84806,1,0,0:0:0:0:
448,192,84806,1,0,0:0:0:0:
192,192,84993,1,0,0:0:0:0:
448,192,84993,128,0,85556:0:0:0:0:
64,192,85181,128,0,85306:0:0:0:0:
192,192,85306,128,0,85431:0:0:0:0:
320,192,85431,128,0,85556:0:0:0:0:
64,192,85556,1,2,0:0:0:0:
192,192,85556,1,0,0:0:0:0:
192,192,85743,1,0,0:0:0:0:
64,192,85931,1,0,0:0:0:0:
320,192,85931,1,0,0:0:0:0:
192,192,86118,128,0,86493:0:0:0:70:Snare 3 - B.wav
448,192,86118,1,0,0:0:0:0:
64,192,86306,1,0,0:0:0:70:snare21.wav
320,192,86306,1,0,0:0:0:0:
448,192,86306,1,0,0:0:0:0:
64,192,86493,128,0,86868:0:0:0:0:
192,192,86681,1,0,0:0:0:70:Snare 3 - B.wav
448,192,86681,1,0,0:0:0:0:
192,192,86868,1,2,0:0:0:0:
320,192,86868,1,0,0:0:0:0:
448,192,86868,128,0,87243:0:0:0:0:
64,192,87056,1,0,0:0:0:0:
64,192,87243,1,0,0:0:0:70:Snare 3 - B.wav
320,192,87243,1,0,0:0:0:0:
192,192,87431,1,2,0:0:0:0:
320,192,87431,1,0,0:0:0:0:
448,192,87431,1,0,0:0:0:0:
64,192,87618,1,0,0:0:0:70:Snare 3 - B.wav
192,192,87618,1,0,0:0:0:0:
64,192,87806,1,0,0:0:0:70:snare21.wav
320,192,87806,1,0,0:0:0:0:
448,192,87806,1,0,0:0:0:0:
448,192,87993,128,0,88087:0:0:0:0:
192,192,88087,128,0,88181:0:0:0:0:
320,192,88181,128,0,88274:0:0:0:0:
64,192,88274,128,0,88368:0:0:0:0:
448,192,88368,128,0,88462:0:0:0:0:
192,192,88462,128,0,88556:0:0:0:0:
64,192,88556,1,2,0:0:0:0:
320,192,88556,1,0,0:0:0:0:
448,192,88556,1,0,0:0:0:0:
64,192,88743,1,2,0:0:0:0:
320,192,88743,1,0,0:0:0:0:
448,192,88743,1,0,0:0:0:0:
192,192,88931,1,0,0:0:0:0:
64,192,89118,1,0,0:0:0:0:
320,192,89118,128,0,89493:0:0:0:0:
64,192,89306,1,0,0:0:0:70:snare21.wav
192,192,89306,1,0,0:0:0:0:
448,192,89306,1,0,0:0:0:0:
192,192,89493,1,0,0:0:0:0:
448,192,89493,128,0,89868:0:0:0:0:
64,192,89681,1,0,0:0:0:0:
192,192,89868,1,0,0:0:0:70:Snare 3 - B.wav
320,192,89962,1,0,0:0:0:0:
64,192,90056,1,2,0:0:0:0:
192,192,90056,1,0,0:0:0:0:
448,192,90056,1,0,0:0:0:0:
192,192,90243,1,0,0:0:0:70:Snare 3 - B.wav
448,192,90243,1,0,0:0:0:0:
64,192,90431,1,0,0:0:0:0:
320,192,90431,1,0,0:0:0:0:
192,192,90618,128,0,90993:0:0:0:0:
448,192,90618,1,0,0:0:0:0:
64,192,90806,1,0,0:0:0:70:snare21.wav
320,192,90806,1,0,0:0:0:0:
448,192,90806,1,0,0:0:0:0:
64,192,90993,128,0,91556:0:0:0:0:
320,192,90993,1,0,0:0:0:0:
448,192,91181,128,0,91306:0:0:0:0:
320,192,91306,128,0,91431:0:0:0:0:
192,192,91431,128,0,91556:0:0:0:0:
320,192,91556,1,2,0:0:0:0:
448,192,91556,1,0,0:0:0:0:
64,192,91743,1,0,0:0:0:0:
192,192,91931,128,0,92118:0:0:0:0:
448,192,91931,1,0,0:0:0:0:
64,192,92118,1,0,0:0:0:70:Snare 3 - B.wav
320,192,92118,128,0,92306:0:0:0:0:
64,192,92306,128,0,92493:0:0:0:70:snare21.wav
192,192,92306,128,0,92493:0:0:0:0:
448,192,92306,128,0,92681:0:0:0:0:
320,192,92493,128,0,92681:0:0:0:0:
64,192,92681,128,0,93056:0:0:0:70:Snare 3 - B.wav
192,192,92681,128,0,92868:0:0:0:0:
320,192,92868,1,2,0:0:0:0:
448,192,92868,128,0,93056:0:0:0:0:
192,192,93056,128,0,93618:0:0:0:0:
64,192,93243,128,0,93618:0:0:0:70:Snare 3 - B.wav
320,192,93243,1,0,0:0:0:0:
320,192,93431,128,2,93806:0:0:0:0:
448,192,93431,1,0,0:0:0:0:
448,192,93618,128,0,93806:0:0:0:70:Snare 3 - B.wav
64,192,93806,1,0,0:0:0:70:snare21.wav
192,192,93806,128,0,93899:0:0:0:0:
320,192,93899,128,0,93993:0:0:0:0:
64,192,93993,128,2,94181:0:0:0:0:
448,192,93993,128,0,94087:0:0:0:0:
192,192,94087,128,0,94274:0:0:0:70:Snare 3 - B.wav
320,192,94181,128,0,94368:0:0:0:0:
448,192,94274,128,0,94462:0:0:0:0:
64,192,94368,128,0,94462:0:0:0:70:Snare 3 - B.wav
192,192,94462,128,0,94556:0:0:0:0:
64,192,94556,1,4,0:0:0:0:
320,192,94556,1,2,0:0:0:0:
448,192,94556,1,0,0:0:0:0:
192,192,94743,128,0,95118:0:0:0:0:
64,192,94931,128,2,95118:0:0:0:0:
320,192,94931,1,0,0:0:0:0:
448,192,94931,1,0,0:0:0:0:
320,192,95118,128,0,95493:0:0:0:0:
64,192,95306,1,2,0:0:0:0:
192,192,95306,128,0,95493:0:0:0:0:
448,192,95306,1,0,0:0:0:0:
448,192,95493,128,0,95868:0:0:0:0:
64,192,95681,1,2,0:0:0:0:
192,192,95681,1,0,0:0:0:0:
320,192,95681,128,0,95868:0:0:0:0:
192,192,95868,128,0,96337:0:0:0:0:
64,192,96056,128,2,96712:0:0:0:0:
320,192,96056,128,0,96337:0:0:0:0:
448,192,96056,128,0,96337:0:0:0:0:
192,192,96431,128,2,96712:0:0:0:0:
320,192,96431,128,0,96712:0:0:0:0:
448,192,96431,128,0,97087:0:0:0:0:
64,192,96806,128,2,97462:0:0:0:0:
192,192,96806,128,0,97087:0:0:0:0:
320,192,96806,128,0,97087:0:0:0:0:
192,192,97181,128,2,97462:0:0:0:0:
320,192,97181,128,0,97462:0:0:0:0:
448,192,97181,128,0,97556:0:0:0:0:
64,192,97556,1,2,0:0:0:0:
192,192,97556,1,0,0:0:0:0:
320,192,97556,1,0,0:0:0:0:
320,192,97743,128,0,98118:0:0:0:0:
64,192,97931,1,2,0:0:0:0:
192,192,97931,1,0,0:0:0:0:
448,192,97931,128,0,98118:0:0:0:0:
192,192,98118,128,0,98493:0:0:0:0:
64,192,98306,1,2,0:0:0:0:
320,192,98306,128,0,98493:0:0:0:0:
448,192,98306,1,0,0:0:0:0:
64,192,98493,128,0,98868:0:0:0:0:
192,192,98681,128,2,98868:0:0:0:0:
320,192,98681,1,0,0:0:0:0:
448,192,98681,1,0,0:0:0:0:
320,192,98868,128,0,99337:0:0:0:0:
64,192,99056,128,2,99337:0:0:0:0:
192,192,99056,128,0,99337:0:0:0:0:
448,192,99056,128,0,99712:0:0:0:0:
64,192,99431,128,2,100087:0:0:0:0:
192,192,99431,128,0,99712:0:0:0:0:
320,192,99431,128,0,99712:0:0:0:0:
192,192,99806,128,2,100087:0:0:0:0:
320,192,99806,128,0,100087:0:0:0:0:
448,192,99806,128,0,100462:0:0:0:0:
64,192,100181,128,2,100556:0:0:0:0:
192,192,100181,128,0,100462:0:0:0:0:
320,192,100181,128,0,100462:0:0:0:0:
192,192,100556,1,2,0:0:0:0:
320,192,100556,1,0,0:0:0:0:
448,192,100556,1,0,0:0:0:0:
320,192,100743,1,2,0:0:0:0:
448,192,100743,1,0,0:0:0:0:
192,192,100837,1,0,0:0:0:0:
64,192,100931,1,2,0:0:0:0:
320,192,100931,1,0,0:0:0:0:
448,192,100931,1,0,0:0:0:0:
64,192,101118,1,2,0:0:0:0:
192,192,101118,1,0,0:0:0:0:
320,192,101306,1,2,0:0:0:0:
448,192,101306,1,0,0:0:0:0:
64,192,101493,1,2,0:0:0:0:
192,192,101493,1,0,0:0:0:0:
320,192,101587,1,0,0:0:0:0:
64,192,101681,1,2,0:0:0:0:
192,192,101681,1,0,0:0:0:0:
448,192,101681,1,0,0:0:0:0:
320,192,101868,1,2,0:0:0:0:
448,192,101868,1,0,0:0:0:0:
64,192,102056,1,2,0:0:0:0:
192,192,102056,1,0,0:0:0:0:
320,192,102243,1,2,0:0:0:0:
448,192,102243,1,0,0:0:0:0:
192,192,102337,1,0,0:0:0:0:
64,192,102431,1,2,0:0:0:0:
320,192,102431,1,0,0:0:0:0:
448,192,102431,1,0,0:0:0:0:
64,192,102618,1,2,0:0:0:0:
192,192,102618,1,0,0:0:0:0:
320,192,102806,1,2,0:0:0:0:
448,192,102806,1,0,0:0:0:0:
64,192,102993,1,2,0:0:0:0:
192,192,102993,1,0,0:0:0:0:
320,192,103087,1,0,0:0:0:0:
64,192,103181,1,2,0:0:0:0:
192,192,103181,1,0,0:0:0:0:
448,192,103181,1,0,0:0:0:0:
320,192,103368,1,2,0:0:0:0:
448,192,103368,1,0,0:0:0:0:
64,192,103556,1,2,0:0:0:0:
192,192,103556,1,0,0:0:0:0:
320,192,103649,1,2,0:0:0:0:
64,192,103743,1,2,0:0:0:0:
448,192,103743,1,0,0:0:0:0:
192,192,103837,1,2,0:0:0:0:
320,192,103931,1,2,0:0:0:0:
448,192,103931,1,0,0:0:0:0:
192,192,104024,1,2,0:0:0:0:
64,192,104118,1,2,0:0:0:0:
448,192,104118,1,0,0:0:0:0:
320,192,104212,1,2,0:0:0:0:
64,192,104306,1,2,0:0:0:0:
192,192,104306,1,0,0:0:0:0:
320,192,104399,1,2,0:0:0:0:
448,192,104399,1,0,0:0:0:0:
64,192,104493,1,2,0:0:0:0:
192,192,104493,1,0,0:0:0:0:
320,192,104587,1,2,0:0:0:0:
448,192,104587,1,0,0:0:0:0:
64,192,104681,1,2,0:0:0:0:
192,192,104681,1,0,0:0:0:0:
320,192,104774,1,2,0:0:0:0:
448,192,104774,1,0,0:0:0:0:
64,192,104868,1,2,0:0:0:0:
192,192,104868,1,0,0:0:0:0:
320,192,104962,1,2,0:0:0:0:
64,192,105056,1,2,0:0:0:0:
192,192,105056,1,0,0:0:0:0:
448,192,105056,1,0,0:0:0:0:
320,192,105431,128,0,105524:0:0:0:0:
320,192,105618,128,0,105712:0:0:0:0:
64,192,105806,1,0,0:0:0:70:LR_Tom Hit 2.wav
192,192,105806,128,0,105899:0:0:0:0:
448,192,105806,128,0,106087:0:0:0:0:
192,192,105993,128,0,106087:0:0:0:0:
64,192,106181,128,0,106462:0:0:0:70:LR_Tom Hit 3.wav
320,192,106181,128,0,106274:0:0:0:0:
448,192,106181,1,0,0:0:0:0:
320,192,106368,128,0,106462:0:0:0:0:
64,192,106556,128,4,106743:0:0:0:0:
192,192,106556,128,2,106743:0:0:0:0:
320,192,106556,1,0,0:0:0:0:
448,192,106556,128,0,107118:0:0:0:0:
192,192,106931,128,2,107306:0:0:0:0:
320,192,106931,128,0,107118:0:0:0:0:
64,192,107306,128,8,107493:0:0:0:0:
320,192,107306,1,0,0:0:0:0:
448,192,107306,1,0,0:0:0:0:
448,192,107493,1,0,0:0:0:0:
64,192,107681,128,2,107868:0:0:0:0:
192,192,107681,1,0,0:0:0:0:
320,192,107774,1,0,0:0:0:0:
448,192,107868,128,0,108056:0:0:0:0:
64,192,108056,128,0,108243:0:0:0:0:
192,192,108243,1,2,0:0:0:0:
320,192,108243,128,0,108431:0:0:0:0:
64,192,108431,128,2,108618:0:0:0:0:
448,192,108431,1,0,0:0:0:0:
192,192,108618,128,0,108806:0:0:0:0:
64,192,108806,1,8,0:0:0:0:
320,192,108806,1,0,0:0:0:0:
448,192,108806,128,0,109181:0:0:0:0:
320,192,108993,128,0,109181:0:0:0:0:
64,192,109181,128,0,109368:0:0:0:0:
192,192,109368,128,2,109556:0:0:0:0:
320,192,109368,1,0,0:0:0:0:
64,192,109556,1,2,0:0:0:0:
448,192,109556,128,0,109743:0:0:0:0:
192,192,109743,1,0,0:0:0:0:
64,192,109931,1,2,0:0:0:0:
448,192,109931,128,0,110118:0:0:0:0:
192,192,110118,1,0,0:0:0:0:
320,192,110118,1,0,0:0:0:0:
64,192,110306,1,8,0:0:0:0:
192,192,110306,1,0,0:0:0:0:
320,192,110306,1,0,0:0:0:0:
448,192,110306,1,0,0:0:0:0:
64,192,110493,1,0,0:0:0:0:
320,192,110681,128,2,110868:0:0:0:0:
448,192,110681,128,0,111056:0:0:0:0:
192,192,110774,1,0,0:0:0:0:
64,192,110868,1,0,0:0:0:0:
192,192,111056,128,0,111243:0:0:0:0:
320,192,111056,128,0,111431:0:0:0:0:
64,192,111243,1,2,0:0:0:0:
448,192,111243,1,0,0:0:0:0:
64,192,111431,128,2,111806:0:0:0:0:
192,192,111431,128,0,111618:0:0:0:0:
320,192,111618,1,0,0:0:0:0:
192,192,111806,1,8,0:0:0:0:
320,192,111806,128,0,111993:0:0:0:0:
448,192,111806,128,0,112181:0:0:0:0:
64,192,111993,1,2,0:0:0:0:
192,192,111993,1,0,0:0:0:0:
192,192,112181,128,2,112837:0:0:0:0:
320,192,112181,128,0,112368:0:0:0:0:
64,192,112368,1,0,0:0:0:0:
64,192,112556,128,2,112837:0:0:0:0:
320,192,112556,128,4,112837:0:0:0:0:
448,192,112556,128,0,113212:0:0:0:0:
64,192,112931,128,2,113212:0:0:0:0:
192,192,112931,128,0,113212:0:0:0:0:
320,192,112931,128,0,113212:0:0:0:0:
64,192,113306,1,8,0:0:0:0:
192,192,113306,1,0,0:0:0:0:
320,192,113306,128,0,113681:0:0:0:0:
448,192,113306,128,0,113493:0:0:0:0:
192,192,113493,1,0,0:0:0:0:
64,192,113681,1,2,0:0:0:0:
448,192,113681,128,0,114056:0:0:0:0:
192,192,113774,1,0,0:0:0:0:
64,192,113868,1,0,0:0:0:0:
320,192,113868,128,0,114056:0:0:0:0:
64,192,114056,128,0,114431:0:0:0:0:
192,192,114243,1,2,0:0:0:0:
448,192,114243,128,0,114431:0:0:0:0:
192,192,114431,128,2,114618:0:0:0:0:
320,192,114431,1,0,0:0:0:0:
320,192,114618,128,0,114806:0:0:0:0:
64,192,114806,128,8,114993:0:0:0:0:
192,192,114806,1,0,0:0:0:0:
448,192,114806,128,0,115368:0:0:0:0:
320,192,114993,1,0,0:0:0:0:
192,192,115181,1,0,0:0:0:0:
64,192,115368,1,2,0:0:0:0:
192,192,115368,1,0,0:0:0:0:
320,192,115462,1,2,0:0:0:0:
64,192,115556,128,2,116118:0:0:0:0:
448,192,115556,1,0,0:0:0:0:
192,192,115743,1,0,0:0:0:0:
320,192,115931,1,2,0:0:0:0:
448,192,115931,1,0,0:0:0:0:
192,192,116118,1,2,0:0:0:0:
448,192,116118,128,0,116681:0:0:0:0:
64,192,116306,1,8,0:0:0:0:
192,192,116306,1,0,0:0:0:0:
320,192,116306,1,0,0:0:0:0:
320,192,116493,1,0,0:0:0:0:
64,192,116681,128,2,117056:0:0:0:0:
192,192,116681,1,0,0:0:0:0:
320,192,116774,1,0,0:0:0:0:
448,192,116868,1,0,0:0:0:0:
448,192,117056,128,0,117712:0:0:0:0:
64,192,117243,1,0,0:0:0:70:LR_Tom Hit 2.wav
320,192,117243,1,0,0:0:0:0:
64,192,117431,1,0,0:0:0:70:LR_Tom Hit 3.wav
192,192,117431,128,0,117524:0:0:0:0:
192,192,117618,128,2,117712:0:0:0:0:
320,192,117618,1,0,0:0:0:0:
64,192,117806,128,8,118087:0:0:0:0:
320,192,117806,128,0,117899:0:0:0:0:
448,192,117806,1,0,0:0:0:0:
192,192,117993,1,2,0:0:0:0:
320,192,117993,128,0,118087:0:0:0:0:
64,192,118181,1,2,0:0:0:0:
192,192,118181,128,0,118274:0:0:0:0:
448,192,118181,128,0,118462:0:0:0:0:
192,192,118368,128,2,118462:0:0:0:0:
320,192,118368,1,0,0:0:0:0:
64,192,118556,128,2,119118:0:0:0:0:
192,192,118556,1,4,0:0:0:0:
320,192,118556,128,0,118743:0:0:0:0:
448,192,118556,128,0,118743:0:0:0:0:
192,192,118931,128,2,119118:0:0:0:0:
320,192,118931,128,0,119306:0:0:0:0:
64,192,119306,1,8,0:0:0:0:
192,192,119306,1,0,0:0:0:0:
448,192,119306,128,0,119493:0:0:0:0:
64,192,119493,1,0,0:0:0:0:
320,192,119681,1,2,0:0:0:0:
448,192,119681,128,0,119868:0:0:0:0:
192,192,119774,1,0,0:0:0:0:
64,192,119868,128,0,120056:0:0:0:0:
448,192,120056,128,0,120243:0:0:0:0:
192,192,120243,128,2,120431:0:0:0:0:
320,192,120243,1,0,0:0:0:0:
64,192,120431,1,2,0:0:0:0:
448,192,120431,128,0,120618:0:0:0:0:
320,192,120618,128,0,120806:0:0:0:0:
64,192,120806,128,8,121181:0:0:0:0:
192,192,120806,1,0,0:0:0:0:
448,192,120806,1,0,0:0:0:0:
192,192,120993,128,0,121181:0:0:0:0:
448,192,121181,128,0,121368:0:0:0:0:
64,192,121368,1,2,0:0:0:0:
320,192,121368,128,0,121556:0:0:0:0:
64,192,121556,128,2,122212:0:0:0:0:
192,192,121556,1,0,0:0:0:0:
320,192,121743,1,0,0:0:0:0:
192,192,121931,128,2,122212:0:0:0:0:
448,192,121931,1,0,0:0:0:0:
320,192,122118,1,0,0:0:0:0:
64,192,122306,1,8,0:0:0:0:
192,192,122306,1,0,0:0:0:0:
320,192,122306,1,0,0:0:0:0:
448,192,122306,1,0,0:0:0:0:
448,192,122493,1,0,0:0:0:0:
64,192,122681,128,2,122868:0:0:0:0:
192,192,122681,1,0,0:0:0:0:
448,192,122774,1,0,0:0:0:0:
320,192,122868,128,0,123056:0:0:0:0:
192,192,123056,128,0,123431:0:0:0:0:
320,192,123243,1,2,0:0:0:0:
448,192,123243,1,0,0:0:0:0:
64,192,123431,1,2,0:0:0:0:
448,192,123431,128,0,123618:0:0:0:0:
320,192,123618,128,0,123993:0:0:0:0:
64,192,123806,1,8,0:0:0:0:
192,192,123806,1,0,0:0:0:0:
448,192,123806,1,0,0:0:0:0:
64,192,123993,1,2,0:0:0:0:
192,192,123993,128,0,124181:0:0:0:0:
64,192,124181,128,2,124368:0:0:0:0:
320,192,124181,1,0,0:0:0:0:
448,192,124181,128,0,124837:0:0:0:0:
192,192,124368,1,2,0:0:0:0:
320,192,124368,1,0,0:0:0:0:
64,192,124556,128,2,125212:0:0:0:0:
192,192,124556,128,4,124837:0:0:0:0:
320,192,124556,128,0,124837:0:0:0:0:
192,192,124931,128,2,125212:0:0:0:0:
320,192,124931,128,0,125212:0:0:0:0:
448,192,124931,128,0,125212:0:0:0:0:
64,192,125306,128,8,125681:0:0:0:0:
192,192,125306,128,0,125681:0:0:0:0:
320,192,125306,1,0,0:0:0:0:
448,192,125306,1,0,0:0:0:0:
448,192,125493,1,0,0:0:0:0:
320,192,125681,1,2,0:0:0:0:
448,192,125681,128,0,126056:0:0:0:0:
192,192,125774,1,0,0:0:0:0:
64,192,125868,1,0,0:0:0:0:
320,192,125868,128,0,126056:0:0:0:0:
64,192,126056,128,0,126431:0:0:0:0:
192,192,126243,1,2,0:0:0:0:
448,192,126243,128,0,126431:0:0:0:0:
192,192,126431,128,2,126618:0:0:0:0:
320,192,126431,1,0,0:0:0:0:
320,192,126618,128,0,126806:0:0:0:0:
64,192,126806,128,8,127462:0:0:0:0:
192,192,126806,1,0,0:0:0:0:
448,192,126806,128,0,127181:0:0:0:0:
320,192,126993,1,0,0:0:0:0:
192,192,127181,128,0,127462:0:0:0:0:
448,192,127368,1,2,0:0:0:0:
320,192,127462,1,2,0:0:0:0:
64,192,127556,128,2,127743:0:0:0:0:
448,192,127556,128,0,127931:0:0:0:0:
192,192,127743,1,0,0:0:0:0:
192,192,127931,1,2,0:0:0:0:
320,192,127931,1,0,0:0:0:0:
64,192,128118,1,2,0:0:0:0:
320,192,128118,1,0,0:0:0:0:
64,192,128306,1,8,0:0:0:0:
192,192,128306,1,0,0:0:0:0:
320,192,128306,1,0,0:0:0:0:
448,192,128306,1,0,0:0:0:0:
192,192,128493,1,0,0:0:0:0:
320,192,128681,1,2,0:0:0:0:
448,192,128681,128,0,129243:0:0:0:0:
192,192,128774,1,0,0:0:0:0:
64,192,128868,1,0,0:0:0:0:
320,192,129056,128,0,129431:0:0:0:0:
64,192,129243,1,2,0:0:0:0:
192,192,129243,1,0,0:0:0:0:
64,192,129431,1,2,0:0:0:0:
448,192,129431,1,0,0:0:0:0:
320,192,129618,128,0,129806:0:0:0:0:
64,192,129806,1,8,0:0:0:0:
192,192,129806,1,0,0:0:0:0:
448,192,129806,1,0,0:0:0:0:
64,192,129993,1,2,0:0:0:0:
192,192,129993,128,0,130556:0:0:0:0:
320,192,130181,1,2,0:0:0:0:
448,192,130181,128,0,130556:0:0:0:0:
64,192,130556,128,0,131212:0:0:0:0:
192,192,130743,128,0,131212:0:0:0:0:
320,192,130931,128,0,131212:0:0:0:0:
192,192,131306,128,0,131962:0:0:0:0:
320,192,131493,128,0,131962:0:0:0:0:
448,192,131681,128,0,131962:0:0:0:0:
320,192,132056,128,0,132712:0:0:0:0:
64,192,132243,128,0,132712:0:0:0:0:
192,192,132431,128,0,132712:0:0:0:0:
448,192,132806,128,0,133462:0:0:0:0:
192,192,132993,128,0,133462:0:0:0:0:
320,192,133181,128,0,133462:0:0:0:0:
320,192,133556,128,0,133649:0:0:0:0:
448,192,133556,128,0,133649:0:0:0:0:
320,192,133931,128,0,134024:0:0:0:0:
448,192,133931,128,0,134024:0:0:0:0:
320,192,134306,128,0,134399:0:0:0:0:
448,192,134306,128,0,134399:0:0:0:0:
320,192,134681,128,0,134774:0:0:0:0:
448,192,134681,128,0,134774:0:0:0:0:
192,192,134868,128,0,135056:0:0:0:0:
320,192,135056,128,0,135149:0:0:0:0:
448,192,135056,128,0,135337:0:0:0:0:
320,192,135337,128,0,135618:0:0:0:0:
64,192,135431,1,0,0:0:0:0:
192,192,135431,128,0,135524:0:0:0:0:
64,192,135618,128,0,135806:0:0:0:0:
192,192,135806,128,0,135899:0:0:0:0:
448,192,135806,128,0,136556:0:0:0:0:
64,192,136181,1,0,0:0:0:0:
320,192,136181,128,0,136274:0:0:0:0:
64,192,136556,128,0,137212:0:0:0:0:
192,192,136743,128,0,137212:0:0:0:0:
320,192,136931,128,0,137212:0:0:0:0:
192,192,137306,128,0,137962:0:0:0:0:
320,192,137493,128,0,137962:0:0:0:0:
448,192,137681,128,0,137962:0:0:0:0:
320,192,138056,128,0,138712:0:0:0:0:
64,192,138243,128,0,138712:0:0:0:0:
192,192,138431,128,0,138712:0:0:0:0:
448,192,138806,128,0,139462:0:0:0:0:
192,192,138993,128,0,139462:0:0:0:0:
320,192,139181,128,0,139462:0:0:0:0:
64,192,139556,128,0,139649:0:0:0:0:
192,192,139556,128,0,139649:0:0:0:0:
64,192,139931,128,0,140024:0:0:0:0:
192,192,139931,128,0,140024:0:0:0:0:
64,192,140306,128,0,140587:0:0:0:0:
192,192,140306,128,0,140399:0:0:0:0:
192,192,140587,128,0,140868:0:0:0:0:
320,192,140681,128,0,140774:0:0:0:0:
448,192,140681,1,0,0:0:0:0:
448,192,140868,128,0,141056:0:0:0:0:
64,192,141056,128,0,141149:0:0:0:0:
320,192,141056,128,0,141337:0:0:0:0:
64,192,141337,128,0,141618:0:0:0:0:
320,192,141431,1,0,0:0:0:0:
448,192,141431,128,0,141524:0:0:0:0:
192,192,141618,128,0,141806:0:0:0:0:
64,192,141806,128,0,142556:0:0:0:0:
320,192,141806,128,0,141899:0:0:0:0:
320,192,142181,128,0,142556:0:0:0:0:
448,192,142181,128,0,142274:0:0:0:0:
192,192,142556,1,0,0:0:0:0:
448,192,142556,128,0,143118:0:0:0:0:
192,192,142743,128,0,143118:0:0:0:0:
64,192,142931,128,0,143118:0:0:0:0:
64,192,143306,128,0,143868:0:0:0:70:Snare 3 - B.wav
320,192,143306,128,0,143399:0:0:0:0:
448,192,143306,128,0,143399:0:0:0:0:
320,192,143493,128,0,143868:0:0:0:0:
448,192,143681,128,0,143868:0:0:0:0:
192,192,144056,1,0,0:0:0:0:
448,192,144056,128,0,144618:0:0:0:0:
192,192,144243,128,0,144618:0:0:0:0:
64,192,144431,128,0,144618:0:0:0:0:
64,192,144806,128,0,144899:0:0:0:70:Snare 3 - B.wav
320,192,144806,128,0,144899:0:0:0:0:
448,192,144806,128,0,144899:0:0:0:0:
192,192,145181,128,0,145556:0:0:0:0:
320,192,145368,128,0,145556:0:0:0:0:
64,192,145556,128,0,146118:0:0:0:0:
448,192,145556,1,0,0:0:0:0:
192,192,145743,128,0,146118:0:0:0:0:
320,192,145931,128,0,146118:0:0:0:0:
448,192,146118,1,0,0:0:0:0:
64,192,146306,128,0,146399:0:0:0:70:Snare 3 - B.wav
192,192,146306,128,0,146399:0:0:0:0:
448,192,146306,128,0,146868:0:0:0:0:
320,192,146587,128,0,146868:0:0:0:0:
64,192,146868,1,0,0:0:0:0:
64,192,147056,128,0,147618:0:0:0:0:
192,192,147056,1,0,0:0:0:0:
320,192,147243,1,0,0:0:0:0:
448,192,147431,1,0,0:0:0:0:
192,192,147618,1,0,0:0:0:0:
64,192,147806,128,0,147899:0:0:0:70:Snare 3 - B.wav
320,192,147806,128,0,147899:0:0:0:0:
448,192,147806,128,0,148368:0:0:0:0:
192,192,147993,1,0,0:0:0:0:
64,192,148181,1,0,0:0:0:0:
320,192,148368,1,0,0:0:0:0:
64,192,148556,1,2,0:0:0:0:
192,192,148556,1,0,0:0:0:0:
448,192,148556,1,0,0:0:0:0:
192,192,148837,1,0,0:0:0:0:
64,192,148931,1,2,0:0:0:0:
320,192,148931,1,0,0:0:0:0:
448,192,148931,1,0,0:0:0:0:
192,192,149118,1,0,0:0:0:0:
64,192,149306,128,2,149399:0:0:0:0:
192,192,149306,128,0,149399:0:0:0:70:Snare 3 - B.wav
320,192,149306,128,0,149399:0:0:0:0:
448,192,149306,128,0,149399:0:0:0:0:
320,192,149587,1,0,0:0:0:0:
64,192,149681,1,2,0:0:0:0:
192,192,149681,1,0,0:0:0:0:
448,192,149681,1,0,0:0:0:0:
320,192,149868,1,0,0:0:0:0:
64,192,150056,1,2,0:0:0:0:
192,192,150056,1,0,0:0:0:0:
448,192,150056,1,0,0:0:0:0:
192,192,150337,1,0,0:0:0:0:
64,192,150431,1,2,0:0:0:0:
320,192,150431,1,0,0:0:0:0:
448,192,150431,1,0,0:0:0:0:
192,192,150618,1,0,0:0:0:0:
64,192,150806,128,2,150899:0:0:0:0:
192,192,150806,128,0,150899:0:0:0:70:Snare 3 - B.wav
320,192,150806,128,0,150899:0:0:0:0:
448,192,150806,128,0,150899:0:0:0:0:
192,192,151087,1,0,0:0:0:0:
64,192,151181,1,2,0:0:0:0:
320,192,151181,1,0,0:0:0:0:
448,192,151181,1,0,0:0:0:0:
192,192,151368,1,0,0:0:0:0:
64,192,151556,1,2,0:0:0:0:
320,192,151556,1,0,0:0:0:0:
448,192,151556,1,0,0:0:0:0:
64,192,151743,1,2,0:0:0:0:
192,192,151743,1,0,0:0:0:0:
448,192,151743,1,0,0:0:0:0:
64,192,151931,1,2,0:0:0:0:
192,192,151931,1,0,0:0:0:0:
320,192,151931,1,0,0:0:0:0:
192,192,152118,1,2,0:0:0:0:
320,192,152118,1,0,0:0:0:0:
448,192,152118,1,0,0:0:0:0:
64,192,152306,128,2,152399:0:0:0:0:
192,192,152306,128,0,152399:0:0:0:70:Snare 3 - B.wav
320,192,152306,128,0,152399:0:0:0:0:
448,192,152306,128,0,152399:0:0:0:0:
64,192,152493,1,2,0:0:0:0:
320,192,152493,1,0,0:0:0:0:
448,192,152493,1,0,0:0:0:0:
64,192,152681,1,2,0:0:0:0:
192,192,152681,1,0,0:0:0:0:
448,192,152681,1,0,0:0:0:0:
64,192,152868,1,2,0:0:0:0:
192,192,152868,1,0,0:0:0:0:
320,192,152868,1,0,0:0:0:0:
192,192,153056,1,2,0:0:0:0:
320,192,153056,1,0,0:0:0:0:
448,192,153056,128,0,155212:0:0:0:0:
64,192,153431,128,0,154837:0:0:0:0:
192,192,153431,128,0,154837:0:0:0:0:
192,192,154931,128,0,155024:0:0:0:0:
192,192,155118,128,0,155212:0:0:0:0:
64,192,155306,128,0,155587:0:0:0:70:LR_Tom Hit 2.wav
320,192,155306,128,0,155399:0:0:0:0:
448,192,155306,128,0,155399:0:0:0:0:
320,192,155493,128,0,155587:0:0:0:0:
64,192,155681,128,0,155774:0:0:0:70:LR_Tom Hit 3.wav
192,192,155681,128,0,155774:0:0:0:0:
448,192,155681,128,0,155962:0:0:0:0:
192,192,155868,128,0,155962:0:0:0:0:
64,192,156056,128,4,156618:0:0:0:0:
192,192,156056,128,2,156243:0:0:0:0:
320,192,156056,128,0,156243:0:0:0:0:
448,192,156056,128,0,156243:0:0:0:0:
192,192,156431,128,2,156618:0:0:0:0:
320,192,156431,128,0,156806:0:0:0:0:
64,192,156806,1,8,0:0:0:0:
192,192,156806,1,0,0:0:0:0:
448,192,156806,128,0,156993:0:0:0:0:
64,192,156993,1,0,0:0:0:0:
320,192,157181,1,2,0:0:0:0:
448,192,157181,128,0,157556:0:0:0:0:
192,192,157274,1,0,0:0:0:0:
64,192,157368,128,0,157556:0:0:0:0:
320,192,157556,128,0,157931:0:0:0:0:
192,192,157743,128,2,157931:0:0:0:0:
448,192,157743,1,0,0:0:0:0:
64,192,157931,1,2,0:0:0:0:
448,192,157931,128,0,158306:0:0:0:0:
320,192,158118,128,0,158306:0:0:0:0:
64,192,158306,128,8,158681:0:0:0:0:
192,192,158306,1,0,0:0:0:0:
192,192,158493,128,0,158681:0:0:0:0:
448,192,158681,128,0,159056:0:0:0:0:
64,192,158868,1,2,0:0:0:0:
320,192,158868,128,0,159056:0:0:0:0:
64,192,159056,128,2,159712:0:0:0:0:
192,192,159056,1,0,0:0:0:0:
320,192,159243,1,0,0:0:0:0:
192,192,159431,128,2,159712:0:0:0:0:
448,192,159431,1,0,0:0:0:0:
320,192,159618,1,0,0:0:0:0:
64,192,159806,1,8,0:0:0:0:
192,192,159806,1,0,0:0:0:0:
320,192,159806,1,0,0:0:0:0:
448,192,159806,1,0,0:0:0:0:
448,192,159993,1,0,0:0:0:0:
64,192,160181,128,2,160556:0:0:0:0:
192,192,160181,128,0,160368:0:0:0:0:
320,192,160274,1,0,0:0:0:0:
448,192,160368,1,0,0:0:0:0:
192,192,160556,128,0,160931:0:0:0:0:
320,192,160556,128,0,160743:0:0:0:0:
64,192,160743,1,2,0:0:0:0:
448,192,160743,1,0,0:0:0:0:
320,192,160931,128,2,161118:0:0:0:0:
448,192,160931,128,0,161306:0:0:0:0:
192,192,161118,1,0,0:0:0:0:
64,192,161306,128,8,161681:0:0:0:0:
192,192,161306,128,0,161493:0:0:0:0:
320,192,161306,1,0,0:0:0:0:
320,192,161493,1,2,0:0:0:0:
448,192,161493,1,0,0:0:0:0:
192,192,161681,128,2,161868:0:0:0:0:
320,192,161681,128,0,162337:0:0:0:0:
448,192,161868,1,0,0:0:0:0:
64,192,162056,128,2,162712:0:0:0:0:
192,192,162056,128,4,162337:0:0:0:0:
448,192,162056,128,0,162337:0:0:0:0:
192,192,162431,128,2,162712:0:0:0:0:
320,192,162431,128,0,162712:0:0:0:0:
448,192,162431,128,0,162712:0:0:0:0:
64,192,162806,128,8,162993:0:0:0:0:
192,192,162806,128,0,163181:0:0:0:0:
320,192,162806,1,0,0:0:0:0:
448,192,162806,1,0,0:0:0:0:
320,192,162993,1,0,0:0:0:0:
64,192,163181,128,2,163556:0:0:0:0:
448,192,163181,1,0,0:0:0:0:
320,192,163274,1,0,0:0:0:0:
192,192,163368,128,0,163556:0:0:0:0:
448,192,163368,1,0,0:0:0:0:
448,192,163556,128,0,163931:0:0:0:0:
64,192,163743,128,2,163931:0:0:0:0:
320,192,163743,1,0,0:0:0:0:
192,192,163931,1,2,0:0:0:0:
320,192,163931,128,0,164306:0:0:0:0:
192,192,164118,128,0,164306:0:0:0:0:
64,192,164306,128,8,164868:0:0:0:0:
448,192,164306,128,0,164493:0:0:0:0:
192,192,164493,1,0,0:0:0:0:
320,192,164681,1,0,0:0:0:0:
320,192,164868,1,2,0:0:0:0:
448,192,164868,1,0,0:0:0:0:
192,192,164962,1,2,0:0:0:0:
64,192,165056,1,2,0:0:0:0:
448,192,165056,128,0,165618:0:0:0:0:
320,192,165243,1,0,0:0:0:0:
64,192,165431,1,2,0:0:0:0:
192,192,165431,1,0,0:0:0:0:
64,192,165618,128,2,166181:0:0:0:0:
320,192,165618,1,0,0:0:0:0:
192,192,165806,1,8,0:0:0:0:
320,192,165806,1,0,0:0:0:0:
448,192,165806,1,0,0:0:0:0:
192,192,165993,1,0,0:0:0:0:
320,192,166181,1,2,0:0:0:0:
448,192,166181,128,0,166556:0:0:0:0:
192,192,166274,1,0,0:0:0:0:
64,192,166368,1,0,0:0:0:0:
64,192,166556,128,0,167212:0:0:0:0:
192,192,166743,1,0,0:0:0:70:LR_Tom Hit 2.wav
448,192,166743,1,0,0:0:0:0:
320,192,166931,128,0,167024:0:0:0:70:LR_Tom Hit 3.wav
448,192,166931,1,0,0:0:0:0:
192,192,167118,1,2,0:0:0:0:
320,192,167118,128,0,167212:0:0:0:0:
64,192,167306,128,8,167399:0:0:0:0:
192,192,167306,128,0,167399:0:0:0:0:
448,192,167306,128,0,167587:0:0:0:0:
192,192,167493,128,2,167587:0:0:0:0:
320,192,167493,1,0,0:0:0:0:
64,192,167681,128,2,167962:0:0:0:0:
320,192,167681,128,0,167774:0:0:0:0:
448,192,167681,128,0,167774:0:0:0:0:
192,192,167868,1,2,0:0:0:0:
320,192,167868,128,0,167962:0:0:0:0:
64,192,168056,128,2,168243:0:0:0:0:
192,192,168056,128,4,168243:0:0:0:0:
320,192,168056,128,0,168243:0:0:0:0:
448,192,168056,128,0,168618:0:0:0:0:
192,192,168431,128,2,168806:0:0:0:0:
320,192,168431,128,0,168618:0:0:0:0:
64,192,168806,128,8,169556:0:0:0:0:
320,192,168806,1,0,0:0:0:0:
448,192,168806,128,0,168993:0:0:0:0:
192,192,168993,1,0,0:0:0:0:
320,192,169181,1,2,0:0:0:0:
448,192,169181,128,0,170118:0:0:0:0:
192,192,169274,1,0,0:0:0:0:
320,192,169368,128,0,169931:0:0:0:0:
192,192,169556,128,0,169743:0:0:0:0:
64,192,169743,128,2,170118:0:0:0:0:
192,192,169931,128,2,170306:0:0:0:0:
320,192,170118,128,0,170306:0:0:0:0:
64,192,170306,1,8,0:0:0:0:
448,192,170306,128,0,170681:0:0:0:0:
320,192,170493,128,0,170681:0:0:0:0:
64,192,170681,128,0,171056:0:0:0:0:
192,192,170868,128,2,171056:0:0:0:0:
448,192,170868,1,0,0:0:0:0:
320,192,171056,1,2,0:0:0:0:
448,192,171056,128,0,171712:0:0:0:0:
192,192,171243,1,0,0:0:0:0:
64,192,171431,1,2,0:0:0:0:
320,192,171431,128,0,171712:0:0:0:0:
192,192,171618,1,0,0:0:0:0:
64,192,171806,1,8,0:0:0:0:
192,192,171806,1,0,0:0:0:0:
320,192,171806,1,0,0:0:0:0:
448,192,171806,128,0,172181:0:0:0:0:
64,192,171993,1,0,0:0:0:0:
192,192,172181,128,2,172556:0:0:0:0:
320,192,172181,1,0,0:0:0:0:
448,192,172368,128,0,172556:0:0:0:0:
320,192,172556,128,0,172931:0:0:0:0:
64,192,172743,1,2,0:0:0:0:
192,192,172743,1,0,0:0:0:0:
64,192,172931,128,2,173118:0:0:0:0:
448,192,172931,1,0,0:0:0:0:
192,192,173118,128,0,173493:0:0:0:0:
64,192,173306,1,8,0:0:0:0:
320,192,173306,1,0,0:0:0:0:
448,192,173306,1,0,0:0:0:0:
320,192,173493,1,2,0:0:0:0:
448,192,173493,128,0,173868:0:0:0:0:
64,192,173681,128,2,174337:0:0:0:0:
192,192,173681,1,0,0:0:0:0:
192,192,173868,1,2,0:0:0:0:
320,192,173868,1,0,0:0:0:0:
192,192,174056,128,2,174337:0:0:0:0:
320,192,174056,128,4,174337:0:0:0:0:
448,192,174056,128,0,174712:0:0:0:0:
64,192,174431,128,2,174712:0:0:0:0:
192,192,174431,128,0,174712:0:0:0:0:
320,192,174431,128,0,174712:0:0:0:0:
64,192,174806,1,8,0:0:0:0:
192,192,174806,1,0,0:0:0:0:
320,192,174806,128,0,175181:0:0:0:0:
448,192,174806,128,0,175181:0:0:0:0:
64,192,174993,1,0,0:0:0:0:
64,192,175181,128,2,175556:0:0:0:0:
192,192,175181,1,0,0:0:0:0:
320,192,175274,1,0,0:0:0:0:
192,192,175368,128,0,175556:0:0:0:0:
448,192,175368,1,0,0:0:0:0:
448,192,175556,128,0,175931:0:0:0:0:
64,192,175743,128,2,175931:0:0:0:0:
320,192,175743,1,0,0:0:0:0:
192,192,175931,1,2,0:0:0:0:
320,192,175931,128,0,176306:0:0:0:0:
192,192,176118,128,0,176306:0:0:0:0:
64,192,176306,128,8,176681:0:0:0:0:
448,192,176306,128,0,176962:0:0:0:0:
192,192,176493,1,0,0:0:0:0:
320,192,176681,128,0,176962:0:0:0:0:
64,192,176868,1,2,0:0:0:0:
192,192,176962,1,2,0:0:0:0:
64,192,177056,128,2,177431:0:0:0:0:
448,192,177056,128,0,177243:0:0:0:0:
320,192,177243,1,0,0:0:0:0:
192,192,177431,1,2,0:0:0:0:
320,192,177431,1,0,0:0:0:0:
192,192,177618,1,2,0:0:0:0:
448,192,177618,1,0,0:0:0:0:
64,192,177806,1,8,0:0:0:0:
192,192,177806,1,0,0:0:0:0:
320,192,177806,1,0,0:0:0:0:
448,192,177806,1,0,0:0:0:0:
320,192,177993,1,0,0:0:0:0:
64,192,178181,128,2,178743:0:0:0:0:
192,192,178181,1,0,0:0:0:0:
320,192,178274,1,0,0:0:0:0:
448,192,178368,1,0,0:0:0:0:
192,192,178556,128,0,178931:0:0:0:0:
320,192,178743,1,2,0:0:0:0:
448,192,178743,1,0,0:0:0:0:
64,192,178931,1,2,0:0:0:0:
448,192,178931,1,0,0:0:0:0:
192,192,179118,128,0,179306:0:0:0:0:
64,192,179306,1,8,0:0:0:0:
320,192,179306,1,0,0:0:0:0:
448,192,179306,1,0,0:0:0:0:
320,192,179493,128,2,180056:0:0:0:0:
448,192,179493,1,0,0:0:0:0:
64,192,179681,128,2,180056:0:0:0:0:
192,192,179681,1,0,0:0:0:0:
448,192,180056,128,0,181556:0:0:0:0:
