osu file format v14

[General]
AudioFilename: audio.mp3
AudioLeadIn: 0
PreviewTime: 46932
Countdown: 0
SampleSet: Soft
StackLeniency: 0.6
Mode: 0
LetterboxInBreaks: 0
WidescreenStoryboard: 0

[Editor]
Bookmarks: 47102,68920,153466
DistanceSpacing: 1.4
BeatDivisor: 4
GridSize: 4
TimelineZoom: 1

[Metadata]
Title:Lullaby
TitleUnicode:Lullaby
Artist:Dreamcatcher
ArtistUnicode:드림캐쳐
Creator:Natsu
Version:Firetruck's Advanced
Source:
Tags:Nightmare kpop k-pop 지유 수아 시연 한동 유현 다미 가현 Ji-U Su-A SiYeon Handong YooHyun DaMi Gahyeon Happy Face Entertainment firetruck euny
BeatmapID:1349804
BeatmapSetID:605622

[Difficulty]
HPDrainRate:4
CircleSize:3.5
OverallDifficulty:5
ApproachRate:6
SliderMultiplier:2.4
SliderTickRate:1

[Events]
//Background and Video events
0,0,"KakaoTalk_20170825_042442057.jpg",0,0
//Break Periods
2,153666,163250
//Storyboard Layer 0 (Background)
//Storyboard Layer 1 (Fail)
//Storyboard Layer 2 (Pass)
//Storyboard Layer 3 (Foreground)
//Storyboard Sound Samples

[TimingPoints]
739,681.818181818182,4,2,1,10,1,0
739,-133.333333333333,4,2,1,10,0,0
8920,-133.333333333333,4,2,1,5,0,0
11648,-133.333333333333,4,2,1,10,0,0
12329,-133.333333333333,4,2,1,25,0,0
13182,-133.333333333333,4,2,1,5,0,0
13352,-133.333333333333,4,2,1,25,0,0
14716,-133.333333333333,4,2,1,5,0,0
14886,-133.333333333333,4,2,1,25,0,0
15227,-133.333333333333,4,2,1,5,0,0
15398,-133.333333333333,4,2,1,25,0,0
17954,-133.333333333333,4,2,1,5,0,0
18125,-133.333333333333,4,2,1,25,0,0
18466,-133.333333333333,4,2,1,5,0,0
18636,-133.333333333333,4,2,1,25,0,0
20170,-133.333333333333,4,2,1,5,0,0
20341,-133.333333333333,4,2,1,25,0,0
21534,-133.333333333333,4,2,1,5,0,0
21704,-133.333333333333,4,2,1,25,0,0
24091,-133.333333333333,4,2,1,5,0,0
24261,-133.333333333333,4,2,1,25,0,0
26136,-133.333333333333,4,2,1,5,0,0
26307,-133.333333333333,4,2,1,25,0,0
32443,-133.333333333333,4,2,1,5,0,0
32784,-133.333333333333,4,2,1,25,0,0
33125,-133.333333333333,4,2,1,5,0,0
33466,-133.333333333333,4,2,1,25,0,0
36364,-133.333333333333,4,2,1,5,0,0
36704,-133.333333333333,4,2,1,25,0,0
38579,-133.333333333333,4,2,1,5,0,0
38750,-133.333333333333,4,2,1,25,0,0
41818,-133.333333333333,4,2,1,5,0,0
41989,-133.333333333333,4,2,1,10,0,0
42159,-133.333333333333,4,2,1,25,0,0
44716,-133.333333333333,4,2,1,5,0,0
44886,-133.333333333333,4,2,1,25,0,0
45057,-133.333333333333,4,2,1,5,0,0
45398,-133.333333333333,4,2,1,25,0,0
47102,-133.333333333333,4,2,1,35,0,0
50852,-133.333333333333,4,2,1,5,0,0
51193,-133.333333333333,4,2,1,35,0,0
51534,-133.333333333333,4,2,1,5,0,0
51704,-133.333333333333,4,2,1,35,0,0
56818,-133.333333333333,4,2,1,5,0,0
57159,-133.333333333333,4,2,1,35,0,0
62443,-133.333333333333,4,2,1,5,0,0
62784,-133.333333333333,4,2,1,35,0,0
63636,-133.333333333333,4,2,1,5,0,0
63807,-133.333333333333,4,2,1,35,0,0
68920,-133.333333333333,4,2,1,45,0,0
74375,-133.333333333333,4,2,1,45,0,0
74716,-133.333333333333,4,2,1,5,0,0
74886,-133.333333333333,4,2,1,45,0,0
87159,-133.333333333333,4,2,1,5,0,0
87329,-133.333333333333,4,2,1,45,0,0
96193,-133.333333333333,4,2,1,55,0,0
107102,-133.333333333333,4,2,1,55,0,0
107443,-133.333333333333,4,2,1,5,0,0
107614,-133.333333333333,4,2,1,35,0,0
107784,-133.333333333333,4,2,1,5,0,0
108125,-133.333333333333,4,2,1,25,0,0
109829,-100,4,2,1,65,0,1
131648,-133.333333333333,4,2,1,35,0,0
131989,-133.333333333333,4,2,1,5,0,0
132329,-133.333333333333,4,2,1,35,0,0
133352,-133.333333333333,4,2,1,5,0,0
133523,-133.333333333333,4,2,1,35,0,0
133864,-133.333333333333,4,2,1,5,0,0
134034,-133.333333333333,4,2,1,35,0,0
134716,-133.333333333333,4,2,1,5,0,0
134886,-133.333333333333,4,2,1,35,0,0
136079,-133.333333333333,4,2,1,5,0,0
136420,-133.333333333333,4,2,1,35,0,0
137443,-133.333333333333,4,2,1,5,0,0
137784,-133.333333333333,4,2,1,35,0,0
141704,-133.333333333333,4,2,1,45,0,0
142557,-133.333333333333,4,2,1,55,0,0
148352,-133.333333333333,4,2,1,15,0,0
149716,-133.333333333333,4,2,1,5,0,0
150057,-133.333333333333,4,2,1,45,0,0
150739,-133.333333333333,4,2,1,20,0,0
153466,-133.333333333333,4,2,1,45,0,0
164375,-100,4,2,1,65,0,1
186023,-100,4,2,1,5,0,1
186193,-133.333333333333,4,2,1,25,0,0

[Colours]
Combo1 : 176,255,255
Combo2 : 255,190,125
Combo3 : 132,132,255
Combo4 : 255,157,206
Combo5 : 149,255,149
Combo6 : 255,255,155

[HitObjects]
41,97,739,6,0,L|148:85,1,90.0000034332277,2|0,0:0|0:0,0:0:0:0:
176,50,1250,2,0,P|173:100|214:148,1,90.0000034332277,2|2,0:0|0:0,0:0:0:0:
293,72,1932,1,2,0:0:0:0:
293,72,2102,2,0,L|290:178,1,90.0000034332277,2|0,0:0|0:0,0:0:0:0:
337,269,2784,1,0,0:0:0:0:
337,269,2954,2,0,L|276:261,2,45.0000017166138,2|2|2,0:0|0:0|0:0,0:0:0:0:
381,307,3466,6,0,L|394:207,1,90.0000034332277,2|0,0:0|0:0,0:0:0:0:
403,160,3977,1,0,0:0:0:0:
455,55,4318,2,0,L|512:59,2,45.0000017166138,2|2|2,0:0|0:0|0:0,0:0:0:0:
396,59,4829,2,0,L|272:52,1,90.0000034332277,2|0,0:0|0:0,0:0:0:0:
247,46,5341,1,2,0:0:0:0:
183,143,5682,2,0,L|178:198,1,45.0000017166138,2|2,0:0|0:0,0:0:0:0:
209,300,6193,6,0,L|305:291,1,90.0000034332277,2|0,0:0|0:0,0:0:0:0:
351,316,6704,1,2,0:0:0:0:
418,220,7045,1,2,0:0:0:0:
335,64,7557,2,0,P|276:53|229:60,1,90.0000034332277,2|2,0:0|0:0,0:0:0:0:
201,93,8068,1,0,0:0:0:0:
201,93,8239,2,0,L|197:157,1,45.0000017166138,2|0,0:0|0:0,0:0:0:0:
211,194,8579,2,0,L|207:258,1,45.0000017166138,2|0,0:0|0:0,0:0:0:0:
256,192,8920,12,2,11648,0:0:0:0:
57,86,12329,6,0,L|158:75,1,90.0000034332277
196,44,12841,2,0,P|187:103|248:168,1,135.000005149841,0|2,0:0|0:0,0:0:0:0:
334,107,13693,1,0,0:0:0:0:
392,208,14034,1,0,0:0:0:0:
346,315,14375,6,0,P|297:326|246:313,1,90.0000034332277,2|0,0:0|0:0,0:0:0:0:
206,291,14886,2,0,P|157:280|106:293,1,90.0000034332277,2|0,0:0|0:0,0:0:0:0:
70,321,15398,1,0,0:0:0:0:
70,321,16761,2,0,L|68:262,1,45.0000017166138
49,220,17102,6,0,P|97:226|145:211,1,90.0000034332277,2|0,0:0|0:0,0:0:0:0:
185,182,17614,2,0,L|188:300,1,90.0000034332277,2|0,0:0|0:0,0:0:0:0:
166,326,18125,2,0,B|256:295|255:343|345:317,1,180.000006866455
438,248,19148,1,0,0:0:0:0:
434,131,19489,1,2,0:0:0:0:
317,134,19829,6,0,P|269:140|224:126,1,90.0000034332277,2|2,0:0|0:0,0:0:0:0:
128,68,20511,2,0,L|128:189,1,90.0000034332277,0|2,0:0|0:0,0:0:0:0:
89,268,21193,2,0,P|136:276|194:266,1,90.0000034332277
216,314,21704,2,0,L|216:194,1,90.0000034332277
213,165,22216,1,0,0:0:0:0:
133,79,22557,6,0,L|248:68,1,90.0000034332277,2|0,0:0|0:0,0:0:0:0:
315,142,23239,2,0,P|359:125|424:131,1,90.0000034332277,0|2,0:0|0:0,0:0:0:0:
445,86,23750,2,0,L|446:241,1,135.000005149841
389,323,24602,1,2,0:0:0:0:
304,242,24943,1,2,0:0:0:0:
212,314,25284,6,0,L|122:319,1,90.0000034332277,2|2,0:0|0:0,0:0:0:0:
71,348,25795,2,0,P|81:304|66:239,1,90.0000034332277,0|2,0:0|0:0,0:0:0:0:
49,206,26307,1,0,0:0:0:0:
49,206,27670,2,0,L|103:204,1,45.0000017166138
147,228,28011,6,0,P|137:182|153:134,1,90.0000034332277,2|0,0:0|0:0,0:0:0:0:
120,89,28523,2,0,L|239:79,1,90.0000034332277,2|0,0:0|0:0,0:0:0:0:
268,77,29034,1,2,0:0:0:0:
281,193,29375,2,0,P|268:240|282:304,1,90.0000034332277,0|2,0:0|0:0,0:0:0:0:
239,328,29886,2,0,L|354:317,1,90.0000034332277,0|2,0:0|0:0,0:0:0:0:
387,312,30398,1,0,0:0:0:0:
474,233,30739,6,0,P|482:188|473:134,1,90.0000034332277,2|2,0:0|0:0,0:0:0:0:
452,95,31250,1,2,0:0:0:0:
289,169,31761,1,2,0:0:0:0:
336,279,32102,2,0,L|235:282,1,90.0000034332277
147,346,32784,2,0,L|46:349,1,90.0000034332277
16,239,33466,5,2,0:0:0:0:
90,149,33807,2,0,P|90:118|95:88,1,45.0000017166138
50,62,34148,2,0,L|172:50,1,90.0000034332277,0|2,0:0|0:0,0:0:0:0:
196,65,34659,1,0,0:0:0:0:
306,26,35000,1,0,0:0:0:0:
360,129,35341,2,0,L|358:235,1,90.0000034332277,2|0,0:0|0:0,0:0:0:0:
316,328,36023,6,0,B|205:295|205:362|90:327,1,225.000008583069,0|2,0:0|0:0,0:0:0:0:
158,164,37386,1,0,0:0:0:0:
158,164,37557,2,0,L|156:90,2,45.0000017166138
144,221,38068,1,0,0:0:0:0:
144,221,38239,2,0,P|192:209|255:227,1,90.0000034332277,2|0,0:0|0:0,0:0:0:0:
272,173,38750,6,0,L|273:291,1,90.0000034332277
266,321,39261,2,0,P|238:318|212:320,1,45.0000017166138
170,347,39602,2,0,L|62:345,1,90.0000034332277,0|2,0:0|0:0,0:0:0:0:
21,353,40114,2,0,P|34:309|22:260,1,90.0000034332277
15,149,40795,1,2,0:0:0:0:
106,76,41136,1,0,0:0:0:0:
195,150,41477,6,0,B|224:218|174:221|205:295,1,135.000005149841
222,336,42159,1,2,0:0:0:0:
346,211,42670,1,2,0:0:0:0:
346,211,43693,6,0,L|345:300,1,90.0000034332277,2|2,0:0|0:0,0:0:0:0:
247,365,44375,2,0,P|189:346|143:267,2,135.000005149841,2|0|2,0:0|0:0|0:0,0:0:0:0:
247,365,47102,6,0,P|239:321|255:271,1,90.0000034332277,2|2,0:0|0:0,0:0:0:0:
295,239,47614,2,0,L|180:236,1,90.0000034332277,2|2,0:0|0:0,0:0:0:0:
112,307,48295,2,0,P|109:263|117:201,1,90.0000034332277,2|0,0:0|0:0,0:0:0:0:
206,147,48977,2,0,P|209:191|201:253,1,90.0000034332277,2|0,0:0|0:0,0:0:0:0:
241,347,49659,1,0,0:0:0:0:
241,347,49829,6,0,B|281:329|283:357|347:339,1,90.0000034332277,2|0,0:0|0:0,0:0:0:0:
387,355,50341,1,0,0:0:0:0:
387,355,50511,2,0,L|387:260,1,90.0000034332277,2|0,0:0|0:0,0:0:0:0:
467,180,51193,2,0,P|472:140|463:87,1,90.0000034332277,2|0,0:0|0:0,0:0:0:0:
363,30,51875,1,0,0:0:0:0:
363,30,52045,2,0,L|289:34,1,45.0000017166138
235,116,52557,5,2,0:0:0:0:
128,66,52898,1,0,0:0:0:0:
128,66,53068,2,0,P|118:113|133:169,1,90.0000034332277,2|2,0:0|0:0,0:0:0:0:
81,262,53750,2,0,L|192:256,1,90.0000034332277,2|0,0:0|0:0,0:0:0:0:
282,293,54432,2,0,P|275:243|296:185,1,90.0000034332277,2|0,0:0|0:0,0:0:0:0:
420,94,55284,6,0,B|292:84,1,90.0000034332277,2|0,0:0|0:0,0:0:0:0:
278,59,55795,2,0,P|283:110|266:166,1,90.0000034332277,0|2,0:0|0:0,0:0:0:0:
219,251,56477,2,0,B|252:233|289:236|307:254|307:254|332:243|359:243|368:254,1,135.000005149841
392,282,57159,2,0,L|448:278,1,45.0000017166138,0|2,0:0|0:0,0:0:0:0:
486,173,57670,1,2,0:0:0:0:
391,104,58011,5,2,0:0:0:0:
310,189,58352,1,0,0:0:0:0:
310,189,58523,2,0,P|314:238|294:294,1,90.0000034332277,2|2,0:0|0:0,0:0:0:0:
270,107,59375,2,0,L|385:98,1,90.0000034332277,2|2,0:0|0:0,0:0:0:0:
408,67,59886,2,0,P|406:126|437:178,1,90.0000034332277,2|2,0:0|0:0,0:0:0:0:
450,202,60398,1,0,0:0:0:0:
393,304,60739,6,0,P|337:284|276:293,1,90.0000034332277,2|2,0:0|0:0,0:0:0:0:
262,322,61250,2,0,L|260:204,1,90.0000034332277,2|2,0:0|0:0,0:0:0:0:
181,145,61932,1,0,0:0:0:0:
181,145,62102,2,0,P|222:129|283:135,1,90.0000034332277,2|0,0:0|0:0,0:0:0:0:
375,176,62784,2,0,L|441:170,2,45.0000017166138,2|0|0,0:0|0:0|0:0,0:0:0:0:
342,225,63295,6,0,P|263:219|206:254,1,135.000005149841
173,284,63977,2,0,L|172:173,1,90.0000034332277,2|2,0:0|0:0,0:0:0:0:
129,84,64659,1,2,0:0:0:0:
129,84,64829,2,0,P|175:91|237:76,1,90.0000034332277,2|0,0:0|0:0,0:0:0:0:
272,62,65341,2,0,L|271:133,1,45.0000017166138,2|2,0:0|0:0,0:0:0:0:
343,267,66023,5,2,0:0:0:0:
343,267,66193,2,0,L|242:268,1,90.0000034332277,2|0,0:0|0:0,0:0:0:0:
206,303,66704,2,0,L|207:189,1,90.0000034332277,2|0,0:0|0:0,0:0:0:0:
210,154,67216,1,2,0:0:0:0:
210,154,68920,5,8,1:2:0:0:
290,69,69261,2,0,L|360:66,2,45.0000017166138,0|8|8,1:0|0:0|1:3,0:0:0:0:
210,154,69943,2,0,L|205:215,1,45.0000017166138,0|0,1:0|1:0,0:0:0:0:
225,254,70284,2,0,L|220:315,1,45.0000017166138,0|0,1:0|1:0,0:0:0:0:
217,357,70625,1,8,1:2:0:0:
316,296,70966,2,0,L|322:186,1,90.0000034332277,0|0,1:3|1:0,0:0:0:0:
363,165,71477,1,0,0:0:0:0:
363,165,71648,6,0,P|312:164|269:138,1,90.0000034332277,8|8,1:2|1:0,0:0:0:0:
232,109,72159,1,8,1:2:0:0:
232,109,72329,2,0,L|121:104,1,90.0000034332277,8|8,1:3|1:2,0:0:0:0:
87,81,72841,2,0,P|100:150|82:191,1,90.0000034332277,8|8,1:0|1:0,0:0:0:0:
63,216,73352,2,0,L|187:212,1,90.0000034332277,8|12,1:2|1:3,0:0:0:0:
204,185,73864,1,0,0:0:0:0:
336,66,74375,6,0,P|331:122|345:166,1,90.0000034332277,12|0,0:0|0:0,0:0:0:0:
348,212,74886,2,0,L|289:215,1,45.0000017166138,8|8,0:0|0:3,0:0:0:0:
211,288,75398,1,0,0:0:0:0:
133,200,75739,2,0,P|142:155|126:106,1,90.0000034332277,2|8,0:0|0:0,0:0:0:0:
221,39,76420,2,0,P|258:40|277:37,1,45.0000017166138,8|2,0:3|0:0,0:0:0:0:
320,61,76761,2,0,P|357:60|376:63,1,45.0000017166138,8|2,0:3|0:0,0:0:0:0:
418,36,77102,6,0,L|417:135,1,90.0000034332277,10|0,0:0|0:0,0:0:0:0:
460,235,77784,1,8,0:3:0:0:
369,309,78125,1,0,0:0:0:0:
302,212,78466,2,0,L|252:211,2,45.0000017166138,0|0|10,0:0|0:0|0:0,0:0:0:0:
369,309,79148,1,10,0:3:0:0:
269,370,79489,1,0,0:0:0:0:
184,289,79829,6,0,P|136:291|82:271,1,90.0000034332277,8|2,0:0|0:0,0:0:0:0:
37,284,80341,2,0,L|44:225,1,45.0000017166138,8|8,0:0|0:3,0:0:0:0:
23,123,80852,1,2,0:0:0:0:
137,145,81193,2,0,L|246:139,1,90.0000034332277,0|10,0:0|0:0,0:0:0:0:
271,178,81704,2,0,L|315:172,1,45.0000017166138,0|8,0:0|0:3,0:0:0:0:
431,153,82216,2,0,P|434:121|430:99,1,45.0000017166138,2|0,0:0|0:0,0:0:0:0:
466,60,82557,6,0,L|363:50,1,90.0000034332277,8|0,0:0|0:0,0:0:0:0:
320,68,83068,1,10,0:0:0:0:
320,68,83239,2,0,P|271:77|209:64,1,90.0000034332277,8|0,0:3|0:0,0:0:0:0:
116,51,83920,1,0,0:0:0:0:
142,164,84261,2,0,L|136:215,1,45.0000017166138,8|0,0:0|0:0,0:0:0:0:
157,263,84602,2,0,L|151:314,2,45.0000017166138,8|0|0,0:0|0:0|0:0,0:0:0:0:
254,197,85284,5,10,0:0:0:0:
346,269,85625,2,0,L|406:262,1,45.0000017166138,0|10,0:0|0:0,0:0:0:0:
449,257,85966,1,8,0:3:0:0:
477,143,86307,1,0,0:0:0:0:
369,97,86648,2,0,P|341:102|308:91,1,45.0000017166138,0|8,0:0|0:0,0:0:0:0:
271,73,86989,2,0,L|202:83,1,45.0000017166138,8|10,0:0|0:3,0:0:0:0:
183,119,87329,2,0,L|114:129,1,45.0000017166138,8|2,0:0|0:3,0:0:0:0:
80,133,87670,1,0,0:0:0:0:
44,244,88011,5,10,0:0:0:0:
146,301,88352,2,0,P|177:295|210:294,1,45.0000017166138,2|8,0:0|0:0,0:0:0:0:
244,317,88693,1,8,0:3:0:0:
353,276,89034,2,0,P|345:230|358:184,1,90.0000034332277,2|0,0:0|0:0,0:0:0:0:
329,74,89716,1,10,0:0:0:0:
230,137,90057,1,8,0:3:0:0:
230,137,90227,2,0,L|173:135,2,45.0000017166138
285,157,90739,6,0,P|267:211|285:269,1,90.0000034332277,12|0,0:0|0:0,0:0:0:0:
235,289,91250,2,0,L|347:286,1,90.0000034332277,8|2,0:0|0:0,0:0:0:0:
379,308,91761,2,0,P|375:268|386:234,1,45.0000017166138,2|0,0:0|0:0,0:0:0:0:
419,225,92102,2,0,L|422:105,1,90.0000034332277,0|10,0:0|0:0,0:0:0:0:
346,44,92784,2,0,L|286:38,1,45.0000017166138,8|2,0:3|0:0,0:0:0:0:
246,60,93125,2,0,L|176:55,1,45.0000017166138
145,37,93466,6,0,P|159:99|136:149,1,90.0000034332277,12|2,0:0|0:0,0:0:0:0:
124,174,93977,2,0,P|110:236|134:284,1,90.0000034332277,10|0,0:0|0:0,0:0:0:0:
120,318,94489,2,0,L|189:309,1,45.0000017166138,2|0,0:0|0:0,0:0:0:0:
221,324,94829,2,0,L|328:308,1,90.0000034332277,0|10,0:0|0:0,0:0:0:0:
402,238,95511,1,12,0:3:0:0:
362,127,95852,1,2,0:0:0:0:
260,185,96193,6,0,P|212:189|168:171,1,90.0000034332277,6|2,0:0|0:0,0:0:0:0:
119,150,96704,1,8,0:0:0:0:
119,150,96875,2,0,L|118:220,1,60,8|0,0:3|0:0,0:0:0:0:
83,301,97386,1,2,0:0:0:0:
83,301,97557,2,0,P|128:293|181:302,1,90.0000034332277,2|0,0:0|0:0,0:0:0:0:
215,337,98068,2,0,L|215:225,1,90.0000034332277,2|2,0:0|0:0,0:0:0:0:
278,148,98750,1,0,0:0:0:0:
278,148,98920,2,0,B|212:130|211:171|139:142,1,135.000005149841,6|0,0:0|0:0,0:0:0:0:
90,125,99602,1,8,0:3:0:0:
38,292,100114,1,0,0:0:0:0:
38,292,100284,6,0,P|68:286|97:290,1,45.0000017166138,2|0,0:0|0:0,0:0:0:0:
138,303,100625,2,0,P|166:306|188:303,1,45.0000017166138,8|0,0:0|0:0,0:0:0:0:
229,339,100966,2,0,L|237:212,1,90.0000034332277,10|2,0:3|0:0,0:0:0:0:
240,190,101477,1,0,0:0:0:0:
240,190,101648,1,0,0:0:0:0:
150,114,101989,2,0,L|147:179,1,45.0000017166138,2|8,0:0|0:0,0:0:0:0:
116,207,102329,2,0,L|114:267,1,45.0000017166138,8|0,0:3|0:0,0:0:0:0:
178,350,102841,1,0,0:0:0:0:
178,350,103011,6,0,P|235:334|302:350,1,90.0000034332277,2|0,0:0|0:0,0:0:0:0:
323,345,103523,2,0,P|312:286|328:242,1,90.0000034332277,0|2,0:0|0:0,0:0:0:0:
364,149,104204,1,0,0:0:0:0:
364,149,104375,2,0,L|243:142,1,90.0000034332277,10|2,0:0|0:0,0:0:0:0:
225,176,104886,2,0,L|157:177,1,45.0000017166138,0|8,0:0|0:3,0:0:0:0:
133,141,105227,2,0,L|62:139,1,45.0000017166138,2|0,0:0|0:0,0:0:0:0:
40,115,105568,1,0,0:0:0:0:
40,115,105739,6,0,P|50:169|33:218,1,90.0000034332277,2|8,0:0|0:0,0:0:0:0:
22,317,106420,1,8,0:3:0:0:
123,259,106761,1,2,0:0:0:0:
229,309,107102,2,0,L|398:295,1,157.500006008148,12|0,0:0|0:0,0:0:0:0:
500,162,108210,2,0,B|440:138|392:174|392:174|350:131|264:152,1,247.500009441376
36,361,109829,6,0,P|51:310|31:242,1,120,6|0,0:0|0:0,0:0:0:0:
41,167,110341,2,0,P|98:181|155:165,1,120,8|2,0:0|0:0,0:0:0:0:
56,44,111023,1,2,0:0:0:0:
210,19,111364,1,2,0:0:0:0:
155,165,111704,1,0,0:0:0:0:
301,110,112045,1,0,0:0:0:0:
436,187,112386,1,2,0:0:0:0:
436,187,112557,6,0,L|435:320,1,120,6|0,0:0|0:0,0:0:0:0:
380,363,113068,1,2,0:0:0:0:
380,363,113239,2,0,P|322:348|263:358,1,120,8|2,0:3|0:0,0:0:0:0:
115,306,113920,2,0,L|111:176,1,120,2|8,0:0|0:0,0:0:0:0:
103,107,114432,2,0,L|223:104,1,120,0|8,0:0|0:0,0:0:0:0:
278,158,114943,2,0,L|398:155,1,120,2|12,0:0|0:0,0:0:0:0:
498,35,115625,5,2,0:0:0:0:
498,35,115795,2,0,P|484:96|507:166,1,120,8|2,0:0|0:0,0:0:0:0:
440,296,116477,2,0,L|320:303,1,120,2|0,0:0|0:0,0:0:0:0:
174,361,117159,1,2,0:0:0:0:
213,210,117500,1,0,0:0:0:0:
402,73,118011,6,0,P|335:53|270:71,1,120,10|0,0:0|0:0,0:0:0:0:
241,126,118523,2,0,L|97:119,1,120,10|2,0:0|0:0,0:0:0:0:
6,14,119204,1,0,0:0:0:0:
6,14,119375,2,0,P|20:69|-1:144,1,120,2|8,0:0|0:0,0:0:0:0:
13,207,119886,2,0,L|91:210,1,60,0|8,0:0|0:3,0:0:0:0:
206,291,120398,1,2,0:0:0:0:
285,156,120739,5,12,0:0:0:0:
422,228,121079,1,2,0:0:0:0:
422,228,121250,2,0,P|435:172|419:108,1,120,8|0,0:0|0:0,0:0:0:0:
274,58,121932,1,0,0:0:0:0:
274,58,122102,2,0,L|148:51,1,120,2|8,0:0|0:0,0:0:0:0:
86,91,122614,2,0,P|87:120|81:150,1,60,0|8,0:0|0:3,0:0:0:0:
32,211,122954,1,2,0:0:0:0:
226,342,123466,6,0,L|363:337,1,120,12|0,0:0|0:0,0:0:0:0:
419,364,123977,2,0,P|402:306|416:249,1,120,10|2,0:0|0:0,0:0:0:0:
483,108,124659,1,2,0:0:0:0:
483,108,124829,2,0,B|400:82|402:138|297:104,1,180
227,106,125511,2,0,L|235:37,2,60,8|8|0,0:3|0:0|0:0,0:0:0:0:
161,149,126023,6,0,P|127:152|90:143,1,60,0|12,0:0|0:0,0:0:0:0:
40,290,126534,1,0,0:0:0:0:
40,290,126704,2,0,L|222:277,1,180,8|0,0:0|0:0,0:0:0:0:
277,224,127386,2,0,P|265:296|300:345,1,120,2|0,0:0|0:0,0:0:0:0:
365,337,127898,2,0,L|432:336,1,60,8|0,0:0|0:0,0:0:0:0:
487,289,128239,1,12,0:3:0:0:
339,107,128750,1,0,0:0:0:0:
339,107,128920,6,0,L|210:96,1,120,12|8,0:0|0:1,0:0:0:0:
158,47,129432,2,0,P|165:105|144:161,1,120,8|0,0:0|0:0,0:0:0:0:
125,237,129943,2,0,B|173:210|205:214|205:214|233:231|233:231|246:217|266:208|266:208|292:223|319:224,1,180,2|8,0:0|0:1,0:0:0:0:
348,264,130625,2,0,L|418:250,1,60,8|12,0:1|0:1,0:0:0:0:
402,174,130966,2,0,L|472:160,1,60,8|0,0:1|0:1,0:0:0:0:
329,45,131648,6,0,L|209:46,1,90.0000034332277,2|0,0:0|0:0,0:0:0:0:
261,160,132329,1,0,0:0:0:0:
185,249,132670,1,0,0:0:0:0:
80,196,133011,2,0,P|86:150|71:101,1,90.0000034332277,2|0,0:0|0:0,0:0:0:0:
32,66,133523,2,0,L|143:59,1,90.0000034332277,2|0,0:0|0:0,0:0:0:0:
180,63,134034,1,2,0:0:0:0:
281,120,134375,6,0,L|275:253,1,90.0000034332277,2|0,0:0|0:0,0:0:0:0:
308,259,134886,2,0,P|255:244|196:259,1,90.0000034332277,2|2,0:0|0:0,0:0:0:0:
174,284,135398,1,0,0:0:0:0:
56,294,135739,2,0,B|52:245|74:222|74:222|69:202|55:182|55:182|62:152|47:106,1,180.000006866455,2|2,0:0|0:0,0:0:0:0:
265,36,137102,6,0,P|274:88|258:145,1,90.0000034332277,2|0,0:0|0:0,0:0:0:0:
252,240,137784,1,0,0:0:0:0:
157,171,138125,1,2,0:0:0:0:
59,236,138466,2,0,L|61:342,1,90.0000034332277,2|0,0:0|0:0,0:0:0:0:
101,368,138977,2,0,P|156:347|220:356,1,90.0000034332277,2|0,0:0|0:0,0:0:0:0:
244,360,139489,1,2,0:0:0:0:
314,266,139829,6,0,P|309:197|362:142,2,135.000005149841,2|2|2,0:0|0:0|0:0,0:0:0:0:
244,360,141193,1,4,0:0:0:0:
152,210,141704,2,0,L|152:149,1,45.0000017166138,8|8,0:1|0:1,0:0:0:0:
225,73,142216,1,2,0:0:0:0:
309,154,142557,5,6,0:0:0:0:
345,265,142898,2,0,L|265:264,1,45.0000017166138,2|8,0:0|0:0,0:0:0:0:
250,296,143239,2,0,L|173:298,1,45.0000017166138,8|2,0:3|0:0,0:0:0:0:
152,323,143579,1,0,0:0:0:0:
65,244,143920,2,0,P|77:200|59:149,1,90.0000034332277,2|8,0:0|0:0,0:0:0:0:
42,103,144432,2,0,L|112:95,1,45.0000017166138,0|8,0:0|0:3,0:0:0:0:
144,86,144773,1,2,0:0:0:0:
245,144,145114,1,0,0:0:0:0:
245,144,145284,6,0,P|273:168|355:168,1,90.0000034332277,8|0,0:0|0:0,0:0:0:0:
436,142,145966,1,8,0:0:0:0:
443,258,146307,2,0,L|366:258,1,45.0000017166138,2|8,0:0|0:1,0:0:0:0:
350,293,146648,2,0,L|230:291,1,90.0000034332277,2|8,0:0|0:0,0:0:0:0:
203,308,147159,2,0,P|216:260|198:205,1,90.0000034332277,2|8,0:0|0:1,0:0:0:0:
196,46,148011,6,0,B|236:47|259:39|259:39|283:36|307:48|307:48|339:38|371:38|371:38|379:82|376:116|335:143|335:143|357:165|379:171|379:171|352:201|341:224|341:224|351:241|350:257|350:257|345:282,1,450.000017166138,12|0,0:0|0:0,0:0:0:0:
431,340,150057,1,2,0:0:0:0:
431,340,150398,1,2,0:0:0:0:
256,192,150739,12,2,153466,0:0:0:0:
467,295,164375,6,0,L|339:300,1,120,6|0,0:0|0:0,0:0:0:0:
284,348,164886,2,0,P|295:294|266:225,1,120,8|2,0:0|0:0,0:0:0:0:
220,112,165568,1,2,0:0:0:0:
116,192,165909,1,0,0:0:0:0:
172,312,166250,1,2,0:0:0:0:
273,234,166591,1,0,0:0:0:0:
392,150,166932,1,0,0:0:0:0:
392,150,167102,6,0,P|417:218|401:275,1,120,12|0,0:0|0:0,0:0:0:0:
364,328,167614,1,8,0:0:0:0:
364,328,167784,2,0,L|242:324,1,120,8|2,0:3|0:0,0:0:0:0:
240,192,168466,2,0,P|260:134|244:78,1,120,2|8,0:0|0:0,0:0:0:0:
304,28,168977,2,0,P|246:43|191:23,1,120,0|8,0:0|0:0,0:0:0:0:
112,24,169489,1,2,0:0:0:0:
20,116,169829,5,12,0:0:0:0:
124,196,170170,1,2,0:0:0:0:
124,196,170341,2,0,L|121:327,1,120,2|2,0:0|0:0,0:0:0:0:
252,344,171023,2,0,P|308:331|374:343,1,120,2|0,0:0|0:0,0:0:0:0:
447,237,171704,1,2,0:0:0:0:
387,119,172045,1,0,0:0:0:0:
202,192,172557,6,0,P|140:208|85:172,1,120,12|2,0:0|0:0,0:0:0:0:
44,120,173068,2,0,L|44:251,1,120,8|2,0:0|0:0,0:0:0:0:
128,344,173750,1,0,0:0:0:0:
128,344,173921,2,0,L|261:335,1,120,2|8,0:0|0:0,0:0:0:0:
324,348,174432,2,0,L|402:351,1,60,2|12,0:0|0:3,0:0:0:0:
443,238,174943,1,2,0:0:0:0:
360,136,175284,5,12,0:0:0:0:
246,203,175625,1,2,0:0:0:0:
246,203,175795,2,0,P|186:185|126:195,1,120,8|2,0:0|0:0,0:0:0:0:
43,293,176477,1,0,0:0:0:0:
3,167,176818,1,0,0:0:0:0:
100,77,177159,2,0,L|234:77,1,120,2|2,0:0|0:0,0:0:0:0:
422,49,178011,6,0,P|402:100|427:183,1,120,12|0,0:0|0:0,0:0:0:0:
468,220,178523,2,0,L|334:212,1,120,2|2,0:0|0:0,0:0:0:0:
248,128,179204,1,2,0:0:0:0:
248,128,179375,2,0,P|257:189|234:248,1,120,0|8,0:0|0:0,0:0:0:0:
139,331,180057,2,0,L|73:318,2,60,12|8|0,0:3|0:0|0:0,0:0:0:0:
212,360,180568,1,0,0:0:0:0:
212,360,180739,6,0,L|359:364,1,120,12|2,0:0|0:0,0:0:0:0:
396,316,181250,2,0,P|391:262|429:203,1,120,8|2,0:0|0:0,0:0:0:0:
368,88,181932,1,2,0:0:0:0:
368,88,182102,2,0,L|240:84,1,120,0|8,0:0|0:0,0:0:0:0:
172,108,182614,2,0,L|104:106,1,60,0|12,0:0|0:3,0:0:0:0:
36,288,183295,1,0,0:0:0:0:
36,288,183466,6,0,P|110:272|169:287,1,120,12|8,0:0|0:1,0:0:0:0:
224,312,183977,2,0,L|354:307,1,120,8|0,0:0|0:0,0:0:0:0:
408,356,184489,2,0,B|380:272|432:274|403:175,1,180,2|8,0:0|0:1,0:0:0:0:
364,112,185170,2,0,L|294:112,1,60,8|8,0:1|0:1,0:0:0:0:
236,152,185511,2,0,L|166:152,1,60,12|8,0:1|0:1,0:0:0:0:
108,112,185852,1,0,0:0:0:0:
65,191,186193,6,0,B|85:207|117:207|117:207|61:263|61:263|89:263|113:283,1,180.000006866455,4|0,0:0|0:0,0:0:0:0:
221,139,187557,6,0,B|245:147|275:136|275:136|241:208|241:208|268:198|297:209,1,180.000006866455,4|0,0:0|0:0,0:0:0:0:
341,35,188920,6,0,B|366:34|391:13|391:13|384:92|384:92|405:74|436:74,1,180.000006866455,4|0,0:0|0:0,0:0:0:0:
493,15,189943,2,0,B|529:79|481:147|481:147|441:155|409:179|409:179|373:187|345:171,1,270.000010299683,0|4,0:0|0:0,0:0:0:0:
225,55,191648,6,0,P|169:123|177:219,1,180.000006866455
285,127,193011,2,0,B|253:115|229:131|229:207|257:227|293:215|293:231|313:247|313:247|333:231|333:215|369:227|397:207|397:131|373:115|341:127,1,360.000013732911
256,192,194460,12,0,197102,0:0:0:0:
