osu file format v14

[General]
AudioFilename: audio.mp3
AudioLeadIn: 0
PreviewTime: 46932
Countdown: 0
SampleSet: Soft
StackLeniency: 0.3
Mode: 0
LetterboxInBreaks: 0
WidescreenStoryboard: 0

[Editor]
DistanceSpacing: 1.4
BeatDivisor: 4
GridSize: 8
TimelineZoom: 1

[Metadata]
Title:Lullaby
TitleUnicode:Lullaby
Artist:Dreamcatcher
ArtistUnicode:드림캐쳐
Creator:Natsu
Version:Dreams
Source:
Tags:Nightmare kpop k-pop 지유 수아 시연 한동 유현 다미 가현 Ji-U Su-A SiYeon Handong YooHyun DaMi Gahyeon Happy Face Entertainment firetruck euny
BeatmapID:1279540
BeatmapSetID:605622

[Difficulty]
HPDrainRate:5
CircleSize:4
OverallDifficulty:6
ApproachRate:8
SliderMultiplier:2.8
SliderTickRate:1

[Events]
//Background and Video events
0,0,"KakaoTalk_20170825_042442057.jpg",0,0
//Break Periods
2,153665,163625
//Storyboard Layer 0 (Background)
//Storyboard Layer 1 (Fail)
//Storyboard Layer 2 (Pass)
//Storyboard Layer 3 (Foreground)
//Storyboard Sound Samples

[TimingPoints]
739,681.818181818182,4,2,1,10,1,0
739,-125,4,2,1,10,0,0
7386,-125,4,2,1,5,0,0
7557,-125,4,2,1,10,0,0
10284,-142.857142857143,4,2,1,10,0,0
12329,-125,4,2,1,25,0,0
13182,-125,4,2,1,5,0,0
13352,-125,4,2,1,25,0,0
14716,-125,4,2,1,5,0,0
14886,-125,4,2,1,25,0,0
15227,-125,4,2,1,5,0,0
15398,-125,4,2,1,25,0,0
15739,-125,4,2,1,5,0,0
16420,-125,4,2,1,25,0,0
17954,-125,4,2,1,5,0,0
18125,-125,4,2,1,25,0,0
20170,-125,4,2,1,5,0,0
20341,-125,4,2,1,25,0,0
21534,-125,4,2,1,5,0,0
21704,-125,4,2,1,25,0,0
24091,-125,4,2,1,5,0,0
24261,-125,4,2,1,25,0,0
26136,-125,4,2,1,5,0,0
26307,-125,4,2,1,25,0,0
26648,-125,4,2,1,5,0,0
27670,-125,4,2,1,25,0,0
32443,-125,4,2,1,5,0,0
32784,-125,4,2,1,25,0,0
33125,-125,4,2,1,5,0,0
33466,-125,4,2,1,25,0,0
35170,-125,4,2,1,5,0,0
35341,-125,4,2,1,25,0,0
35511,-125,4,2,1,5,0,0
35682,-125,4,2,1,25,0,0
37045,-125,4,2,1,5,0,0
37216,-125,4,2,1,25,0,0
38579,-125,4,2,1,5,0,0
38750,-125,4,2,1,25,0,0
40625,-125,4,2,1,5,0,0
40795,-125,4,2,1,25,0,0
40966,-125,4,2,1,5,0,0
41136,-125,4,2,1,25,0,0
41989,-125,4,2,1,10,0,0
42159,-125,4,2,1,25,0,0
42329,-125,4,2,1,5,0,0
42670,-125,4,2,1,25,0,0
44716,-125,4,2,1,5,0,0
44886,-125,4,2,1,25,0,0
45227,-125,4,2,1,5,0,0
45398,-125,4,2,1,25,0,0
45568,-125,4,2,1,5,0,0
47102,-111.111111111111,4,2,1,35,0,0
47273,-111.111111111111,4,2,1,5,0,0
47443,-111.111111111111,4,2,1,35,0,0
47784,-111.111111111111,4,2,1,5,0,0
47954,-111.111111111111,4,2,1,35,0,0
48125,-111.111111111111,4,2,1,5,0,0
48295,-111.111111111111,4,2,1,35,0,0
49148,-111.111111111111,4,2,1,5,0,0
49318,-111.111111111111,4,2,1,35,0,0
50852,-111.111111111111,4,2,1,5,0,0
51023,-111.111111111111,4,2,1,35,0,0
51534,-111.111111111111,4,2,1,5,0,0
51704,-111.111111111111,4,2,1,35,0,0
53239,-111.111111111111,4,2,1,5,0,0
53409,-111.111111111111,4,2,1,35,0,0
53579,-111.111111111111,4,2,1,5,0,0
53750,-111.111111111111,4,2,1,35,0,0
53920,-111.111111111111,4,2,1,5,0,0
54091,-111.111111111111,4,2,1,35,0,0
54602,-111.111111111111,4,2,1,5,0,0
54773,-111.111111111111,4,2,1,35,0,0
55454,-111.111111111111,4,2,1,5,0,0
55625,-111.111111111111,4,2,1,35,0,0
55966,-111.111111111111,4,2,1,5,0,0
56136,-111.111111111111,4,2,1,35,0,0
56989,-111.111111111111,4,2,1,5,0,0
57159,-111.111111111111,4,2,1,35,0,0
57500,-111.111111111111,4,2,1,5,0,0
57670,-111.111111111111,4,2,1,35,0,0
58693,-111.111111111111,4,2,1,5,0,0
58864,-111.111111111111,4,2,1,35,0,0
59204,-111.111111111111,4,2,1,5,0,0
59375,-111.111111111111,4,2,1,35,0,0
60057,-111.111111111111,4,2,1,5,0,0
60227,-111.111111111111,4,2,1,35,0,0
60398,-111.111111111111,4,2,1,5,0,0
60739,-111.111111111111,4,2,1,35,0,0
61420,-111.111111111111,4,2,1,5,0,0
61591,-111.111111111111,4,2,1,35,0,0
61761,-111.111111111111,4,2,1,5,0,0
61932,-111.111111111111,4,2,1,35,0,0
62443,-111.111111111111,4,2,1,5,0,0
62784,-111.111111111111,4,2,1,35,0,0
64148,-111.111111111111,4,2,1,5,0,0
64318,-111.111111111111,4,2,1,35,0,0
67557,-111.111111111111,4,2,1,10,0,0
68239,-111.111111111111,4,2,1,5,0,0
68920,-125,4,2,1,45,0,0
74375,-111.111111111111,4,2,1,45,0,0
74716,-111.111111111111,4,2,1,5,0,0
74886,-111.111111111111,4,2,1,45,0,0
75227,-111.111111111111,4,2,1,5,0,0
75398,-111.111111111111,4,2,1,45,0,0
75568,-111.111111111111,4,2,1,5,0,0
75739,-111.111111111111,4,2,1,45,0,0
79659,-111.111111111111,4,2,1,5,0,0
79829,-111.111111111111,4,2,1,45,0,0
80682,-111.111111111111,4,2,1,5,0,0
80852,-111.111111111111,4,2,1,45,0,0
82045,-111.111111111111,4,2,1,5,0,0
82216,-111.111111111111,4,2,1,45,0,0
85454,-111.111111111111,4,2,1,5,0,0
85625,-111.111111111111,4,2,1,45,0,0
87159,-111.111111111111,4,2,1,5,0,0
87329,-111.111111111111,4,2,1,45,0,0
87841,-111.111111111111,4,2,1,5,0,0
88011,-111.111111111111,4,2,1,45,0,0
88182,-111.111111111111,4,2,1,5,0,0
88352,-111.111111111111,4,2,1,45,0,0
90909,-111.111111111111,4,2,1,5,0,0
91079,-111.111111111111,4,2,1,45,0,0
96193,-100,4,2,1,55,0,0
107102,-125,4,2,1,55,0,0
107443,-125,4,2,1,5,0,0
107699,-142.857142857143,4,2,1,35,0,0
107954,-142.857142857143,4,2,1,5,0,0
108210,-166.666666666667,4,2,1,25,0,0
108295,-166.666666666667,4,2,1,5,0,0
109148,-166.666666666667,4,2,1,10,0,0
109829,-90.9090909090909,4,2,1,65,0,1
131477,-90.9090909090909,4,2,1,5,0,1
131648,-125,4,2,1,35,0,0
131989,-125,4,2,1,5,0,0
132159,-125,4,2,1,35,0,0
133352,-125,4,2,1,5,0,0
133523,-125,4,2,1,35,0,0
133864,-125,4,2,1,5,0,0
134034,-125,4,2,1,35,0,0
134204,-125,4,2,1,5,0,0
134375,-125,4,2,1,35,0,0
134716,-125,4,2,1,5,0,0
134886,-125,4,2,1,35,0,0
136079,-125,4,2,1,5,0,0
136420,-125,4,2,1,35,0,0
137443,-125,4,2,1,5,0,0
137784,-125,4,2,1,35,0,0
139148,-125,4,2,1,5,0,0
139489,-125,4,2,1,35,0,0
141704,-125,4,2,1,45,0,0
142557,-111.111111111111,4,2,1,55,0,0
147841,-111.111111111111,4,2,1,5,0,0
148011,-111.111111111111,4,2,1,55,0,0
148352,-111.111111111111,4,2,1,15,0,0
149716,-111.111111111111,4,2,1,5,0,0
150398,-111.111111111111,4,2,1,45,0,0
150568,-111.111111111111,4,2,1,5,0,0
150739,-111.111111111111,4,2,1,45,0,0
150909,-111.111111111111,4,2,1,5,0,0
151079,-111.111111111111,4,2,1,45,0,0
151761,-111.111111111111,4,2,1,5,0,0
152102,-111.111111111111,4,2,1,45,0,0
152443,-111.111111111111,4,2,1,15,0,0
153466,-111.111111111111,4,2,1,45,0,0
164375,-90.9090909090908,4,2,1,65,0,1
186023,-90.9090909090908,4,2,1,5,0,1
186193,-125,4,2,1,25,0,0
190114,-125,4,2,1,5,0,0
191648,-125,4,2,1,15,0,0
194375,-125,4,2,1,5,0,0

[Colours]
Combo1 : 176,255,255
Combo2 : 255,190,125
Combo3 : 132,132,255
Combo4 : 255,157,206
Combo5 : 149,255,149
Combo6 : 255,255,155

[HitObjects]
20,27,739,6,0,L|20:54,1,28,2|2,0:0|0:0,0:0:0:0:
18,264,1250,2,0,P|75:245|127:262,1,112,2|2,0:0|0:0,0:0:0:0:
256,361,1932,1,2,0:0:0:0:
256,361,2102,6,0,B|196:252|314:252|255:149,1,224,2|0,0:0|0:0,0:0:0:0:
186,101,2954,1,2,0:0:0:0:
115,147,3125,1,2,0:0:0:0:
107,63,3295,1,2,0:0:0:0:
59,224,3466,6,0,B|168:284|168:166|271:225,1,224,2|0,0:0|0:0,0:0:0:0:
329,283,4318,1,2,0:0:0:0:
380,349,4489,1,2,0:0:0:0:
413,272,4659,1,2,0:0:0:0:
294,358,4829,6,0,L|182:364,1,112,2|0,0:0|0:0,0:0:0:0:
108,284,5341,2,0,L|172:280,1,56,2|0,0:0|0:0,0:0:0:0:
248,272,5682,1,2,0:0:0:0:
300,208,5852,1,2,0:0:0:0:
300,208,6193,6,0,P|332:260|316:320,1,112,2|0,0:0|0:0,0:0:0:0:
392,356,6704,2,0,L|472:356,1,56,2|0,0:0|0:0,0:0:0:0:
323,307,7045,2,0,L|208:308,1,112,2|0,0:0|0:0,0:0:0:0:
141,200,7557,6,0,P|148:173|142:146,1,56,2|0,0:0|0:0,0:0:0:0:
171,67,7898,2,0,P|144:59|117:65,1,56,2|0,0:0|0:0,0:0:0:0:
38,33,8239,2,0,P|30:59|36:86,1,56,2|0,0:0|0:0,0:0:0:0:
10,166,8579,2,0,P|36:173|63:167,1,56,2|0,0:0|0:0,0:0:0:0:
171,67,8920,5,2,0:0:0:0:
72,196,10284,5,2,0:0:0:0:
73,215,10966,1,2,0:0:0:0:
76,237,11648,2,0,P|143:215|218:240,1,146.999995513916,2|2,0:0|0:0,0:0:0:0:
256,309,12329,5,0,0:0:0:0:
256,140,12670,1,0,0:0:0:0:
321,193,12841,2,0,P|373:212|430:191,1,112
488,140,13352,1,2,0:0:0:0:
448,303,13693,1,0,0:0:0:0:
321,193,14034,1,0,0:0:0:0:
491,248,14375,6,0,L|492:370,1,112,2|0,0:0|0:0,0:0:0:0:
409,335,14886,2,0,P|357:318|304:334,1,112,2|0,0:0|0:0,0:0:0:0:
224,362,15398,2,0,P|171:377|118:360,1,112
23,38,16420,1,2,0:0:0:0:
67,200,16761,6,0,L|84:265,1,56
0,166,17102,2,0,P|39:128|94:128,1,112,2|0,0:0|0:0,0:0:0:0:
0,166,17614,2,0,L|0:45,1,112,2|0,0:0|0:0,0:0:0:0:
94,128,18125,6,0,P|153:149|209:125,1,112
275,102,18636,2,0,L|275:166,1,56,0|2,0:0|0:0,0:0:0:0:
275,326,19148,1,0,0:0:0:0:
420,242,19489,1,2,0:0:0:0:
275,158,19829,6,0,L|276:331,1,168,2|2,0:0|0:0,0:0:0:0:
203,368,20511,1,0,0:0:0:0:
355,296,20852,1,2,0:0:0:0:
200,225,21193,6,0,P|149:203|98:224,1,112
0,306,21704,2,0,P|27:312|54:306,1,56,0|2,0:0|0:0,0:0:0:0:
200,225,22216,1,0,0:0:0:0:
51,138,22557,2,0,L|54:310,1,168,2|2,0:0|0:0,0:0:0:0:
2,372,23239,5,0,0:0:0:0:
126,260,23579,1,2,0:0:0:0:
149,342,23750,2,0,P|99:343|53:305,1,112
54,220,24261,1,0,0:0:0:0:
207,287,24602,1,2,0:0:0:0:
187,120,24943,1,2,0:0:0:0:
54,220,25284,6,0,P|107:242|165:217,1,112,2|2,0:0|0:0,0:0:0:0:
54,220,25795,2,0,L|45:343,1,112
107,161,26307,2,0,P|66:73|33:156,1,224,2|0,0:0|0:0,0:0:0:0:
297,343,27670,5,0,0:0:0:0:
368,299,27841,1,0,0:0:0:0:
295,256,28011,2,0,P|276:196|296:145,1,112,2|0,0:0|0:0,0:0:0:0:
295,256,28523,2,0,L|162:257,1,112,0|2,0:0|0:0,0:0:0:0:
98,256,29034,5,2,0:0:0:0:
242,341,29375,1,0,0:0:0:0:
242,172,29716,1,2,0:0:0:0:
193,240,29886,2,0,P|242:257|306:227,1,112,0|2,0:0|0:0,0:0:0:0:
242,172,30398,1,0,0:0:0:0:
191,332,30739,6,0,P|244:346|298:334,1,112,2|2,0:0|0:0,0:0:0:0:
349,267,31250,2,0,P|402:254|456:269,1,112,2|2,0:0|0:0,0:0:0:0:
508,335,31761,1,2,0:0:0:0:
437,182,32102,6,0,P|418:123|444:70,1,112
494,236,32784,2,0,B|386:192|386:296|279:237,1,224,2|2,0:0|0:0,0:0:0:0:
174,107,33807,5,0,0:0:0:0:
134,181,33977,1,0,0:0:0:0:
218,181,34148,1,0,0:0:0:0:
174,107,34318,2,0,L|167:46,1,56,0|2,0:0|0:0,0:0:0:0:
134,181,34659,6,0,L|141:242,1,56,0|2,0:0|0:0,0:0:0:0:
218,181,35000,2,0,L|227:253,1,56
302,179,35341,2,0,L|309:240,1,56,2|0,0:0|0:0,0:0:0:0:
386,179,35682,2,0,L|395:251,1,56,0|2,0:0|0:0,0:0:0:0:
404,317,36023,5,0,0:0:0:0:
332,360,36193,2,0,P|278:376|223:362,1,112,2|2,0:0|0:0,0:0:0:0:
183,289,36704,2,0,B|212:206|142:206|181:126,1,168,2|2,0:0|0:0,0:0:0:0:
260,152,37386,5,0,0:0:0:0:
309,85,37557,1,0,0:0:0:0:
260,17,37727,1,0,0:0:0:0:
180,43,37898,1,0,0:0:0:0:
180,127,38068,1,0,0:0:0:0:
309,85,38239,6,0,L|438:76,1,112,2|0,0:0|0:0,0:0:0:0:
505,155,38750,2,0,L|423:162,1,56,0|2,0:0|0:0,0:0:0:0:
281,175,39261,5,0,0:0:0:0:
335,238,39432,1,0,0:0:0:0:
252,249,39602,1,0,0:0:0:0:
281,175,39773,2,0,P|286:141|278:116,1,56,0|2,0:0|0:0,0:0:0:0:
252,249,40114,6,0,P|247:283|255:308,1,56,0|2,0:0|0:0,0:0:0:0:
320,352,40454,2,0,L|387:352,1,56
408,274,40795,2,0,P|413:240|405:215,1,56,2|0,0:0|0:0,0:0:0:0:
337,175,41136,2,0,L|270:175,1,56,0|2,0:0|0:0,0:0:0:0:
196,176,41477,5,0,0:0:0:0:
147,244,41648,2,0,P|114:187|165:101,2,168,2|2|2,0:0|0:0|0:0,0:0:0:0:
476,346,43693,6,0,P|450:352|423:346,1,56,2|2,0:0|0:0,0:0:0:0:
304,303,44034,2,0,P|330:296|357:302,1,56,2|2,0:0|0:0,0:0:0:0:
250,356,44375,6,0,P|228:303|256:245,1,112,2|0,0:0|0:0,0:0:0:0:
250,356,44886,2,0,L|127:356,1,112
0,310,45398,2,0,P|69:265|0:278,1,224,2|0,0:0|0:0,0:0:0:0:
421,309,47102,6,0,L|497:309,1,62.9999980773926,2|0,0:0|0:0,0:0:0:0:
360,355,47443,1,2,0:0:0:0:
299,288,47614,2,0,P|291:259|297:228,1,62.9999980773926,2|0,0:0|0:0,0:0:0:0:
336,103,47954,2,0,P|344:132|338:163,1,62.9999980773926,2|0,0:0|0:0,0:0:0:0:
230,192,48295,2,0,L|158:192,1,62.9999980773926,2|0,0:0|0:0,0:0:0:0:
21,192,48636,6,0,L|95:192,1,62.9999980773926,0|2,0:0|0:0,0:0:0:0:
162,274,48977,2,0,L|98:274,1,62.9999980773926,2|0,0:0|0:0,0:0:0:0:
167,191,49318,2,0,L|230:192,1,62.9999980773926,0|2,0:0|0:0,0:0:0:0:
392,193,49659,5,0,0:0:0:0:
322,139,49829,2,0,P|303:196|331:258,1,125.999996154785,2|0,0:0|0:0,0:0:0:0:
490,327,50341,5,2,0:0:0:0:
409,290,50511,1,2,0:0:0:0:
327,254,50682,2,0,L|251:254,1,62.9999980773926,2|0,0:0|0:0,0:0:0:0:
409,290,51023,6,0,P|417:257|411:225,1,62.9999980773926,0|2,0:0|0:0,0:0:0:0:
354,119,51364,2,0,P|346:152|352:184,1,62.9999980773926
409,290,51704,2,0,L|495:290,1,62.9999980773926,0|2,0:0|0:0,0:0:0:0:
343,253,52045,1,0,0:0:0:0:
280,315,52216,2,0,P|255:259|280:196,1,125.999996154785,0|2,0:0|0:0,0:0:0:0:
473,118,52898,5,0,0:0:0:0:
394,156,53068,2,0,P|386:187|395:217,1,62.9999980773926,2|0,0:0|0:0,0:0:0:0:
473,118,53409,2,0,P|480:87|471:57,1,62.9999980773926,2|0,0:0|0:0,0:0:0:0:
335,32,53750,2,0,L|410:32,1,62.9999980773926,2|0,0:0|0:0,0:0:0:0:
270,95,54091,6,0,P|239:102|208:97,1,62.9999980773926,0|2,0:0|0:0,0:0:0:0:
79,58,54432,2,0,P|109:51|140:56,1,62.9999980773926,2|0,0:0|0:0,0:0:0:0:
11,95,54773,2,0,P|2:64|11:27,1,62.9999980773926,0|2,0:0|0:0,0:0:0:0:
193,193,55284,6,0,P|202:224|193:261,1,62.9999980773926,2|0,0:0|0:0,0:0:0:0:
137,319,55625,1,0,0:0:0:0:
223,334,55795,2,0,L|296:334,1,62.9999980773926
137,319,56136,2,0,L|64:319,1,62.9999980773926,2|0,0:0|0:0,0:0:0:0:
3,372,56477,1,0,0:0:0:0:
74,319,56648,2,0,P|98:253|69:197,1,125.999996154785,2|0,0:0|0:0,0:0:0:0:
0,87,57159,5,0,0:0:0:0:
77,126,57329,2,0,P|108:133|139:127,1,62.9999980773926,2|0,0:0|0:0,0:0:0:0:
0,87,57670,2,0,L|7:219,1,125.999996154785,2|2,0:0|0:0,0:0:0:0:
105,372,58352,5,0,0:0:0:0:
172,314,58523,2,0,P|202:307|246:318,1,62.9999980773926,2|0,0:0|0:0,0:0:0:0:
105,372,58864,2,0,P|81:312|173:322,1,188.999994232178,2|2,0:0|0:0,0:0:0:0:
290,364,59545,6,0,P|320:370|351:365,1,62.9999980773926,2|2,0:0|0:0,0:0:0:0:
480,329,59886,2,0,P|449:322|418:327,1,62.9999980773926,2|0,0:0|0:0,0:0:0:0:
290,364,60227,2,0,L|201:363,1,62.9999980773926,2|0,0:0|0:0,0:0:0:0:
58,219,60739,6,0,L|51:148,1,62.9999980773926,2|0,0:0|0:0,0:0:0:0:
44,68,61079,1,2,0:0:0:0:
122,108,61250,2,0,P|153:114|195:99,1,62.9999980773926,2|0,0:0|0:0,0:0:0:0:
268,83,61591,2,0,L|274:145,1,62.9999980773926,2|0,0:0|0:0,0:0:0:0:
284,233,61932,1,0,0:0:0:0:
356,182,62102,2,0,P|373:241|341:305,1,125.999996154785,2|0,0:0|0:0,0:0:0:0:
177,342,62784,5,2,0:0:0:0:
93,314,62954,1,0,0:0:0:0:
93,226,63125,1,0,0:0:0:0:
177,199,63295,1,0,0:0:0:0:
229,270,63466,1,2,0:0:0:0:
93,226,63807,5,0,0:0:0:0:
93,226,63977,2,0,L|24:226,1,62.9999980773926,2|0,0:0|0:0,0:0:0:0:
177,199,64318,2,0,L|244:198,1,62.9999980773926,2|2,0:0|0:0,0:0:0:0:
328,198,64659,1,2,0:0:0:0:
410,227,64829,2,0,P|418:196|409:166,1,62.9999980773926,2|0,0:0|0:0,0:0:0:0:
342,109,65170,1,0,0:0:0:0:
427,85,65341,2,0,L|507:85,1,62.9999980773926,2|2,0:0|0:0,0:0:0:0:
364,318,66023,5,2,0:0:0:0:
306,251,66193,2,0,P|363:228|421:250,1,125.999996154785,2|0,0:0|0:0,0:0:0:0:
306,251,66704,2,0,L|307:122,1,125.999996154785,2|0,0:0|0:0,0:0:0:0:
148,152,67216,2,0,P|157:313|306:251,1,377.999988464356,2|0,0:0|0:0,0:0:0:0:
314,20,68920,6,0,L|314:137,1,112,8|0,1:2|1:0,0:0:0:0:
314,211,69432,1,8,0:0:0:0:
262,270,69602,2,0,P|313:290|364:269,1,112,8|0,1:3|1:0,0:0:0:0:
423,217,70114,2,0,P|452:209|492:220,2,56,0|0|0,1:0|1:0|1:0,0:0:0:0:
364,269,70625,5,8,1:2:0:0:
216,216,70966,2,0,P|194:267|231:330,1,112,0|0,1:3|1:0,0:0:0:0:
364,269,71648,1,8,1:2:0:0:
216,216,71989,5,8,1:0:0:0:
288,244,72159,1,8,1:2:0:0:
364,269,72329,1,8,1:3:0:0:
209,293,72670,5,8,1:2:0:0:
216,216,72841,2,0,L|221:140,1,56,8|0,1:0|1:0,0:0:0:0:
226,81,73182,1,8,1:0:0:0:
156,116,73352,1,8,1:2:0:0:
300,176,73693,2,0,P|327:180|354:175,1,56,12|8,1:3|1:2,0:0:0:0:
505,92,74204,5,2,0:0:0:0:
452,149,74375,2,0,L|452:291,1,125.999996154785,12|0,0:0|0:0,0:0:0:0:
390,339,74886,5,8,0:0:0:0:
312,295,75057,2,0,P|282:285|251:293,1,62.9999980773926,8|0,0:3|0:0,0:0:0:0:
112,331,75398,2,0,P|142:340|173:333,1,62.9999980773926
312,295,75739,2,0,L|312:151,1,125.999996154785,2|8,0:0|0:0,0:0:0:0:
138,130,76420,6,0,P|169:139|199:132,1,62.9999980773926,8|2,0:3|0:0,0:0:0:0:
73,161,76761,2,0,P|90:186|118:201,1,62.9999980773926
0,153,77102,1,10,0:0:0:0:
0,153,77273,2,0,P|26:222|133:272,1,188.999994232178,0|8,0:0|0:3,0:0:0:0:
336,247,78125,6,0,L|423:247,1,62.9999980773926
335,319,78466,2,0,L|422:319,1,62.9999980773926
478,359,78807,1,10,0:0:0:0:
336,247,79148,1,10,0:3:0:0:
487,131,79489,6,0,P|495:98|484:66,1,62.9999980773926
361,131,79829,2,0,L|487:131,1,125.999996154785,8|2,0:0|0:0,0:0:0:0:
341,221,80341,5,8,0:0:0:0:
276,161,80511,2,0,P|268:128|277:99,1,62.9999980773926,8|0,0:3|0:0,0:0:0:0:
343,43,80852,1,2,0:0:0:0:
257,19,81023,1,0,0:0:0:0:
343,130,81193,2,0,L|474:130,1,125.999996154785,0|10,0:0|0:0,0:0:0:0:
341,221,81704,5,0,0:0:0:0:
276,161,81874,2,0,P|268:128|277:99,1,62.9999980773926,8|0,0:3|0:0,0:0:0:0:
355,60,82216,1,2,0:0:0:0:
278,16,82386,1,0,0:0:0:0:
276,100,82557,5,8,0:0:0:0:
355,60,82727,2,0,P|358:134|313:182,1,125.999996154785,0|10,0:0|0:0,0:0:0:0:
355,60,83239,2,0,B|428:104|502:33|502:33|475:122,1,251.999992309571,8|0,0:3|0:0,0:0:0:0:
311,214,84261,5,8,0:0:0:0:
395,184,84432,1,0,0:0:0:0:
468,235,84602,1,10,0:3:0:0:
381,270,84773,1,8,0:0:0:0:
395,184,84943,2,0,P|401:152|388:115,1,62.9999980773926,2|0,0:0|0:0,0:0:0:0:
221,11,85284,6,0,P|215:43|228:80,1,62.9999980773926,10|0,0:0|0:0,0:0:0:0:
305,103,85625,1,0,0:0:0:0:
234,155,85795,2,0,L|153:155,1,62.9999980773926,10|8,0:0|0:3,0:0:0:0:
314,330,86307,6,0,P|338:345|348:319,1,62.9999980773926
314,197,86648,2,0,P|323:170|347:185,1,62.9999980773926
256,262,86989,6,0,L|181:263,1,62.9999980773926,8|0,0:0|0:0,0:0:0:0:
106,246,87329,1,10,0:3:0:0:
165,180,87500,1,2,0:0:0:0:
78,166,87670,2,0,L|6:167,1,62.9999980773926,2|0,0:0|0:0,0:0:0:0:
165,180,88011,6,0,L|249:180,1,62.9999980773926,10|0,0:0|0:0,0:0:0:0:
316,181,88352,1,2,0:0:0:0:
273,258,88523,2,0,P|264:287|276:319,1,62.9999980773926,8|8,0:0|0:3,0:0:0:0:
483,192,89034,6,0,P|492:163|480:131,1,62.9999980773926,2|0,0:0|0:0,0:0:0:0:
402,92,89375,2,0,L|270:92,2,125.999996154785,0|10|8,0:0|0:0|0:3,0:0:0:0:
481,133,90227,5,0,0:0:0:0:
479,44,90398,1,0,0:0:0:0:
402,92,90568,1,0,0:0:0:0:
409,180,90739,6,0,L|406:265,1,62.9999980773926,12|0,0:0|0:0,0:0:0:0:
402,330,91079,1,0,0:0:0:0:
327,282,91250,2,0,P|296:274|266:281,1,62.9999980773926,8|8,0:0|0:3,0:0:0:0:
137,320,91591,2,0,P|167:327|197:320,1,62.9999980773926,2|2,0:0|0:0,0:0:0:0:
327,282,91932,2,0,B|277:185|369:185|320:99,1,188.999994232178,0|10,0:0|0:0,0:0:0:0:
155,41,92784,5,8,0:3:0:0:
86,96,92954,1,2,0:0:0:0:
155,151,93125,1,0,0:0:0:0:
86,205,93295,1,0,0:0:0:0:
214,208,93466,6,0,P|237:151|214:94,1,125.999996154785,12|2,0:0|0:0,0:0:0:0:
214,208,93977,2,0,L|351:209,1,125.999996154785,10|0,0:0|0:0,0:0:0:0:
475,209,94489,2,0,L|412:209,1,62.9999980773926,2|0,0:0|0:0,0:0:0:0:
214,208,94829,2,0,P|237:151|214:94,1,125.999996154785,0|10,0:0|0:0,0:0:0:0:
8,258,95511,6,0,L|75:242,1,62.9999980773926,12|8,0:3|0:0,0:0:0:0:
157,150,95852,2,0,P|134:93|157:36,1,125.999996154785,2|6,0:0|0:0,0:0:0:0:
339,295,96534,5,2,0:0:0:0:
263,232,96704,1,8,0:0:0:0:
355,199,96875,1,8,0:3:0:0:
279,135,97045,2,0,P|270:102|276:68,1,70,0|2,0:0|0:0,0:0:0:0:
425,164,97386,6,0,P|434:197|428:231,1,70,2|2,0:0|0:0,0:0:0:0:
427,86,97727,2,0,P|460:94|486:116,1,70,0|8,0:0|0:0,0:0:0:0:
360,46,98068,2,0,P|383:20|416:9,1,70,2|8,0:0|0:3,0:0:0:0:
291,81,98409,2,0,P|281:47|287:13,1,70,2|2,0:0|0:0,0:0:0:0:
342,148,98750,1,0,0:0:0:0:
342,148,98920,6,0,P|281:165|212:113,1,140,6|2,0:0|0:0,0:0:0:0:
21,22,99602,2,0,P|38:83|-14:152,1,140,8|2,0:3|0:0,0:0:0:0:
43,248,100114,5,0,0:0:0:0:
138,225,100284,1,2,0:0:0:0:
87,308,100454,1,0,0:0:0:0:
182,285,100625,1,8,0:0:0:0:
131,368,100795,1,0,0:0:0:0:
226,345,100966,6,0,L|307:338,1,70,10|0,0:3|0:0,0:0:0:0:
131,368,101307,1,2,0:0:0:0:
131,368,101477,2,0,L|50:375,1,70,0|10,0:0|0:0,0:0:0:0:
295,338,101989,5,2,0:0:0:0:
326,245,102159,1,8,0:0:0:0:
228,256,102329,1,8,0:3:0:0:
295,338,102500,2,0,P|333:346|367:336,1,70
228,256,102841,6,0,P|190:248|156:258,1,70,0|2,0:0|0:0,0:0:0:0:
30,293,103182,2,0,P|68:301|102:291,1,70,0|8,0:0|0:0,0:0:0:0:
228,256,103523,2,0,P|266:248|300:258,1,70,0|8,0:0|0:3,0:0:0:0:
426,293,103864,2,0,P|388:301|354:291,1,70,2|2,0:0|0:0,0:0:0:0:
228,256,104204,2,0,P|190:248|156:258,1,70,0|10,0:0|0:0,0:0:0:0:
419,364,104716,6,0,L|434:205,1,140,2|8,0:0|0:3,0:0:0:0:
347,341,105227,2,0,L|362:182,1,140,2|0,0:0|0:0,0:0:0:0:
275,314,105739,2,0,L|290:155,1,140,2|8,0:0|0:0,0:0:0:0:
36,82,106420,6,0,P|70:92|103:82,1,70,8|8,0:3|0:0,0:0:0:0:
245,48,106761,2,0,P|211:38|178:48,1,70,2|0,0:0|0:0,0:0:0:0:
63,169,107102,6,0,L|70:336,1,168,12|0,0:0|0:0,0:0:0:0:
70,336,107699,6,0,P|130:312|184:331,1,122.499996261597,2|0,0:0|0:0,0:0:0:0:
182,329,108210,6,0,P|252:357|207:266,1,230.99999295044,2|0,0:0|0:0,0:0:0:0:
219,261,109829,6,0,P|229:219|211:175,1,77.0000023498536,6|0,0:0|0:0,0:0:0:0:
153,121,110170,1,0,0:0:0:0:
242,98,110341,2,0,L|341:91,1,77.0000023498536,8|8,0:0|0:3,0:0:0:0:
153,121,110682,2,0,L|54:128,1,77.0000023498536,2|0,0:0|0:0,0:0:0:0:
219,261,111023,2,0,P|229:219|211:175,1,77.0000023498536,2|0,0:0|0:0,0:0:0:0:
153,47,111364,6,0,P|143:89|161:133,1,77.0000023498536,2|8,0:0|0:0,0:0:0:0:
294,86,111704,2,0,P|252:76|208:94,1,77.0000023498536,0|8,0:0|0:3,0:0:0:0:
76,126,112045,2,0,L|153:121,1,77.0000023498536,0|2,0:0|0:0,0:0:0:0:
294,86,112386,1,2,0:0:0:0:
294,86,112557,2,0,L|284:255,1,154.000004699707,6|0,0:0|0:0,0:0:0:0:
270,366,113068,5,2,0:0:0:0:
226,284,113239,1,8,0:3:0:0:
170,357,113409,2,0,P|131:367|91:356,1,77.0000023498536,0|2,0:0|0:0,0:0:0:0:
187,214,113750,6,0,P|226:204|266:215,1,77.0000023498536,0|2,0:0|0:0,0:0:0:0:
314,136,114091,2,0,P|342:164|352:204,1,77.0000023498536,0|8,0:0|0:0,0:0:0:0:
444,209,114432,2,0,P|433:247|403:276,1,77.0000023498536,0|12,0:0|0:3,0:0:0:0:
308,325,114773,1,8,0:0:0:0:
308,325,114943,2,0,L|471:324,1,154.000004699707,2|12,0:0|0:0,0:0:0:0:
442,114,115625,5,2,0:0:0:0:
442,114,115795,2,0,L|365:123,1,77.0000023498536,8|8,0:0|0:3,0:0:0:0:
426,212,116136,2,0,L|349:221,1,77.0000023498536,2|0,0:0|0:0,0:0:0:0:
404,314,116477,2,0,L|327:323,1,77.0000023498536,2|0,0:0|0:0,0:0:0:0:
108,314,116818,6,0,L|184:323,1,77.0000023498536,0|8,0:0|0:0,0:0:0:0:
86,212,117159,2,0,L|162:221,1,77.0000023498536,2|8,0:0|0:3,0:0:0:0:
70,114,117500,2,0,L|146:123,1,77.0000023498536,0|2,0:0|0:0,0:0:0:0:
395,193,118011,6,0,P|382:157|395:121,1,77.0000023498536,10|0,0:0|0:0,0:0:0:0:
450,46,118352,1,0,0:0:0:0:
357,42,118523,2,0,L|280:42,1,77.0000023498536,10|8,0:0|0:3,0:0:0:0:
126,42,118864,6,0,P|160:107|128:174,1,154.000004699707,2|0,0:0|0:0,0:0:0:0:
126,42,119375,2,0,L|294:42,1,154.000004699707,2|8,0:0|0:0,0:0:0:0:
407,43,119886,5,0,0:0:0:0:
407,43,120057,2,0,P|395:80|409:122,1,77.0000023498536,8|8,0:3|0:0,0:0:0:0:
414,254,120398,2,0,P|438:183|405:116,1,154.000004699707,2|12,0:0|0:0,0:0:0:0:
142,53,121079,5,2,0:0:0:0:
142,53,121250,2,0,P|180:64|220:52,1,77.0000023498536,8|8,0:0|0:3,0:0:0:0:
369,53,121591,2,0,P|331:42|291:54,1,77.0000023498536
335,191,121932,6,0,P|345:155|332:119,1,77.0000023498536,0|2,0:0|0:0,0:0:0:0:
301,263,122273,2,0,P|337:273|373:260,1,77.0000023498536,0|8,0:0|0:0,0:0:0:0:
235,230,122614,2,0,P|224:266|237:302,1,77.0000023498536,0|8,0:0|0:3,0:0:0:0:
269,158,122955,2,0,P|232:147|196:160,1,77.0000023498536,2|0,0:0|0:0,0:0:0:0:
0,350,123466,6,0,P|71:375|143:353,1,154.000004699707,12|0,0:0|0:0,0:0:0:0:
221,287,123977,2,0,P|257:275|294:283,1,77.0000023498536,10|8,0:0|0:3,0:0:0:0:
441,343,124318,2,0,P|404:354|367:346,1,77.0000023498536,2|0,0:0|0:0,0:0:0:0:
221,287,124659,2,0,L|194:123,1,154.000004699707,2|0,0:0|0:0,0:0:0:0:
181,43,125170,1,8,0:0:0:0:
388,122,125511,5,8,0:3:0:0:
310,172,125682,1,8,0:0:0:0:
388,221,125852,1,0,0:0:0:0:
310,271,126023,2,0,L|311:354,1,77.0000023498536,0|12,0:0|0:0,0:0:0:0:
388,122,126534,5,0,0:0:0:0:
388,122,126704,2,0,L|388:41,1,77.0000023498536,8|8,0:0|0:3,0:0:0:0:
472,122,127045,2,0,L|472:211,1,77.0000023498536,2|0,0:0|0:0,0:0:0:0:
333,249,127386,6,0,P|263:220|192:245,1,154.000004699707,2|0,0:0|0:0,0:0:0:0:
333,249,127898,2,0,L|364:174,1,77.0000023498536,8|0,0:0|0:0,0:0:0:0:
413,59,128239,2,0,P|342:84|272:55,1,154.000004699707,12|0,0:3|0:0,0:0:0:0:
140,21,128750,5,0,0:0:0:0:
140,21,128920,2,0,L|140:181,1,154.000004699707,12|8,0:0|0:1,0:0:0:0:
140,284,129432,2,0,P|101:274|58:287,1,77.0000023498536,8|8,0:0|0:3,0:0:0:0:
321,350,129943,2,0,P|384:372|472:341,1,154.000004699707,2|4,0:0|0:0,0:0:0:0:
497,227,130454,5,8,0:1:0:0:
416,180,130625,1,8,0:1:0:0:
337,227,130795,1,8,0:1:0:0:
257,180,130966,1,12,0:1:0:0:
178,228,131136,2,0,P|164:161|222:93,1,154.000004699707,8|0,0:1|0:0,0:0:0:0:
380,95,131648,6,0,L|213:96,1,168,2|2,0:0|0:0,0:0:0:0:
129,96,132329,1,0,0:0:0:0:
272,183,132670,1,0,0:0:0:0:
118,252,133011,6,0,P|62:270|2:249,1,112,2|0,0:0|0:0,0:0:0:0:
159,193,133523,2,0,L|167:319,1,112,2|0,0:0|0:0,0:0:0:0:
241,213,134034,6,0,L|238:158,1,56,2|0,0:0|0:0,0:0:0:0:
213,69,134375,2,0,P|270:86|322:66,1,112,2|0,0:0|0:0,0:0:0:0:
162,15,134886,6,0,L|170:141,1,112,2|2,0:0|0:0,0:0:0:0:
241,213,135398,2,0,L|238:158,1,56,0|2,0:0|0:0,0:0:0:0:
316,263,135739,2,0,P|225:303|151:214,1,224,2|2,0:0|0:0,0:0:0:0:
151,221,137102,6,0,P|93:204|33:230,1,112,2|0,0:0|0:0,0:0:0:0:
189,308,137784,1,0,0:0:0:0:
189,139,138125,1,2,0:0:0:0:
271,285,138466,6,0,P|329:302|389:276,1,112,2|0,0:0|0:0,0:0:0:0:
422,214,138977,2,0,P|449:208|476:213,1,56,2|0,0:0|0:0,0:0:0:0:
401,363,139489,5,2,0:0:0:0:
309,220,139829,2,0,P|289:170|310:120,1,112,2|2,0:0|0:0,0:0:0:0:
360,274,140341,2,0,P|309:294|259:273,1,112,2|2,0:0|0:0,0:0:0:0:
414,225,140852,2,0,P|434:275|413:325,1,112,2|4,0:0|0:0,0:0:0:0:
162,354,141704,6,0,L|115:354,2,28,8|8|8,0:1|0:1|0:1,0:0:0:0:
257,214,142216,2,0,L|185:214,1,56,2|2,0:0|0:0,0:0:0:0:
106,213,142557,1,6,0:0:0:0:
274,127,142898,6,0,L|336:117,1,62.9999980773926,2|8,0:0|0:0,0:0:0:0:
257,214,143239,2,0,L|319:204,1,62.9999980773926,8|2,0:3|0:0,0:0:0:0:
245,305,143579,2,0,L|307:295,1,62.9999980773926
173,339,143920,6,0,P|165:305|176:267,1,62.9999980773926,2|0,0:0|0:0,0:0:0:0:
257,214,144261,1,8,0:0:0:0:
170,277,144432,2,0,L|100:282,1,62.9999980773926,0|8,0:0|0:3,0:0:0:0:
257,214,144773,2,0,L|327:209,1,62.9999980773926,2|0,0:0|0:0,0:0:0:0:
153,175,145114,5,0,0:0:0:0:
48,228,145284,2,0,P|28:283|67:348,2,125.999996154785,10|2|8,0:0|0:0|0:3,0:0:0:0:
276,91,146307,5,2,0:0:0:0:
251,182,146477,1,8,0:1:0:0:
341,155,146648,2,0,L|424:142,1,62.9999980773926,2|8,0:0|0:1,0:0:0:0:
276,91,146989,1,8,0:0:0:0:
251,182,147159,2,0,L|168:195,1,62.9999980773926,2|12,0:0|0:3,0:0:0:0:
341,155,147500,2,0,P|371:207|354:266,1,125.999996154785,8|0,0:1|0:0,0:0:0:0:
213,296,148011,6,0,B|172:257|97:269|43:275|10:223|7:173|53:108|135:139|135:139|136:57|221:22|269:71|282:131|248:185,1,629.999980773926,12|0,0:0|0:0,0:0:0:0:
482,371,150398,6,0,P|491:340|483:310,1,62.9999980773926,2|0,0:0|0:0,0:0:0:0:
413,247,150739,2,0,P|405:216|413:186,1,62.9999980773926,2|0,0:0|0:0,0:0:0:0:
490,132,151079,1,0,0:0:0:0:
417,71,151250,1,0,0:0:0:0:
343,129,151420,6,0,B|253:172|253:98|160:127,1,188.999994232178,2|0,0:0|0:0,0:0:0:0:
132,215,152102,6,0,B|100:184|40:193|-3:199|-29:157|-31:117|4:65|70:89|70:89|70:24|138:-2|177:35|187:83|160:127,1,503.999984619141,2|2,0:0|0:0,0:0:0:0:
411,31,164375,6,0,P|421:73|403:117,1,77.0000023498536,6|0,0:0|0:0,0:0:0:0:
345,171,164716,1,0,0:0:0:0:
434,194,164887,2,0,P|472:203|518:191,1,77.0000023498536,8|8,0:0|0:3,0:0:0:0:
345,171,165227,2,0,P|307:162|261:174,1,77.0000023498536,2|0,0:0|0:0,0:0:0:0:
434,194,165569,2,0,P|444:152|426:108,1,77.0000023498536,2|0,0:0|0:0,0:0:0:0:
306,239,165910,6,0,P|296:281|314:325,1,77.0000023498536,0|8,0:0|0:0,0:0:0:0:
450,271,166250,2,0,L|373:277,1,77.0000023498536,2|8,0:0|0:3,0:0:0:0:
228,317,166591,2,0,L|305:312,1,77.0000023498536,0|2,0:0|0:0,0:0:0:0:
450,271,166932,1,0,0:0:0:0:
450,271,167103,2,0,P|423:190|456:123,1,154.000004699707,12|0,0:0|0:0,0:0:0:0:
512,29,167614,5,8,0:0:0:0:
420,43,167785,1,8,0:3:0:0:
330,60,167955,2,0,L|340:141,1,77.0000023498536,0|2,0:0|0:0,0:0:0:0:
388,269,168296,6,0,P|349:279|309:268,1,77.0000023498536,0|2,0:0|0:0,0:0:0:0:
261,347,168637,2,0,P|233:319|223:279,1,77.0000023498536,0|8,0:0|0:0,0:0:0:0:
131,274,168978,2,0,P|142:236|172:207,1,77.0000023498536,0|8,0:0|0:3,0:0:0:0:
117,131,169319,1,8,0:0:0:0:
117,131,169489,2,0,P|177:116|254:172,1,154.000004699707,2|12,0:0|0:0,0:0:0:0:
394,361,170171,5,2,0:0:0:0:
394,361,170341,2,0,P|357:370|319:362,1,77.0000023498536,2|8,0:0|0:3,0:0:0:0:
356,276,170682,2,0,P|346:239|355:201,1,77.0000023498536,2|0,0:0|0:0,0:0:0:0:
439,239,171023,2,0,P|475:229|514:238,1,77.0000023498536,2|0,0:0|0:0,0:0:0:0:
319,362,171364,6,0,P|282:371|244:363,1,77.0000023498536,0|8,0:0|0:0,0:0:0:0:
281,277,171705,2,0,P|271:240|280:202,1,77.0000023498536,2|8,0:0|0:3,0:0:0:0:
364,240,172046,2,0,P|400:230|439:239,1,77.0000023498536,0|2,0:0|0:0,0:0:0:0:
244,363,172557,6,0,P|208:373|169:364,1,77.0000023498536,12|0,0:0|0:0,0:0:0:0:
93,312,172898,1,2,0:0:0:0:
51,229,173069,2,0,L|51:152,1,77.0000023498536,8|8,0:0|0:3,0:0:0:0:
188,221,173410,6,0,P|253:255|320:223,1,154.000004699707,2|0,0:0|0:0,0:0:0:0:
188,221,173920,2,0,P|154:286|186:353,1,154.000004699707,2|8,0:0|0:0,0:0:0:0:
301,328,174432,5,2,0:0:0:0:
301,328,174603,2,0,P|338:316|380:330,1,77.0000023498536,12|0,0:3|0:0,0:0:0:0:
512,335,174944,2,0,P|441:359|374:326,1,154.000004699707,2|12,0:0|0:0,0:0:0:0:
296,124,175625,5,2,0:0:0:0:
296,124,175796,2,0,P|285:162|297:202,1,77.0000023498536,8|8,0:0|0:3,0:0:0:0:
373,325,176137,2,0,P|384:287|372:247,1,77.0000023498536,2|0,0:0|0:0,0:0:0:0:
296,124,176478,6,0,L|212:118,1,77.0000023498536,0|2,0:0|0:0,0:0:0:0:
368,158,176819,2,0,P|378:122|365:86,1,77.0000023498536,0|8,0:0|0:0,0:0:0:0:
335,224,177160,2,0,L|419:235,1,77.0000023498536,2|8,0:0|0:3,0:0:0:0:
263,190,177501,2,0,P|252:227|265:263,1,77.0000023498536,2|0,0:0|0:0,0:0:0:0:
512,354,178012,6,0,P|441:329|369:351,1,154.000004699707,12|0,0:0|0:0,0:0:0:0:
277,369,178523,2,0,P|241:381|204:373,1,77.0000023498536,2|8,0:0|0:3,0:0:0:0:
66,333,178864,2,0,P|103:322|140:330,1,77.0000023498536,2|0,0:0|0:0,0:0:0:0:
277,369,179205,2,0,P|302:290|278:224,1,154.000004699707,2|0,0:0|0:0,0:0:0:0:
214,158,179716,1,8,0:0:0:0:
447,193,180057,5,12,0:3:0:0:
369,243,180228,1,8,0:0:0:0:
449,288,180398,1,0,0:0:0:0:
447,193,180569,2,0,P|452:152|440:117,1,77.0000023498536,0|12,0:0|0:0,0:0:0:0:
256,32,181080,5,2,0:0:0:0:
256,32,181250,2,0,P|250:72|263:108,1,77.0000023498536,8|8,0:0|0:3,0:0:0:0:
231,193,181591,2,0,P|271:198|307:186,1,77.0000023498536,2|0,0:0|0:0,0:0:0:0:
175,136,181932,6,0,L|198:297,1,154.000004699707,2|0,0:0|0:0,0:0:0:0:
273,339,182444,2,0,P|310:328|347:338,1,77.0000023498536,8|0,0:0|0:0,0:0:0:0:
420,282,182784,2,0,L|441:129,1,154.000004699707,12|0,0:3|0:0,0:0:0:0:
326,80,183296,5,0,0:0:0:0:
326,80,183466,2,0,P|248:111|177:80,1,154.000004699707,12|8,0:0|0:1,0:0:0:0:
96,59,183978,2,0,L|113:136,1,77.0000023498536,8|8,0:0|0:3,0:0:0:0:
203,295,184489,2,0,P|281:264|352:295,1,154.000004699707,2|2,0:0|0:0,0:0:0:0:
439,376,185000,5,8,0:1:0:0:
486,295,185171,1,8,0:1:0:0:
439,216,185341,1,8,0:1:0:0:
486,136,185512,1,12,0:1:0:0:
438,57,185682,2,0,B|360:87|360:24|282:56,1,154.000004699707,8|0,0:1|0:0,0:0:0:0:
234,128,186193,5,2,0:0:0:0:
234,128,187557,5,2,0:0:0:0:
234,128,188920,5,2,0:0:0:0:
137,158,189943,6,0,P|181:214|161:57,1,504,2|0,0:0|0:0,0:0:0:0:
227,156,191648,6,0,P|262:131|216:151,1,168,2|0,0:0|0:0,0:0:0:0:
188,304,192500,2,0,P|146:301|182:273,2,112
334,246,193523,2,0,P|375:248|340:277,2,112
256,192,194375,12,0,197102,0:0:0:0:
