osu file format v14

[General]
AudioFilename: audio.mp3
AudioLeadIn: 0
PreviewTime: 62688
Countdown: 0
SampleSet: Normal
StackLeniency: 0.7
Mode: 1
LetterboxInBreaks: 0
WidescreenStoryboard: 1

[Editor]
DistanceSpacing: 1.8
BeatDivisor: 4
GridSize: 4
TimelineZoom: 1.300001

[Metadata]
Title:In The Frozen
TitleUnicode:In The Frozen
Artist:Dreamcatcher
ArtistUnicode:드림캐쳐
Creator:clockbite
Version:Futsuu
Source:
Tags:blackener ryxliee electronic korean pop kpop k-pop trap psytrance 지유 수아 시연 한동 유현 다미 가현 jiu sua siyeon handong yoohyun dami Dystopia: The Tree of Language
BeatmapID:3946123
BeatmapSetID:1894868

[Difficulty]
HPDrainRate:7
CircleSize:5
OverallDifficulty:4
ApproachRate:5
SliderMultiplier:1.4
SliderTickRate:1

[Events]
//Background and Video events
0,0,"1.jpg",0,-15
//Break Periods
2,141583,152983
//Storyboard Layer 0 (Background)
//Storyboard Layer 1 (Fail)
//Storyboard Layer 2 (Pass)
//Storyboard Layer 3 (Foreground)
//Storyboard Layer 4 (Overlay)
//Storyboard Sound Samples

[TimingPoints]
583,400,4,1,0,90,1,0
583,-100,4,1,0,40,0,0
13183,-100,4,1,0,45,0,0
25983,-100,4,1,0,85,0,0
39383,-100,4,1,0,65,0,0
51383,-100,4,1,0,80,0,0
58083,-100,4,1,0,90,0,0
77383,-100,4,1,0,90,0,1
77583,-100,4,1,0,80,0,1
88583,-100,4,1,0,80,0,0
103358,-100,4,1,0,65,0,0
115583,-100,4,1,0,80,0,0
121983,-100,4,1,0,90,0,0
141583,-100,4,1,0,50,0,0
153983,-100,4,1,0,80,0,0
160483,-100,4,1,0,85,0,0
163683,-100,4,1,0,90,0,0
165683,-100,4,1,0,80,0,0
166916,-100,4,1,0,90,0,0
179583,-100,4,1,0,100,0,0
179783,-100,4,1,0,100,0,1
192583,-100,4,1,0,100,0,0

[HitObjects]
117,113,583,5,8,0:0:0:0:
192,162,1783,1,8,0:0:0:0:
110,133,2983,1,0,0:0:0:0:
174,129,3783,1,8,0:0:0:0:
168,126,6983,1,8,0:0:0:0:
168,126,8183,1,0,0:0:0:0:
168,126,9383,1,0,0:0:0:0:
161,108,10183,1,8,0:0:0:0:
161,108,11783,1,8,0:0:0:0:
161,107,13383,1,0,0:0:0:0:
161,107,14183,1,8,0:0:0:0:
162,104,15783,1,8,0:0:0:0:
162,104,16583,1,0,0:0:0:0:
162,104,17383,1,8,0:0:0:0:
146,173,18983,1,8,0:0:0:0:
146,173,19783,1,0,0:0:0:0:
146,173,20583,1,8,0:0:0:0:
146,173,22183,1,8,0:0:0:0:
146,173,22583,1,0,0:0:0:0:
146,173,22983,1,0,0:0:0:0:
146,173,23783,1,8,0:0:0:0:
146,173,24183,1,0,0:0:0:0:
146,173,24583,1,0,0:0:0:0:
146,173,25383,1,8,0:0:0:0:
146,173,26183,1,4,0:0:0:0:
146,173,26983,1,8,0:0:0:0:
228,183,28383,1,0,0:0:0:0:
128,184,28583,1,8,0:0:0:0:
170,138,28983,1,8,0:0:0:0:
170,138,29383,1,0,0:0:0:0:
170,138,30183,1,8,0:0:0:0:
179,141,31583,1,0,0:0:0:0:
179,141,31783,1,8,0:0:0:0:
179,141,32183,1,8,0:0:0:0:
202,142,32383,1,0,0:0:0:0:
179,141,32583,1,0,0:0:0:0:
179,141,33383,1,8,0:0:0:0:
179,142,34783,1,0,0:0:0:0:
179,142,34983,1,8,0:0:0:0:
179,142,35383,1,8,0:0:0:0:
179,142,35783,1,0,0:0:0:0:
218,104,36583,1,8,0:0:0:0:
223,108,37183,1,0,0:0:0:0:
222,108,37383,1,0,0:0:0:0:
223,108,37983,1,0,0:0:0:0:
223,108,38183,1,8,0:0:0:0:
222,108,38383,1,0,0:0:0:0:
223,108,38583,1,0,0:0:0:0:
223,108,38983,1,12,0:0:0:0:
195,208,39783,1,8,0:0:0:0:
195,208,40583,1,8,0:0:0:0:
195,208,41383,1,8,0:0:0:0:
195,208,42183,1,0,0:0:0:0:
194,209,43783,1,0,0:0:0:0:
196,206,45383,1,8,0:0:0:0:
225,173,46183,1,8,0:0:0:0:
225,173,46983,1,8,0:0:0:0:
225,173,47783,1,8,0:0:0:0:
225,173,48583,1,0,0:0:0:0:
225,175,50183,1,0,0:0:0:0:
184,203,51783,5,12,0:0:0:0:
224,183,52183,1,8,0:0:0:0:
224,183,52383,1,0,0:0:0:0:
224,183,52583,1,8,0:0:0:0:
224,183,52983,1,8,0:0:0:0:
226,160,53383,1,0,0:0:0:0:
226,160,53583,1,8,0:0:0:0:
226,160,53783,1,8,0:0:0:0:
226,160,54183,1,8,0:0:0:0:
172,169,54583,1,0,0:0:0:0:
172,169,54983,1,8,0:0:0:0:
172,164,55383,1,8,0:0:0:0:
172,164,55583,1,0,0:0:0:0:
172,164,55783,1,8,0:0:0:0:
172,164,56183,1,8,0:0:0:0:
172,164,56583,1,0,0:0:0:0:
172,164,56783,1,8,0:0:0:0:
172,164,56983,1,8,0:0:0:0:
172,164,57383,1,8,0:0:0:0:
172,164,58183,1,8,0:0:0:0:
175,160,58583,1,0,0:0:0:0:
225,106,58783,1,0,0:0:0:0:
183,119,58983,1,8,0:0:0:0:
183,119,59383,1,0,0:0:0:0:
183,119,59783,1,8,0:0:0:0:
183,119,60183,1,0,0:0:0:0:
271,97,60383,1,0,0:0:0:0:
183,119,60583,1,8,0:0:0:0:
232,95,60783,1,8,0:0:0:0:
183,119,60983,1,0,0:0:0:0:
183,119,61383,1,8,0:0:0:0:
183,119,61783,1,8,0:0:0:0:
203,95,61983,1,8,0:0:0:0:
183,119,62183,1,8,0:0:0:0:
206,119,62383,1,8,0:0:0:0:
206,119,62583,1,8,0:0:0:0:
328,154,62783,1,8,0:0:0:0:
290,142,63783,1,8,0:0:0:0:
313,171,64083,1,8,0:0:0:0:
313,171,64383,1,8,0:0:0:0:
181,56,64583,1,4,0:0:0:0:
207,138,65383,1,8,0:0:0:0:
230,141,65783,1,0,0:0:0:0:
230,141,65983,1,0,0:0:0:0:
230,141,66183,1,8,0:0:0:0:
230,141,66483,1,0,0:0:0:0:
303,140,66783,1,0,0:0:0:0:
303,140,66983,1,8,0:0:0:0:
303,140,67383,1,8,0:0:0:0:
303,140,67583,1,8,0:0:0:0:
303,140,67783,1,4,0:0:0:0:
194,170,68583,1,8,0:0:0:0:
199,169,68983,1,8,0:0:0:0:
199,169,69183,1,0,0:0:0:0:
199,169,69383,1,8,0:0:0:0:
199,169,69683,1,8,0:0:0:0:
199,169,69983,1,0,0:0:0:0:
199,169,70183,1,8,0:0:0:0:
199,163,70783,1,8,0:0:0:0:
199,169,70983,1,4,0:0:0:0:
199,163,71783,1,8,0:0:0:0:
203,159,72183,1,0,0:0:0:0:
199,163,72383,1,0,0:0:0:0:
185,189,72583,1,8,0:0:0:0:
185,189,72883,1,0,0:0:0:0:
185,189,73183,1,0,0:0:0:0:
185,189,73383,1,8,0:0:0:0:
192,185,73783,1,8,0:0:0:0:
194,183,74183,1,4,0:0:0:0:
211,153,74983,1,8,0:0:0:0:
211,153,75383,1,8,0:0:0:0:
211,153,75583,1,0,0:0:0:0:
211,153,75783,1,12,0:0:0:0:
211,153,76183,1,12,0:0:0:0:
211,153,76583,1,12,0:0:0:0:
211,153,76983,1,12,0:0:0:0:
211,153,77383,1,4,0:0:0:0:
180,84,77683,1,8,0:0:0:0:
180,84,77983,1,8,0:0:0:0:
210,148,78183,1,0,0:0:0:0:
212,138,78983,1,8,0:0:0:0:
212,138,79283,1,0,0:0:0:0:
212,138,79583,1,0,0:0:0:0:
212,138,79783,1,8,0:0:0:0:
212,138,80083,1,8,0:0:0:0:
212,138,80383,1,8,0:0:0:0:
212,138,80583,1,4,0:0:0:0:
201,80,80883,1,8,0:0:0:0:
201,80,81183,1,8,0:0:0:0:
206,178,81383,1,0,0:0:0:0:
225,169,82183,1,0,0:0:0:0:
225,169,82583,1,8,0:0:0:0:
288,178,82783,5,0,0:0:0:0:
217,90,82983,1,0,0:0:0:0:
225,169,83183,1,0,0:0:0:0:
225,169,83383,1,8,0:0:0:0:
210,77,83783,1,4,0:0:0:0:
199,138,84083,1,8,0:0:0:0:
195,153,84383,1,8,0:0:0:0:
195,153,84583,1,0,0:0:0:0:
195,153,85383,1,8,0:0:0:0:
195,153,85683,1,0,0:0:0:0:
195,153,85983,1,0,0:0:0:0:
195,153,86183,1,8,0:0:0:0:
195,153,86483,1,8,0:0:0:0:
195,153,86783,1,8,0:0:0:0:
195,153,86983,1,4,0:0:0:0:
195,153,87283,1,8,0:0:0:0:
195,153,87583,1,8,0:0:0:0:
195,153,87783,1,0,0:0:0:0:
206,142,88583,1,8,0:0:0:0:
248,92,88783,1,8,0:0:0:0:
215,121,88983,1,8,0:0:0:0:
217,123,89183,1,8,0:0:0:0:
214,121,89383,1,0,0:0:0:0:
217,123,89783,1,8,0:0:0:0:
214,57,89983,1,0,0:0:0:0:
201,140,90183,1,12,0:0:0:0:
168,153,90983,1,8,0:0:0:0:
245,168,91183,1,8,0:0:0:0:
214,157,91383,1,0,0:0:0:0:
240,175,91983,1,0,0:0:0:0:
240,175,92183,1,0,0:0:0:0:
240,175,92583,1,8,0:0:0:0:
240,175,92983,1,8,0:0:0:0:
240,175,93183,1,8,0:0:0:0:
243,148,93383,1,0,0:0:0:0:
246,121,94183,1,8,0:0:0:0:
246,121,94383,1,0,0:0:0:0:
246,121,94583,1,8,0:0:0:0:
246,121,95183,1,0,0:0:0:0:
246,121,95383,1,0,0:0:0:0:
246,121,95783,1,8,0:0:0:0:
246,121,96183,1,0,0:0:0:0:
246,121,96383,1,0,0:0:0:0:
246,121,96583,1,8,0:0:0:0:
232,101,96983,1,0,0:0:0:0:
237,98,97383,1,8,0:0:0:0:
237,98,97583,1,8,0:0:0:0:
237,98,97783,1,0,0:0:0:0:
223,84,98183,1,8,0:0:0:0:
217,70,98583,1,0,0:0:0:0:
215,54,99383,1,8,0:0:0:0:
215,54,99583,1,0,0:0:0:0:
224,84,99783,1,8,0:0:0:0:
224,84,100183,1,0,0:0:0:0:
292,103,100583,1,8,0:0:0:0:
292,103,100783,1,8,0:0:0:0:
292,103,100983,1,0,0:0:0:0:
292,103,101383,1,8,0:0:0:0:
292,103,101783,1,8,0:0:0:0:
292,103,102183,1,0,0:0:0:0:
292,103,102583,1,0,0:0:0:0:
292,103,102983,1,12,0:0:0:0:
306,190,103783,1,8,0:0:0:0:
306,190,104583,1,8,0:0:0:0:
306,190,105383,1,8,0:0:0:0:
306,190,106183,1,0,0:0:0:0:
357,186,106983,1,8,0:0:0:0:
128,161,107783,1,0,0:0:0:0:
167,161,108583,1,8,0:0:0:0:
350,168,109383,1,8,0:0:0:0:
219,191,110183,1,8,0:0:0:0:
219,191,110983,1,8,0:0:0:0:
219,191,111783,1,8,0:0:0:0:
146,169,112583,1,0,0:0:0:0:
309,174,113383,1,8,0:0:0:0:
271,157,114183,1,0,0:0:0:0:
271,157,114983,1,8,0:0:0:0:
184,201,115783,5,12,0:0:0:0:
224,181,116183,1,8,0:0:0:0:
224,181,116383,1,0,0:0:0:0:
224,181,116583,1,8,0:0:0:0:
224,181,116983,1,8,0:0:0:0:
226,158,117383,1,0,0:0:0:0:
226,158,117583,1,8,0:0:0:0:
226,158,117783,1,8,0:0:0:0:
226,158,118183,1,8,0:0:0:0:
172,167,118583,1,0,0:0:0:0:
172,167,118983,1,8,0:0:0:0:
172,162,119383,1,8,0:0:0:0:
172,162,119583,1,0,0:0:0:0:
172,162,119783,1,8,0:0:0:0:
172,162,120183,1,8,0:0:0:0:
172,162,120583,1,0,0:0:0:0:
172,162,120783,1,8,0:0:0:0:
172,162,120983,1,8,0:0:0:0:
172,162,121383,1,8,0:0:0:0:
172,162,122183,1,8,0:0:0:0:
175,158,122583,1,0,0:0:0:0:
225,104,122783,1,0,0:0:0:0:
183,117,122983,1,8,0:0:0:0:
183,117,123383,1,0,0:0:0:0:
183,117,123783,1,8,0:0:0:0:
183,117,124183,1,0,0:0:0:0:
271,95,124383,1,0,0:0:0:0:
183,117,124583,1,8,0:0:0:0:
232,93,124783,1,8,0:0:0:0:
183,117,124983,1,0,0:0:0:0:
183,117,125383,1,8,0:0:0:0:
183,117,125783,1,8,0:0:0:0:
203,93,125983,1,8,0:0:0:0:
183,117,126183,1,0,0:0:0:0:
206,117,126383,1,0,0:0:0:0:
206,117,126583,1,8,0:0:0:0:
328,152,126783,1,8,0:0:0:0:
290,142,127783,1,8,0:0:0:0:
313,171,128083,1,8,0:0:0:0:
313,171,128383,1,8,0:0:0:0:
181,56,128583,1,4,0:0:0:0:
207,138,129383,1,8,0:0:0:0:
230,141,129783,1,0,0:0:0:0:
230,141,129983,1,0,0:0:0:0:
230,141,130183,1,8,0:0:0:0:
230,141,130483,1,0,0:0:0:0:
303,140,130783,1,0,0:0:0:0:
303,140,130983,1,8,0:0:0:0:
303,140,131383,1,8,0:0:0:0:
303,140,131583,1,8,0:0:0:0:
303,140,131783,1,4,0:0:0:0:
194,170,132583,1,8,0:0:0:0:
199,169,132983,1,8,0:0:0:0:
199,169,133183,1,0,0:0:0:0:
199,169,133383,1,8,0:0:0:0:
199,169,133683,1,8,0:0:0:0:
199,169,133983,1,0,0:0:0:0:
199,169,134183,1,8,0:0:0:0:
199,163,134783,1,8,0:0:0:0:
199,169,134983,1,4,0:0:0:0:
199,163,135783,1,8,0:0:0:0:
203,159,136183,1,0,0:0:0:0:
199,163,136383,1,0,0:0:0:0:
185,189,136583,1,8,0:0:0:0:
185,189,136883,1,0,0:0:0:0:
185,189,137183,1,0,0:0:0:0:
185,189,137383,1,8,0:0:0:0:
192,185,137783,1,8,0:0:0:0:
194,183,138183,1,4,0:0:0:0:
211,153,138983,1,8,0:0:0:0:
211,153,139383,1,0,0:0:0:0:
211,153,139783,1,8,0:0:0:0:
186,130,139983,1,8,0:0:0:0:
211,153,140183,1,8,0:0:0:0:
186,130,140383,1,8,0:0:0:0:
211,153,140583,1,8,0:0:0:0:
211,153,140983,1,8,0:0:0:0:
108,184,141183,1,0,0:0:0:0:
108,184,141383,1,12,0:0:0:0:
220,225,154183,5,8,0:0:0:0:
220,225,154983,1,0,0:0:0:0:
220,225,155783,1,8,0:0:0:0:
220,225,156183,1,8,0:0:0:0:
220,225,156583,1,0,0:0:0:0:
220,225,157383,1,8,0:0:0:0:
220,225,158183,1,0,0:0:0:0:
220,225,158983,1,8,0:0:0:0:
220,225,159583,1,8,0:0:0:0:
218,218,160183,1,0,0:0:0:0:
116,45,160583,1,8,0:0:0:0:
212,149,160983,1,0,0:0:0:0:
212,149,161383,1,8,0:0:0:0:
212,149,161783,1,0,0:0:0:0:
212,149,162183,1,8,0:0:0:0:
212,149,162583,1,8,0:0:0:0:
212,149,162983,1,0,0:0:0:0:
212,149,163383,1,0,0:0:0:0:
259,214,163783,5,0,0:0:0:0:
212,149,163983,1,0,0:0:0:0:
259,214,164183,1,0,0:0:0:0:
259,214,164583,1,0,0:0:0:0:
259,214,164783,1,0,0:0:0:0:
259,214,164983,1,0,0:0:0:0:
259,214,165183,1,0,0:0:0:0:
252,218,165383,1,8,0:0:0:0:
188,148,166983,1,4,0:0:0:0:
199,86,167783,1,0,0:0:0:0:
223,150,168383,1,8,0:0:0:0:
286,144,168583,1,0,0:0:0:0:
223,148,168783,1,8,0:0:0:0:
225,95,169183,1,8,0:0:0:0:
225,95,169383,1,0,0:0:0:0:
234,98,169683,1,0,0:0:0:0:
235,99,169983,1,0,0:0:0:0:
240,98,170183,1,12,0:0:0:0:
176,107,170983,1,8,0:0:0:0:
176,107,171583,1,0,0:0:0:0:
176,107,171783,1,8,0:0:0:0:
176,107,171983,1,0,0:0:0:0:
176,107,172383,1,0,0:0:0:0:
176,107,172583,1,8,0:0:0:0:
176,107,172883,1,8,0:0:0:0:
176,107,173183,1,8,0:0:0:0:
176,107,173383,1,4,0:0:0:0:
183,110,174183,1,0,0:0:0:0:
187,113,174783,1,8,0:0:0:0:
188,113,174983,1,0,0:0:0:0:
187,113,175183,1,8,0:0:0:0:
187,113,175583,1,8,0:0:0:0:
187,113,175783,1,0,0:0:0:0:
187,113,176083,1,0,0:0:0:0:
187,113,176383,1,0,0:0:0:0:
187,113,176583,1,12,0:0:0:0:
187,113,177383,1,8,0:0:0:0:
187,113,177983,1,0,0:0:0:0:
187,113,178183,1,12,0:0:0:0:
187,113,178583,1,12,0:0:0:0:
187,113,178983,1,12,0:0:0:0:
187,113,179383,1,12,0:0:0:0:
188,148,179783,1,4,0:0:0:0:
199,86,180583,1,0,0:0:0:0:
223,150,181183,1,8,0:0:0:0:
286,144,181383,1,0,0:0:0:0:
223,148,181583,1,8,0:0:0:0:
182,178,181783,1,0,0:0:0:0:
225,95,181983,1,0,0:0:0:0:
225,95,182183,1,8,0:0:0:0:
234,98,182483,1,0,0:0:0:0:
235,99,182783,1,0,0:0:0:0:
240,98,182983,1,12,0:0:0:0:
176,107,183783,1,8,0:0:0:0:
176,107,184383,1,0,0:0:0:0:
176,107,184583,1,8,0:0:0:0:
176,107,184783,1,0,0:0:0:0:
246,151,184983,1,8,0:0:0:0:
176,107,185183,1,8,0:0:0:0:
176,107,185383,1,0,0:0:0:0:
176,107,185783,1,8,0:0:0:0:
134,178,185983,1,8,0:0:0:0:
176,107,186183,1,4,0:0:0:0:
183,110,186983,1,0,0:0:0:0:
187,113,187583,1,8,0:0:0:0:
188,113,187783,1,0,0:0:0:0:
187,113,187983,1,8,0:0:0:0:
142,161,188183,1,0,0:0:0:0:
187,113,188383,1,0,0:0:0:0:
187,113,188583,1,8,0:0:0:0:
187,113,188883,1,0,0:0:0:0:
187,113,189183,1,0,0:0:0:0:
187,113,189383,1,12,0:0:0:0:
187,113,190183,1,8,0:0:0:0:
187,113,190783,1,0,0:0:0:0:
187,113,190983,1,12,0:0:0:0:
187,113,191383,1,12,0:0:0:0:
187,113,191783,1,12,0:0:0:0:
187,113,192183,1,12,0:0:0:0:
261,131,192583,1,4,0:0:0:0:
