osu file format v14

[General]
AudioFilename: audio.mp3
AudioLeadIn: 0
PreviewTime: 106782
Countdown: 0
SampleSet: Soft
StackLeniency: 0.7
Mode: 2
LetterboxInBreaks: 0
WidescreenStoryboard: 0

[Editor]
DistanceSpacing: 1
BeatDivisor: 4
GridSize: 8
TimelineZoom: 2.7

[Metadata]
Title:GOOD NIGHT
TitleUnicode:GOOD NIGHT
Artist:Dreamcatcher
ArtistUnicode:드림캐쳐
Creator:Quit user
Version:TWILIGHT
Source:
Tags:
BeatmapID:1352776
BeatmapSetID:637704

[Difficulty]
HPDrainRate:7
CircleSize:4
OverallDifficulty:9.6
ApproachRate:9.6
SliderMultiplier:2
SliderTickRate:1

[Events]
//Background and Video events
0,0,"372669-blackangel.jpg",0,0
Video,0,"GOOD+NIGHT.avi"
//Break Periods
2,149533,152498
//Storyboard Layer 0 (Background)
//Storyboard Layer 1 (Fail)
//Storyboard Layer 2 (Pass)
//Storyboard Layer 3 (Foreground)
//Storyboard Sound Samples

[TimingPoints]
9742,306.122448979592,4,2,1,65,1,0
9742,-500,4,2,1,65,0,0
9818,-500,4,2,1,20,0,0
10889,-500,4,2,1,5,0,0
10966,-111.111111111111,4,2,2,40,0,0
11731,-111.111111111111,4,2,1,60,0,0
11884,-111.111111111111,4,2,2,40,0,0
12114,-111.111111111111,4,2,1,5,0,0
12190,-100,4,2,2,60,0,1
17318,-100,4,2,2,5,0,1
17395,-83.3333333333333,4,2,2,60,0,1
17854,-100,4,2,2,60,0,1
21986,-133.333333333333,4,2,1,30,0,0
22905,-133.333333333333,4,2,2,50,0,0
23517,-238.095238095238,4,2,2,30,0,0
23823,-238.095238095238,4,2,2,5,0,0
23976,-238.095238095238,4,2,2,30,0,0
24053,-238.095238095238,4,2,2,32,0,0
24129,-238.095238095238,4,2,2,34,0,0
24206,-238.095238095238,4,2,2,36,0,0
24282,-238.095238095238,4,2,2,38,0,0
24359,-238.095238095238,4,2,2,40,0,0
24435,-111.111111111111,4,2,2,50,0,0
25660,-142.857142857143,4,2,2,50,0,0
25813,-142.857142857143,4,2,2,5,0,0
25966,-142.857142857143,4,2,2,50,0,0
26119,-142.857142857143,4,2,2,5,0,0
26272,-142.857142857143,4,2,2,50,0,0
26502,-142.857142857143,4,2,2,5,0,0
26578,-142.857142857143,4,2,2,50,0,0
26884,-111.111111111111,4,2,2,50,0,0
28109,-142.857142857143,4,2,2,50,0,0
28262,-142.857142857143,4,2,2,5,0,0
28415,-142.857142857143,4,2,2,50,0,0
28951,-142.857142857143,4,2,2,5,0,0
29027,-142.857142857143,4,2,2,50,0,0
29333,-111.111111111111,4,2,2,50,0,0
30711,-111.111111111111,4,2,2,30,0,0
31017,-99.9999999999999,4,2,2,60,0,0
31782,-99.9999999999999,4,2,2,70,0,1
34155,-99.9999999999999,4,2,2,5,0,1
34231,-111.111111111111,4,2,2,50,0,0
35456,-142.857142857143,4,2,2,50,0,0
35609,-142.857142857143,4,2,2,5,0,0
35762,-142.857142857143,4,2,2,50,0,0
35915,-142.857142857143,4,2,2,5,0,0
36068,-142.857142857143,4,2,2,50,0,0
36298,-142.857142857143,4,2,2,5,0,0
36374,-142.857142857143,4,2,2,50,0,0
36680,-111.111111111111,4,2,2,50,0,0
37905,-142.857142857143,4,2,2,50,0,0
38747,-142.857142857143,4,2,2,5,0,0
38823,-142.857142857143,4,2,2,50,0,0
39129,-111.111111111111,4,2,2,50,0,0
40507,-111.111111111111,4,2,2,30,0,0
40813,-99.9999999999999,4,2,2,60,0,0
41578,-99.9999999999999,4,2,2,70,0,1
44027,-125,4,2,2,60,0,0
48925,-111.111111111111,4,2,2,65,0,0
49078,-111.111111111111,4,2,1,55,0,0
49231,-111.111111111111,4,2,2,65,0,0
49384,-111.111111111111,4,2,1,55,0,0
49537,-111.111111111111,4,2,2,65,0,0
49690,-111.111111111111,4,2,1,55,0,0
49844,-111.111111111111,4,2,2,65,0,0
49997,-111.111111111111,4,2,1,55,0,0
50150,-111.111111111111,4,2,2,65,0,0
50303,-111.111111111111,4,2,1,55,0,0
50456,-111.111111111111,4,2,2,65,0,0
50609,-111.111111111111,4,2,1,55,0,0
50762,-111.111111111111,4,2,2,65,0,0
51221,-111.111111111111,4,2,1,55,0,0
51374,-111.111111111111,4,2,2,65,0,0
51527,-111.111111111111,4,2,1,55,0,0
51680,-111.111111111111,4,2,2,65,0,0
51833,-111.111111111111,4,2,1,55,0,0
51986,-111.111111111111,4,2,2,65,0,0
52139,-111.111111111111,4,2,1,55,0,0
52293,-199.999999999999,4,2,1,70,0,0
52446,-199.999999999999,4,2,2,60,0,0
52599,-66.6666666666667,4,2,1,70,0,0
52752,-66.6666666666667,4,2,2,60,0,0
53058,-200,4,2,2,50,0,0
53517,-200,4,2,2,5,0,0
53823,-50,4,2,2,70,0,1
54053,-50,4,2,2,5,0,1
54129,-55.5555555555556,4,2,2,70,0,1
54359,-55.5555555555556,4,2,2,5,0,1
54435,-62.5,4,2,2,70,0,1
54895,-90.9090909090909,4,2,2,70,0,1
56272,-50,4,2,2,70,0,1
56502,-50,4,2,2,5,0,1
56578,-55.5555555555556,4,2,2,70,0,1
56808,-55.5555555555556,4,2,2,5,0,1
56884,-62.5,4,2,2,70,0,1
57344,-90.9090909090909,4,2,2,70,0,1
63543,-125,4,2,2,5,0,0
63619,-50,4,2,2,70,0,1
63849,-50,4,2,2,5,0,1
63925,-50,4,2,2,70,0,1
64155,-50,4,2,2,5,0,1
64231,-62.5,4,2,2,70,0,1
64690,-90.9090909090909,4,2,2,70,0,1
72344,-90.9090909090909,4,2,1,70,0,1
72803,-90.9090909090909,4,2,2,70,0,1
72956,-90.9090909090909,4,2,1,70,0,1
73415,-111.111111111111,4,2,2,50,0,0
74639,-500,4,2,2,70,0,0
74946,-500,4,2,2,5,0,0
75099,-500,4,2,2,50,0,0
75252,-100,4,2,2,50,0,0
75405,-100,4,2,2,5,0,0
75558,-100,4,2,2,50,0,0
75864,-111.111111111111,4,2,2,50,0,0
77242,-200,4,2,1,25,0,0
78313,-125,4,2,1,35,0,0
78925,-125,4,2,1,55,0,0
79078,-125,4,2,1,35,0,0
80150,-125,4,2,1,55,0,0
80303,-125,4,2,1,35,0,0
81374,-125,4,2,1,55,0,0
81527,-125,4,2,1,35,0,0
82599,-125,4,2,1,55,0,0
82752,-125,4,2,1,35,0,0
83517,-200,4,2,1,55,0,0
83670,-200,4,2,1,35,0,0
83823,-200,4,2,1,65,0,0
83976,-200,4,2,1,35,0,0
84129,-200,4,2,1,55,0,0
84282,-200,4,2,1,35,0,0
84435,-166.666666666667,4,2,1,55,0,0
84588,-166.666666666667,4,2,1,35,0,0
84742,-166.666666666667,4,2,1,55,0,0
84895,-166.666666666667,4,2,1,35,0,0
85048,-142.857142857143,4,2,1,65,0,0
85201,-142.857142857143,4,2,1,35,0,0
85354,-142.857142857143,4,2,1,55,0,0
85507,-142.857142857143,4,2,1,35,0,0
85660,-125,4,2,1,55,0,0
85813,-125,4,2,1,35,0,0
85966,-125,4,2,1,55,0,0
86119,-125,4,2,1,35,0,0
86272,-111.111111111111,4,2,1,55,0,0
86425,-111.111111111111,4,2,1,35,0,0
86578,-111.111111111111,4,2,1,55,0,0
86731,-111.111111111111,4,2,1,35,0,0
86884,-100,4,2,1,55,0,0
87037,-100,4,2,1,35,0,0
87190,-100,4,2,1,55,0,0
87344,-100,4,2,1,35,0,0
87497,-100,4,2,1,65,0,0
87726,-100,4,2,1,5,0,0
87803,-83.3333333333333,4,2,1,50,0,0
88032,-83.3333333333333,4,2,1,5,0,0
88109,-111.111111111111,4,2,2,50,0,0
89180,-142.857142857143,4,2,2,50,0,0
90099,-142.857142857143,4,2,2,5,0,0
90252,-142.857142857143,4,2,2,50,0,0
90558,-111.111111111111,4,2,2,50,0,0
91629,-142.857142857143,4,2,2,50,0,0
92548,-142.857142857143,4,2,2,5,0,0
92701,-142.857142857143,4,2,2,50,0,0
93007,-111.111111111111,4,2,2,50,0,0
94231,-142.857142857143,4,2,2,30,0,0
94690,-100,4,2,2,60,0,0
95456,-100,4,2,2,70,0,1
97905,-125,4,2,2,60,0,0
102803,-111.111111111111,4,2,2,65,0,0
102956,-111.111111111111,4,2,1,55,0,0
103109,-111.111111111111,4,2,2,65,0,0
103262,-111.111111111111,4,2,1,55,0,0
103415,-111.111111111111,4,2,2,65,0,0
103568,-111.111111111111,4,2,1,55,0,0
103721,-111.111111111111,4,2,2,65,0,0
103874,-111.111111111111,4,2,1,55,0,0
104027,-111.111111111111,4,2,2,65,0,0
104180,-111.111111111111,4,2,1,55,0,0
104333,-111.111111111111,4,2,2,65,0,0
104486,-111.111111111111,4,2,1,55,0,0
104639,-111.111111111111,4,2,2,65,0,0
105099,-111.111111111111,4,2,1,55,0,0
105252,-111.111111111111,4,2,2,65,0,0
105405,-111.111111111111,4,2,1,55,0,0
105558,-111.111111111111,4,2,2,65,0,0
105711,-111.111111111111,4,2,1,55,0,0
105864,-111.111111111111,4,2,2,65,0,0
106017,-111.111111111111,4,2,1,55,0,0
106170,-200,4,2,1,70,0,0
106323,-200,4,2,2,60,0,0
106476,-66.6666666666667,4,2,1,70,0,0
106629,-66.6666666666667,4,2,2,60,0,0
106935,-200,4,2,2,50,0,0
107395,-200,4,2,2,5,0,0
107701,-50,4,2,2,70,0,1
107930,-50,4,2,2,5,0,1
108007,-55.5555555555556,4,2,2,70,0,1
108236,-55.5555555555556,4,2,2,5,0,1
108313,-62.5,4,2,2,70,0,1
108772,-90.9090909090909,4,2,2,70,0,1
110150,-50,4,2,2,70,0,1
110379,-50,4,2,2,5,0,1
110456,-55.5555555555556,4,2,2,70,0,1
110685,-55.5555555555556,4,2,2,5,0,1
110762,-62.5,4,2,2,70,0,1
111221,-90.9090909090909,4,2,2,70,0,1
117420,-125,4,2,2,5,0,0
117497,-50,4,2,2,70,0,1
117726,-50,4,2,2,5,0,1
117803,-50,4,2,2,70,0,1
118032,-50,4,2,2,5,0,1
118109,-62.5,4,2,2,70,0,1
118568,-90.9090909090909,4,2,2,70,0,1
126527,-90.9090909090909,4,2,1,70,0,1
126680,-90.9090909090909,4,2,2,70,0,1
126833,-90.9090909090909,4,2,1,70,0,1
127293,-111.111111111111,4,2,2,50,0,0
128517,-250,4,2,1,70,0,0
128747,-250,4,2,1,5,0,0
128823,-142.857142857143,4,2,2,50,0,0
129435,-142.857142857143,4,2,2,5,0,0
129512,-142.857142857143,4,2,2,50,0,0
129742,-200,4,2,2,50,0,0
130048,-200,4,2,3,40,0,0
130201,-200,4,2,3,5,0,0
130354,-200,4,2,3,40,0,0
130660,-200,4,2,3,5,0,0
130813,-200,4,2,3,40,0,0
131119,-200,4,2,3,5,0,0
131272,-200,4,2,3,40,0,0
131578,-200,4,2,3,5,0,0
131731,-200,4,2,3,40,0,0
131884,-200,4,2,3,5,0,0
132037,-200,4,2,3,40,0,0
132344,-200,4,2,3,5,0,0
133415,-200,4,2,3,40,0,0
134946,-200,4,2,3,50,0,0
135099,-200,4,2,3,5,0,0
135252,-200,4,2,3,50,0,0
135558,-200,4,2,3,5,0,0
135711,-200,4,2,3,50,0,0
136017,-200,4,2,3,5,0,0
136170,-200,4,2,3,50,0,0
136629,-200,4,2,3,5,0,0
136782,-200,4,2,3,50,0,0
136935,-200,4,2,3,5,0,0
137088,-181.818181818182,4,2,3,50,0,0
137318,-181.818181818182,4,2,3,5,0,0
137548,-166.666666666667,4,2,3,50,0,0
137777,-166.666666666667,4,2,3,5,0,0
138007,-153.846153846154,4,2,3,50,0,0
138236,-153.846153846154,4,2,3,5,0,0
138772,-153.846153846154,4,2,2,50,0,0
139231,-153.846153846154,4,2,3,50,0,0
139537,-117.647058823529,4,2,2,60,0,0
140609,-111.111111111111,4,2,2,60,0,0
142599,-105.263157894737,4,2,2,60,0,0
143823,-100,4,2,2,60,0,0
146884,-111.111111111111,4,2,2,60,0,0
147114,-111.111111111111,4,2,2,5,0,0
147956,-111.111111111111,4,2,2,25,0,0
148109,-166.666666666667,4,2,2,30,0,0
148415,-166.666666666667,4,2,2,5,0,0
148568,-200,4,2,2,20,0,0
149180,-200,4,2,2,5,0,0
149333,-133.333333333333,4,2,22,40,0,0
149486,-133.333333333333,4,2,3,5,0,0
149639,-133.333333333333,4,2,23,40,0,0
149793,-133.333333333333,4,2,3,5,0,0
149946,-133.333333333333,4,2,24,40,0,0
150099,-133.333333333333,4,2,20,40,0,0
150252,-133.333333333333,4,2,3,5,0,0
150405,-133.333333333333,4,2,25,40,0,0
150634,-133.333333333333,4,2,3,5,0,0
150864,-133.333333333333,4,2,24,40,0,0
151170,-133.333333333333,4,2,23,40,0,0
151323,-133.333333333333,4,2,22,40,0,0
151476,-133.333333333333,4,2,22,25,0,0
151782,-133.333333333333,4,2,21,40,0,0
151935,-133.333333333333,4,2,3,5,0,0
152088,-133.333333333333,4,2,22,40,0,0
152242,-133.333333333333,4,2,3,5,0,0
152395,-133.333333333333,4,2,23,40,0,0
152548,-133.333333333333,4,2,19,40,0,0
152701,-133.333333333333,4,2,3,5,0,0
152854,-90.9090909090909,4,2,2,70,0,0
153007,-90.9090909090909,4,2,2,70,0,1
153619,-90.9090909090909,4,2,2,60,0,1
153772,-90.9090909090909,4,2,2,50,0,1
153925,-90.9090909090909,4,2,2,40,0,1
154078,-90.9090909090909,4,2,2,30,0,1
154231,-90.9090909090909,4,2,2,70,0,1
159053,-125,4,2,2,5,0,0
159129,-50,4,2,2,70,0,1
159359,-50,4,2,2,5,0,1
159435,-50,4,2,2,70,0,1
159665,-50,4,2,2,5,0,1
159741,-62.5,4,2,2,70,0,1
160200,-90.9090909090909,4,2,2,70,0,1
168160,-90.9090909090909,4,2,1,70,0,1
168313,-90.9090909090909,4,2,2,70,0,1
168466,-90.9090909090909,4,2,1,70,0,1
168925,-111.111111111111,4,2,2,50,0,0
170149,-500,4,2,2,50,0,0
170456,-500,4,2,2,5,0,0
170609,-500,4,2,2,50,0,0
170762,-100,4,2,2,50,0,0
170915,-100,4,2,2,5,0,0
171068,-100,4,2,2,50,0,0
171374,-111.111111111111,4,2,2,50,0,0
172599,-111.111111111111,4,2,2,5,0,0

[HitObjects]
64,64,9742,6,0,P|64:160|64:224,1,160,4|12,0:0|0:0,0:0:0:0:
352,208,11119,2,0,L|160:208,1,179.999994506836,8|8,0:0|0:0,0:0:0:0:
128,208,11502,1,8,0:0:0:0:
288,208,11578,2,0,L|384:208,1,89.9999972534181,12|8,0:0|0:0,0:0:0:0:
32,208,11884,2,0,L|240:208,1,179.999994506836,12|6,0:0|0:0,0:0:0:0:
320,208,12344,5,2,0:0:0:0:
64,208,12497,1,8,0:0:0:0:
168,208,12651,1,2,0:0:0:0:
464,208,12803,1,8,3:0:0:0:
360,208,12957,1,8,3:0:0:0:
248,208,13109,1,8,0:0:0:0:
496,208,13262,2,0,L|336:336,1,200,6|8,0:0|3:0,0:0:0:0:
80,352,13721,1,8,0:0:0:0:
32,352,13874,1,2,0:0:0:0:
384,352,14027,1,8,3:0:0:0:
336,352,14180,1,8,3:0:0:0:
80,352,14333,1,8,0:0:0:0:
128,352,14486,1,2,0:0:0:0:
480,352,14639,5,6,0:0:0:0:
384,352,14792,1,2,0:0:0:0:
136,352,14946,1,8,0:0:0:0:
40,352,15099,1,2,3:0:0:0:
352,352,15252,1,8,3:0:0:0:
256,352,15405,1,8,3:0:0:0:
448,352,15558,1,8,0:0:0:0:
152,352,15711,2,0,P|64:352|32:248,1,200,6|8,0:0|3:0,0:0:0:0:
320,336,16170,1,8,0:0:0:0:
368,336,16323,1,8,3:0:0:0:
112,336,16476,1,8,3:0:0:0:
64,336,16629,1,8,3:0:0:0:
416,336,16782,1,8,0:0:0:0:
368,336,16935,1,2,0:0:0:0:
112,336,17088,6,0,L|40:256,1,100,6|0,0:0|0:0,0:0:0:0:
336,176,17395,2,0,L|96:176,1,239.999992675781,8|8,0:0|3:0,0:0:0:0:
440,136,17854,2,0,L|320:136,1,100,2|8,0:0|0:0,0:0:0:0:
88,128,18160,2,0,P|112:208|224:224,1,200,8|8,3:0|3:0,0:0:0:0:
64,232,18619,1,8,0:0:0:0:
424,128,18772,2,0,P|400:208|288:224,1,200,8|8,3:0|3:0,0:0:0:0:
512,216,19231,1,8,0:0:0:0:
128,224,19537,5,6,0:0:0:0:
32,224,19690,1,8,3:0:0:0:
360,224,19844,1,6,0:0:0:0:
112,224,19997,2,0,P|72:152|184:136,1,200,8|10,3:0|3:0,0:0:0:0:
408,112,20456,1,10,0:0:0:0:
158,111,20609,2,0,P|74:142|112:224,1,200,10|8,3:0|3:0,0:0:0:0:
360,224,21068,1,2,0:0:0:0:
112,224,21221,2,0,L|72:192,1,50,8|8,3:0|3:0,0:0:0:0:
272,160,21374,6,0,L|384:160,1,100,10|8,0:0|3:0,0:0:0:0:
24,120,21680,2,0,L|144:120,1,100,10|8,0:0|3:0,0:0:0:0:
384,112,21986,6,0,L|464:168,6,75.0000028610231,8|8|8|8|8|8|8,3:0|3:0|3:0|3:0|3:0|3:0|0:0,0:0:0:0:
80,104,23058,1,8,0:0:0:0:
392,96,23517,2,0,P|464:136|472:176,1,125.999996154785,2|8,0:0|1:0,0:0:0:0:
160,128,24053,1,8,1:0:0:0:
155,137,24091,1,0,0:0:0:0:
150,146,24129,1,8,1:0:0:0:
145,156,24167,1,0,0:0:0:0:
149,162,24206,1,8,1:0:0:0:
159,166,24244,1,0,0:0:0:0:
169,170,24282,1,8,1:0:0:0:
179,174,24320,1,0,0:0:0:0:
188,177,24359,1,8,1:0:0:0:
296,176,24435,6,0,L|336:288,1,89.9999972534181,12|8,0:0|3:0,0:0:0:0:
104,248,24742,2,0,L|144:360,1,89.9999972534181,8|8,0:0|3:0,0:0:0:0:
360,328,25048,2,0,L|456:328,1,89.9999972534181,8|8,0:0|3:0,0:0:0:0:
232,288,25354,1,8,0:0:0:0:
504,288,25507,1,8,3:0:0:0:
8,288,26272,1,4,1:0:0:0:
376,288,26884,6,0,L|440:224,1,89.9999972534181,12|8,0:0|3:0,0:0:0:0:
280,216,27190,2,0,L|176:216,1,89.9999972534181,8|8,0:0|3:0,0:0:0:0:
32,168,27497,2,0,L|128:168,1,89.9999972534181,8|8,0:0|3:0,0:0:0:0:
344,168,27803,1,8,0:0:0:0:
72,168,27956,1,8,3:0:0:0:
512,160,28568,1,8,3:0:0:0:
0,168,28721,1,4,1:0:0:0:
384,168,29333,6,0,P|408:240|400:272,1,89.9999972534181,12|8,0:0|3:0,0:0:0:0:
248,240,29639,2,0,P|224:312|232:344,1,89.9999972534181,8|8,0:0|3:0,0:0:0:0:
64,328,29946,2,0,L|24:240,1,89.9999972534181,8|8,0:0|3:0,0:0:0:0:
256,296,30252,2,0,L|160:296,1,89.9999972534181,8|8,0:0|3:0,0:0:0:0:
432,296,30558,1,0,0:0:0:0:
160,296,30711,2,0,L|280:296,1,89.9999972534181,2|0,0:0|0:0,0:0:0:0:
72,296,31017,2,0,L|32:264,1,50,8|8,0:0|0:0,0:0:0:0:
288,256,31170,2,0,P|320:216|144:152,1,350,14|0,0:0|0:0,0:0:0:0:
448,144,31782,5,6,0:0:0:0:
352,144,31935,1,0,0:0:0:0:
448,144,32088,1,8,0:0:0:0:
64,144,32242,1,2,0:0:0:0:
160,144,32395,1,0,0:0:0:0:
256,144,32548,1,0,0:0:0:0:
112,144,32701,1,8,0:0:0:0:
208,144,32854,1,8,3:0:0:0:
456,144,33007,6,0,L|352:144,1,100,6|8,0:0|3:0,0:0:0:0:
56,144,33313,2,0,L|160:144,1,100,8|2,0:0|0:0,0:0:0:0:
328,144,33619,2,0,L|448:144,1,100,8|8,3:0|3:0,0:0:0:0:
168,144,33925,2,0,L|56:144,1,100,8|0,0:0|0:0,0:0:0:0:
344,144,34231,1,12,0:0:0:0:
86,144,34384,2,0,L|176:144,1,89.9999972534181,8|8,3:0|0:0,0:0:0:0:
392,144,34690,1,8,3:0:0:0:
104,144,34843,2,0,L|194:144,1,89.9999972534181,8|8,0:0|3:0,0:0:0:0:
416,144,35150,1,8,0:0:0:0:
0,144,35303,1,8,3:0:0:0:
0,144,35456,1,6,0:0:0:0:
512,144,36068,6,0,L|512:368,1,209.999993591309,12|2,0:0|0:0,0:0:0:0:
168,144,36680,1,12,0:0:0:0:
426,144,36833,2,0,L|336:144,1,89.9999972534181,8|8,3:0|0:0,0:0:0:0:
120,144,37139,1,8,3:0:0:0:
408,144,37292,2,0,L|318:144,1,89.9999972534181,8|8,0:0|3:0,0:0:0:0:
96,144,37599,1,8,0:0:0:0:
512,144,37752,1,8,3:0:0:0:
512,144,37905,1,6,0:0:0:0:
272,144,38058,1,8,3:0:0:0:
32,152,38364,1,8,3:0:0:0:
384,160,38517,2,0,L|240:160,1,139.999995727539,8|2,0:0|0:0,0:0:0:0:
176,160,38976,1,2,0:0:0:0:
448,160,39129,6,0,L|344:160,2,89.9999972534181,12|8|8,0:0|3:0|0:0,0:0:0:0:
64,160,39588,2,0,L|168:160,2,89.9999972534181,8|8|12,3:0|0:0|3:0,0:0:0:0:
336,160,40048,1,8,0:0:0:0:
200,160,40201,1,8,3:0:0:0:
64,160,40354,1,0,0:0:0:0:
384,160,40813,2,0,L|464:160,1,50,8|8,0:0|0:0,0:0:0:0:
280,160,40966,2,0,L|168:160,1,100,14|10,0:0|0:0,0:0:0:0:
480,160,41272,2,0,L|368:160,1,100,10|10,0:0|0:0,0:0:0:0:
80,144,41578,6,0,L|192:144,2,100,6|0|8,0:0|0:0|0:0,0:0:0:0:
376,144,42037,2,0,L|488:144,1,100,2|0,0:0|0:0,0:0:0:0:
176,144,42344,1,0,0:0:0:0:
472,144,42497,1,8,0:0:0:0:
224,144,42650,2,0,L|424:144,1,200,8|0,3:0|0:0,0:0:0:0:
128,144,43109,1,8,0:0:0:0:
376,144,43262,1,8,3:0:0:0:
415,172,43338,1,8,3:0:0:0:
423,220,43415,1,8,3:0:0:0:
328,240,43568,1,8,3:0:0:0:
80,232,43721,2,0,L|208:232,1,100,8|8,0:0|3:0,0:0:0:0:
416,240,44027,6,0,L|416:160,1,80,6|0,0:0|0:0,0:0:0:0:
176,160,44333,2,0,L|176:80,1,80,8|2,3:0|0:0,0:0:0:0:
336,80,44639,2,0,L|336:160,1,80,0|0,0:0|0:0,0:0:0:0:
96,160,44946,2,0,L|96:240,1,80,8|0,3:0|0:0,0:0:0:0:
416,248,45252,2,0,L|416:168,1,80,8|0,3:0|0:0,0:0:0:0:
184,160,45558,2,0,L|184:64,1,80,8|2,3:0|0:0,0:0:0:0:
384,80,45864,2,0,L|384:184,1,80,0|0,0:0|0:0,0:0:0:0:
64,160,46170,2,0,L|64:264,1,80,8|0,3:0|0:0,0:0:0:0:
344,248,46476,6,0,L|344:152,1,80,8|0,3:0|0:0,0:0:0:0:
104,160,46782,2,0,L|104:72,1,80,8|0,3:0|0:0,0:0:0:0:
304,80,47088,2,0,L|304:184,1,80,8|0,3:0|0:0,0:0:0:0:
144,160,47395,2,0,L|144:264,1,80,8|2,3:0|0:0,0:0:0:0:
424,248,47701,2,0,L|424:168,1,80,8|2,3:0|0:0,0:0:0:0:
184,160,48007,2,0,L|184:240,1,80,8|2,3:0|0:0,0:0:0:0:
376,248,48313,2,0,L|376:160,1,80,8|2,3:0|0:0,0:0:0:0:
56,160,48619,2,0,L|144:160,1,80,8|2,3:0|0:0,0:0:0:0:
400,96,48925,5,6,0:0:0:0:
432,126,49001,1,0,0:0:0:0:
448,167,49078,1,8,3:0:0:0:
442,212,49154,1,0,0:0:0:0:
417,248,49231,1,8,3:0:0:0:
377,269,49307,1,0,0:0:0:0:
168,296,49384,5,8,3:0:0:0:
123,296,49460,1,0,0:0:0:0:
392,296,49537,5,8,3:0:0:0:
394,251,49613,1,0,0:0:0:0:
375,211,49690,1,8,3:0:0:0:
340,183,49766,1,0,0:0:0:0:
296,175,49843,1,8,3:0:0:0:
253,189,49919,1,0,0:0:0:0:
392,168,49997,1,8,3:0:0:0:
437,168,50073,1,0,0:0:0:0:
168,120,50150,5,8,3:0:0:0:
130,144,50226,1,0,0:0:0:0:
112,184,50303,1,8,3:0:0:0:
119,228,50379,1,0,0:0:0:0:
149,260,50456,1,8,3:0:0:0:
192,272,50532,1,0,0:0:0:0:
376,272,50609,1,8,3:0:0:0:
421,272,50685,1,8,3:0:0:0:
152,272,50762,5,8,0:0:0:0:
124,237,50838,1,0,0:0:0:0:
123,193,50915,1,2,0:0:0:0:
151,159,50991,1,0,0:0:0:0:
194,149,51068,1,12,0:0:0:0:
233,169,51144,1,0,0:0:0:0:
96,160,51221,2,0,L|40:160,1,44.999998626709,8|0,3:0|0:0,0:0:0:0:
320,160,51374,6,0,L|376:160,1,44.999998626709,8|0,3:0|0:0,0:0:0:0:
192,160,51527,2,0,L|136:160,1,44.999998626709,8|0,3:0|0:0,0:0:0:0:
360,160,51680,2,0,L|416:160,1,44.999998626709,8|0,3:0|0:0,0:0:0:0:
152,160,51833,2,0,L|96:160,1,44.999998626709,8|0,3:0|0:0,0:0:0:0:
400,160,51986,2,0,L|456:160,1,44.999998626709,8|0,3:0|0:0,0:0:0:0:
112,160,52139,2,0,L|56:160,1,44.999998626709,8|0,3:0|0:0,0:0:0:0:
440,160,52293,2,0,L|488:160,1,25,4|0,0:0|0:0,0:0:0:0:
72,160,52446,2,0,L|24:160,1,25,8|0,3:0|0:0,0:0:0:0:
496,160,52599,2,0,P|496:360|496:360,1,150.000005722046,4|8,0:0|3:0,0:0:0:0:
96,296,53058,5,8,0:0:0:0:
71,296,53134,1,8,0:0:0:0:
96,296,53211,1,8,0:0:0:0:
256,296,53364,2,0,L|144:296,1,100,12|0,0:0|0:0,0:0:0:0:
448,296,53823,6,0,P|360:344|272:296,1,200,6|0,0:0|0:0,0:0:0:0:
400,240,54129,2,0,L|184:240,1,179.999994506836,6|0,0:0|0:0,0:0:0:0:
352,184,54435,1,6,0:0:0:0:
192,184,54588,1,0,0:0:0:0:
352,184,54742,1,8,0:0:0:0:
80,184,54895,2,0,L|304:184,1,220.000006713867,6|8,0:0|3:0,0:0:0:0:
136,184,55354,2,0,L|16:184,1,110.000003356934,8|0,0:0|0:0,0:0:0:0:
352,184,55660,2,0,L|224:184,1,110.000003356934,8|8,3:0|3:0,0:0:0:0:
80,184,55966,1,8,0:0:0:0:
352,184,56119,1,0,0:0:0:0:
64,296,56272,6,0,L|280:296,1,200,6|0,0:0|0:0,0:0:0:0:
112,240,56578,2,0,L|328:240,1,179.999994506836,6|0,0:0|0:0,0:0:0:0:
160,184,56884,1,6,0:0:0:0:
320,184,57037,1,0,0:0:0:0:
160,184,57191,1,8,0:0:0:0:
432,184,57344,2,0,L|208:184,1,220.000006713867,6|8,0:0|3:0,0:0:0:0:
376,184,57803,2,0,L|496:184,1,110.000003356934,8|8,0:0|3:0,0:0:0:0:
160,184,58109,2,0,L|288:184,1,110.000003356934,8|8,3:0|3:0,0:0:0:0:
48,184,58415,2,0,L|158:184,1,110.000003356934,8|0,0:0|0:0,0:0:0:0:
432,192,58721,6,0,P|368:272|440:360,1,220.000006713867,6|8,0:0|0:0,0:0:0:0:
96,336,59180,2,0,L|232:336,2,110.000003356934,2|8|2,0:0|3:0|0:0,0:0:0:0:
312,336,59639,1,8,0:0:0:0:
32,336,59793,2,0,L|256:336,1,220.000006713867,6|8,0:0|3:0,0:0:0:0:
136,336,60252,1,8,0:0:0:0:
432,240,60405,2,0,L|207:240,1,220.000006713867,8|8,3:0|3:0,0:0:0:0:
0,240,60864,1,8,0:0:0:0:
56,240,61017,1,2,0:0:0:0:
416,120,61170,6,0,L|472:232,1,110.000003356934,6|8,0:0|3:0,0:0:0:0:
192,192,61476,1,8,0:0:0:0:
304,192,61629,2,0,L|64:192,1,220.000006713867,8|8,3:0|3:0,0:0:0:0:
300,192,62088,1,8,0:0:0:0:
412,192,62241,2,0,L|172:192,1,220.000006713867,6|8,0:0|3:0,0:0:0:0:
80,192,62701,1,8,0:0:0:0:
296,192,62854,1,8,3:0:0:0:
241,192,62930,1,8,3:0:0:0:
186,192,63007,1,8,3:0:0:0:
408,192,63160,1,8,3:0:0:0:
353,192,63236,1,0,0:0:0:0:
298,192,63313,1,8,0:0:0:0:
80,192,63466,1,0,0:0:0:0:
480,192,63619,6,0,P|448:320|376:336,1,200,6|0,0:0|0:0,0:0:0:0:
96,336,63925,2,0,P|128:208|200:192,1,200,6|0,0:0|0:0,0:0:0:0:
424,192,64231,2,0,L|216:192,2,160,6|2|8,0:0|0:0|0:0,0:0:0:0:
152,192,64690,2,0,P|48:192|112:96,1,220.000006713867,6|8,0:0|3:0,0:0:0:0:
344,112,65150,2,0,L|208:112,1,110.000003356934,8|0,0:0|0:0,0:0:0:0:
448,144,65456,1,8,3:0:0:0:
336,144,65609,1,8,3:0:0:0:
224,144,65762,1,8,0:0:0:0:
448,144,65915,1,2,0:0:0:0:
120,144,66068,2,0,P|64:216|176:288,1,220.000006713867,6|8,0:0|0:0,0:0:0:0:
416,296,66527,1,2,0:0:0:0:
248,296,66680,2,0,L|358:296,1,110.000003356934,8|2,3:0|0:0,0:0:0:0:
192,296,66986,1,8,0:0:0:0:
464,296,67139,6,0,L|464:184,1,110.000003356934,6|0,0:0|0:0,0:0:0:0:
184,184,67446,2,0,L|184:72,1,110.000003356934,8|8,3:0|0:0,0:0:0:0:
456,104,67752,1,8,3:0:0:0:
312,104,67905,1,8,3:0:0:0:
168,104,68058,1,8,3:0:0:0:
456,104,68211,2,0,L|456:224,1,110.000003356934,8|2,0:0|0:0,0:0:0:0:
128,208,68517,6,0,P|120:280|248:312,1,220.000006713867,6|8,0:0|0:0,0:0:0:0:
24,320,69129,1,8,3:0:0:0:
136,320,69282,1,0,0:0:0:0:
24,320,69435,1,8,0:0:0:0:
296,320,69588,2,0,L|56:320,1,220.000006713867,8|8,3:0|3:0,0:0:0:0:
408,320,70048,2,0,L|288:320,1,110.000003356934,8|8,0:0|3:0,0:0:0:0:
80,272,70354,2,0,L|200:272,1,110.000003356934,0|8,0:0|3:0,0:0:0:0:
408,264,70660,2,0,L|480:160,1,110.000003356934,8|2,0:0|0:0,0:0:0:0:
254,160,70966,6,0,L|144:160,1,110.000003356934,6|8,0:0|3:0,0:0:0:0:
472,160,71272,2,0,L|472:272,1,110.000003356934,8|8,0:0|3:0,0:0:0:0:
258,160,71578,6,0,L|368:160,1,110.000003356934,0|8,0:0|3:0,0:0:0:0:
40,160,71884,2,0,L|40:272,1,110.000003356934,8|8,0:0|3:0,0:0:0:0:
368,272,72190,1,6,0:0:0:0:
395,225,72266,1,0,0:0:0:0:
397,170,72343,1,8,3:0:0:0:
374,121,72419,1,0,0:0:0:0:
329,90,72496,1,8,3:0:0:0:
275,83,72572,1,0,0:0:0:0:
225,103,72649,1,8,3:0:0:0:
0,176,72803,2,0,L|112:176,1,110.000003356934,6|8,0:0|3:0,0:0:0:0:
344,176,73109,2,0,L|472:176,1,110.000003356934,8|8,3:0|3:0,0:0:0:0:
144,176,73415,5,12,0:0:0:0:
232,176,73568,1,8,3:0:0:0:
144,176,73721,1,8,0:0:0:0:
56,176,73874,1,8,3:0:0:0:
360,176,74027,2,0,L|480:176,1,89.9999972534181,8|8,0:0|3:0,0:0:0:0:
96,176,74333,1,8,0:0:0:0:
320,176,74486,1,8,3:0:0:0:
32,176,75099,5,8,3:0:0:0:
384,176,75252,2,0,L|160:176,1,200,14|2,0:0|0:0,0:0:0:0:
368,176,75864,5,12,0:0:0:0:
280,176,76017,1,8,3:0:0:0:
368,176,76170,1,8,0:0:0:0:
456,176,76323,1,8,3:0:0:0:
152,176,76476,2,0,L|32:176,1,89.9999972534181,8|8,0:0|3:0,0:0:0:0:
416,176,76782,1,8,0:0:0:0:
192,176,76935,1,8,3:0:0:0:
440,256,77242,6,0,L|376:256,2,50,8|8|8,3:0|3:0|3:0,0:0:0:0:
264,256,77701,2,0,L|200:256,2,50,8|8|8,3:0|3:0|3:0,0:0:0:0:
88,256,78160,1,8,3:0:0:0:
368,256,78313,6,0,L|472:256,3,80,12|8|8|8,3:0|3:0|3:0|3:0,0:0:0:0:
248,256,78925,2,0,L|336:256,1,80,8|8,1:0|3:0,0:0:0:0:
112,256,79231,2,0,L|32:256,1,80,8|8,3:0|3:0,0:0:0:0:
448,256,79690,1,8,3:0:0:0:
448,176,79843,1,8,3:0:0:0:
48,160,80150,2,0,L|152:160,1,80,8|8,1:0|3:0,0:0:0:0:
376,160,80456,2,0,L|488:160,1,80,8|8,3:0|3:0,0:0:0:0:
144,256,80762,6,0,L|40:256,3,80,4|8|8|8,3:0|3:0|3:0|3:0,0:0:0:0:
288,256,81374,2,0,L|200:256,1,80,8|8,1:0|3:0,0:0:0:0:
432,256,81680,2,0,L|512:256,1,80,8|8,3:0|3:0,0:0:0:0:
64,256,81986,1,12,3:0:0:0:
104,256,82139,1,8,3:0:0:0:
144,256,82293,1,8,3:0:0:0:
344,256,82446,1,8,3:0:0:0:
224,256,82599,2,0,L|128:256,1,80,8|8,1:0|3:0,0:0:0:0:
344,256,82905,2,0,L|440:256,1,80,8|8,3:0|3:0,0:0:0:0:
88,160,83211,6,0,L|88:264,1,80,12|8,3:0|3:0,0:0:0:0:
328,248,83517,2,0,L|328:184,1,50,8|0,3:0|3:0,0:0:0:0:
104,184,83823,2,0,L|104:128,1,50,8|0,1:0|3:0,0:0:0:0:
352,128,84129,2,0,L|352:72,1,50,8|0,3:0|3:0,0:0:0:0:
24,80,84435,2,0,L|24:16,1,59.9999981689454,12|0,3:0|3:0,0:0:0:0:
384,24,84742,2,0,L|384:88,1,59.9999981689454,8|0,3:0|3:0,0:0:0:0:
32,80,85048,2,0,L|32:152,1,69.9999978637696,8|0,1:0|3:0,0:0:0:0:
312,144,85354,2,0,L|312:216,1,69.9999978637696,8|0,3:0|3:0,0:0:0:0:
32,192,85660,6,0,L|128:192,1,80,12|0,3:0|3:0,0:0:0:0:
432,168,85966,2,0,L|344:168,1,80,8|0,3:0|3:0,0:0:0:0:
40,168,86272,2,0,L|136:168,1,89.9999972534181,8|0,3:0|3:0,0:0:0:0:
400,168,86578,2,0,L|296:168,1,89.9999972534181,8|0,3:0|3:0,0:0:0:0:
64,168,86884,2,0,L|168:168,1,100,8|0,3:0|3:0,0:0:0:0:
376,168,87190,2,0,L|264:168,1,100,8|0,3:0|3:0,0:0:0:0:
512,168,87497,2,0,L|400:168,1,100,8|0,1:0|0:0,0:0:0:0:
56,168,87803,2,0,L|176:168,1,119.999996337891,8|0,3:0|0:0,0:0:0:0:
448,168,88109,6,0,L|344:168,2,89.9999972534181,12|8|8,0:0|3:0|0:0,0:0:0:0:
136,168,88568,1,8,3:0:0:0:
448,168,88721,2,0,L|352:168,1,89.9999972534181,8|8,0:0|3:0,0:0:0:0:
448,168,89027,1,8,0:0:0:0:
136,168,89180,1,8,3:0:0:0:
416,168,89486,1,0,0:0:0:0:
136,168,89639,1,8,3:0:0:0:
448,168,89946,1,12,0:0:0:0:
208,168,90252,1,2,0:0:0:0:
64,216,90558,6,0,L|168:216,2,89.9999972534181,12|8|8,0:0|3:0|0:0,0:0:0:0:
376,216,91017,1,8,3:0:0:0:
64,216,91170,2,0,L|160:216,1,89.9999972534181,8|8,0:0|3:0,0:0:0:0:
64,216,91476,1,8,0:0:0:0:
376,216,91629,1,8,3:0:0:0:
96,168,91935,1,0,0:0:0:0:
376,168,92088,1,8,3:0:0:0:
64,168,92395,1,12,0:0:0:0:
304,168,92701,1,2,0:0:0:0:
56,216,93007,5,12,0:0:0:0:
146,216,93160,1,8,3:0:0:0:
280,216,93313,1,8,0:0:0:0:
190,216,93466,1,8,3:0:0:0:
32,216,93619,1,8,0:0:0:0:
122,216,93772,1,12,3:0:0:0:
280,216,93925,1,8,0:0:0:0:
370,216,94078,1,8,3:0:0:0:
56,216,94231,2,0,P|48:120|56:48,1,139.999995727539,6|6,0:0|0:0,0:0:0:0:
304,72,94690,1,8,0:0:0:0:
360,72,94766,1,8,0:0:0:0:
152,72,94844,2,0,L|256:72,1,100,14|10,0:0|0:0,0:0:0:0:
0,72,95150,2,0,L|112:72,1,100,10|10,0:0|0:0,0:0:0:0:
456,72,95456,6,0,L|320:72,2,100,6|0|8,0:0|0:0|0:0,0:0:0:0:
104,72,95915,2,0,L|208:72,2,100,2|0|0,0:0|0:0|0:0,0:0:0:0:
400,72,96374,1,8,0:0:0:0:
104,72,96527,2,0,L|304:72,1,200,0|0,0:0|0:0,0:0:0:0:
8,72,96986,1,8,0:0:0:0:
304,72,97139,1,8,3:0:0:0:
352,65,97215,1,8,3:0:0:0:
395,90,97292,1,8,3:0:0:0:
415,135,97368,1,8,3:0:0:0:
404,183,97445,1,8,3:0:0:0:
366,214,97521,1,0,0:0:0:0:
317,217,97598,1,8,0:0:0:0:
168,216,97675,1,0,0:0:0:0:
112,216,97751,1,8,3:0:0:0:
440,216,97905,6,0,L|440:328,1,80,6|0,0:0|0:0,0:0:0:0:
40,304,98211,2,0,L|40:208,1,80,8|2,3:0|0:0,0:0:0:0:
400,216,98517,2,0,L|400:320,1,80,0|0,0:0|0:0,0:0:0:0:
80,304,98823,2,0,L|80:208,1,80,8|0,3:0|0:0,0:0:0:0:
360,216,99129,2,0,L|456:216,1,80,8|0,3:0|0:0,0:0:0:0:
200,216,99435,2,0,L|112:216,1,80,8|2,3:0|0:0,0:0:0:0:
440,216,99742,2,0,L|352:216,1,80,0|0,0:0|0:0,0:0:0:0:
120,216,100048,2,0,L|16:216,1,80,8|0,3:0|0:0,0:0:0:0:
480,216,100354,6,0,L|384:216,1,80,8|0,3:0|0:0,0:0:0:0:
40,216,100660,2,0,L|136:216,1,80,8|0,3:0|0:0,0:0:0:0:
440,216,100966,2,0,L|352:216,1,80,8|0,3:0|0:0,0:0:0:0:
80,216,101272,2,0,L|176:216,1,80,8|2,3:0|0:0,0:0:0:0:
400,216,101578,2,0,L|496:216,1,80,8|2,3:0|0:0,0:0:0:0:
240,216,101884,2,0,L|336:216,1,80,8|2,3:0|0:0,0:0:0:0:
40,216,102190,2,0,L|144:216,1,80,8|2,3:0|0:0,0:0:0:0:
400,216,102497,2,0,L|496:216,1,80,8|2,3:0|0:0,0:0:0:0:
160,192,102803,6,0,L|96:192,1,44.999998626709,6|0,0:0|0:0,0:0:0:0:
352,192,102956,2,0,L|416:192,1,44.999998626709,8|0,3:0|0:0,0:0:0:0:
256,192,103109,2,0,L|192:192,1,44.999998626709,8|0,3:0|0:0,0:0:0:0:
256,192,103262,2,0,L|312:192,1,44.999998626709,8|0,3:0|0:0,0:0:0:0:
160,192,103415,6,0,L|96:192,1,44.999998626709,8|0,3:0|0:0,0:0:0:0:
352,192,103568,2,0,L|416:192,1,44.999998626709,8|0,3:0|0:0,0:0:0:0:
256,192,103721,2,0,L|192:192,1,44.999998626709,8|0,3:0|0:0,0:0:0:0:
256,192,103874,2,0,L|312:192,1,44.999998626709,8|0,3:0|0:0,0:0:0:0:
80,192,104027,1,8,3:0:0:0:
51,226,104103,1,0,0:0:0:0:
38,268,104180,1,8,3:0:0:0:
43,313,104256,1,0,0:0:0:0:
66,351,104333,5,8,3:0:0:0:
104,376,104409,1,0,0:0:0:0:
152,384,104486,1,8,3:0:0:0:
196,375,104562,1,8,3:0:0:0:
408,360,104639,2,0,L|456:360,1,44.999998626709,8|0,0:0|0:0,0:0:0:0:
224,360,104793,2,0,L|288:360,1,44.999998626709,2|0,0:0|0:0,0:0:0:0:
88,360,104946,2,0,L|32:360,1,44.999998626709,12|0,0:0|0:0,0:0:0:0:
272,360,105099,2,0,L|208:360,1,44.999998626709,8|0,3:0|0:0,0:0:0:0:
408,360,105252,5,8,3:0:0:0:
439,328,105328,1,0,0:0:0:0:
471,296,105405,1,8,3:0:0:0:
440,264,105481,1,0,0:0:0:0:
248,288,105558,1,8,3:0:0:0:
279,256,105634,1,0,0:0:0:0:
311,224,105711,1,8,3:0:0:0:
280,192,105787,1,0,0:0:0:0:
88,216,105864,5,8,3:0:0:0:
48,192,105940,1,0,0:0:0:0:
88,168,106017,1,8,3:0:0:0:
128,152,106094,1,0,0:0:0:0:
424,216,106170,2,0,L|352:216,1,50,4|8,0:0|3:0,0:0:0:0:
40,48,106476,1,4,0:0:0:0:
40,198,106629,1,8,3:0:0:0:
336,208,106935,5,8,0:0:0:0:
264,208,107011,1,8,0:0:0:0:
192,208,107088,1,12,0:0:0:0:
464,208,107242,2,0,L|352:208,1,100,12|0,0:0|0:0,0:0:0:0:
112,200,107701,6,0,L|312:200,1,200,6|0,0:0|0:0,0:0:0:0:
40,200,108007,2,0,L|224:200,1,179.999994506836,6|0,0:0|0:0,0:0:0:0:
456,200,108313,2,0,L|256:200,1,160,6|0,0:0|0:0,0:0:0:0:
376,200,108619,1,8,0:0:0:0:
104,200,108772,2,0,L|328:200,1,220.000006713867,6|8,0:0|3:0,0:0:0:0:
160,200,109231,2,0,L|32:200,1,110.000003356934,8|0,0:0|0:0,0:0:0:0:
456,200,109537,1,8,3:0:0:0:
401,200,109613,1,0,0:0:0:0:
346,200,109690,1,8,3:0:0:0:
104,200,109844,2,0,L|32:104,1,110.000003356934,8|0,0:0|0:0,0:0:0:0:
436,80,110150,6,0,L|220:80,1,200,6|0,0:0|0:0,0:0:0:0:
488,80,110456,2,0,L|256:80,1,179.999994506836,6|0,0:0|0:0,0:0:0:0:
80,80,110762,2,0,L|280:80,1,160,6|0,0:0|0:0,0:0:0:0:
400,80,111068,1,8,0:0:0:0:
184,80,111221,2,0,P|80:144|136:232,1,220.000006713867,6|8,0:0|3:0,0:0:0:0:
328,216,111680,1,8,0:0:0:0:
56,216,111833,2,0,L|184:216,2,110.000003356934,8|8|8,3:0|3:0|3:0,0:0:0:0:
336,216,112293,2,0,L|448:216,1,110.000003356934,8|0,0:0|0:0,0:0:0:0:
64,216,112599,6,0,P|48:152|192:104,1,220.000006713867,6|8,0:0|0:0,0:0:0:0:
56,80,113058,1,2,0:0:0:0:
440,96,113211,2,0,L|320:96,2,110.000003356934,8|2|8,3:0|0:0|0:0,0:0:0:0:
80,144,113670,2,0,L|320:144,1,220.000006713867,6|8,0:0|3:0,0:0:0:0:
192,144,114129,1,8,0:0:0:0:
432,144,114282,2,0,L|192:144,1,220.000006713867,8|8,3:0|3:0,0:0:0:0:
432,144,114741,1,8,0:0:0:0:
320,144,114895,1,2,0:0:0:0:
104,144,115048,6,0,L|32:232,1,110.000003356934,6|8,0:0|3:0,0:0:0:0:
368,232,115354,1,8,0:0:0:0:
96,232,115507,2,0,L|328:232,1,220.000006713867,8|8,3:0|3:0,0:0:0:0:
40,232,115966,1,8,0:0:0:0:
312,232,116119,2,0,L|80:232,1,220.000006713867,6|8,0:0|3:0,0:0:0:0:
368,232,116578,1,8,0:0:0:0:
152,232,116731,2,0,L|88:232,1,55.0000016784668,8|8,3:0|3:0,0:0:0:0:
320,232,116884,2,0,L|432:232,1,110.000003356934,8|8,3:0|3:0,0:0:0:0:
42,232,117190,2,0,L|186:232,1,110.000003356934,8|0,0:0|0:0,0:0:0:0:
416,232,117497,6,0,P|336:176|416:128,1,200,6|0,0:0|0:0,0:0:0:0:
32,80,117803,6,0,P|112:136|32:184,1,200,6|0,0:0|0:0,0:0:0:0:
336,224,118109,2,0,L|168:224,2,160,6|2|8,0:0|0:0|0:0,0:0:0:0:
64,224,118568,2,0,L|312:224,1,220.000006713867,6|8,0:0|3:0,0:0:0:0:
120,224,119027,2,0,L|240:224,1,110.000003356934,8|0,0:0|0:0,0:0:0:0:
448,224,119333,2,0,L|320:224,1,110.000003356934,8|8,3:0|3:0,0:0:0:0:
120,224,119639,1,8,0:0:0:0:
64,224,119793,1,2,0:0:0:0:
120,224,119869,1,0,0:0:0:0:
344,224,119946,2,0,P|400:176|288:136,1,220.000006713867,6|8,0:0|0:0,0:0:0:0:
88,112,120405,5,2,0:0:0:0:
256,112,120558,1,8,3:0:0:0:
424,112,120711,1,2,0:0:0:0:
256,112,120864,1,8,0:0:0:0:
40,112,121017,2,0,L|72:248,1,110.000003356934,6|0,0:0|0:0,0:0:0:0:
472,112,121323,2,0,L|440:248,1,110.000003356934,8|8,3:0|0:0,0:0:0:0:
224,232,121629,1,8,3:0:0:0:
169,232,121705,1,0,0:0:0:0:
114,232,121782,1,8,3:0:0:0:
398,152,121935,2,0,L|288:152,1,110.000003356934,8|8,3:0|0:0,0:0:0:0:
456,152,122242,1,2,0:0:0:0:
72,152,122395,6,0,P|40:240|120:360,1,220.000006713867,6|8,0:0|0:0,0:0:0:0:
312,344,123007,1,8,3:0:0:0:
368,344,123160,1,0,0:0:0:0:
312,344,123313,1,8,0:0:0:0:
96,336,123466,2,0,L|336:336,1,220.000006713867,8|8,3:0|3:0,0:0:0:0:
208,336,123925,1,8,0:0:0:0:
480,336,124078,2,0,P|496:192|432:128,1,220.000006713867,8|8,3:0|3:0,0:0:0:0:
176,128,124537,2,0,L|56:128,1,110.000003356934,8|2,0:0|0:0,0:0:0:0:
456,128,124844,5,6,0:0:0:0:
400,128,124997,1,8,3:0:0:0:
72,128,125150,1,8,0:0:0:0:
344,128,125303,2,0,L|104:128,1,220.000006713867,8|8,3:0|3:0,0:0:0:0:
400,128,125762,1,8,0:0:0:0:
72,128,125915,1,8,3:0:0:0:
400,128,126068,6,0,L|488:216,1,110.000003356934,6|8,0:0|3:0,0:0:0:0:
424,208,126374,1,8,3:0:0:0:
200,208,126527,2,0,L|144:208,1,55.0000016784668,8|8,3:0|3:0,0:0:0:0:
312,208,126680,2,0,L|424:208,1,110.000003356934,8|8,0:0|3:0,0:0:0:0:
96,208,126986,2,0,L|24:120,1,110.000003356934,8|8,3:0|3:0,0:0:0:0:
296,88,127293,1,12,0:0:0:0:
375,126,127446,1,8,3:0:0:0:
423,202,127599,1,8,0:0:0:0:
422,290,127752,1,8,3:0:0:0:
375,365,127905,1,8,0:0:0:0:
295,404,128058,1,8,3:0:0:0:
207,394,128211,1,8,0:0:0:0:
137,338,128364,1,8,3:0:0:0:
96,272,128517,2,0,L|128:200,1,60,4|0,0:0|0:0,0:0:0:0:
328,200,128823,6,0,L|416:200,1,69.9999978637696,2|2,0:0|0:0,0:0:0:0:
152,208,129129,2,0,P|144:136|200:112,1,139.999995727539,2|0,0:0|0:0,0:0:0:0:
440,96,129588,1,2,0:0:0:0:
405,96,129664,1,2,0:0:0:0:
370,96,129741,1,2,0:0:0:0:
256,192,129895,12,0,132190,0:0:0:0:
112,144,133415,5,2,0:0:0:0:
408,144,134027,1,2,0:0:0:0:
112,160,134639,1,2,0:0:0:0:
216,160,134946,6,0,L|288:160,1,50,2|0,0:0|0:0,0:0:0:0:
312,160,135252,1,2,0:0:0:0:
360,160,135405,2,0,L|310:160,1,50,2|0,0:0|0:0,0:0:0:0:
152,160,135711,2,0,P|120:216|128:256,1,100,2|0,0:0|0:0,0:0:0:0:
272,264,136170,6,0,L|376:264,1,100,2|2,0:0|0:0,0:0:0:0:
192,264,136782,1,2,0:0:0:0:
360,264,137088,2,0,L|488:264,1,110.000003356934,2|0,0:0|0:0,0:0:0:0:
288,264,137548,2,0,L|152:264,1,119.999996337891,2|0,0:0|0:0,0:0:0:0:
424,264,138007,2,0,P|464:208|344:112,1,259.999988098145,2|0,0:0|0:0,0:0:0:0:
120,152,138772,6,0,L|88:152,1,32.4999985122681,8|8,3:0|3:0,0:0:0:0:
280,128,138925,2,0,P|344:232|320:320,1,194.999991073609,8|2,3:0|0:0,0:0:0:0:
120,296,139537,2,0,L|32:296,1,85.0000016212464,6|0,0:0|0:0,0:0:0:0:
272,200,139844,2,0,L|384:200,1,85.0000016212464,8|2,3:0|0:0,0:0:0:0:
112,136,140150,2,0,L|200:136,1,85.0000016212464,8|2,3:0|0:0,0:0:0:0:
328,136,140456,2,0,L|413:136,1,85.0000016212464,8|2,3:0|0:0,0:0:0:0:
368,136,140685,1,0,0:0:0:0:
96,136,140762,6,0,L|32:216,1,89.9999972534181,0|0,0:0|0:0,0:0:0:0:
264,216,141068,2,0,L|392:216,1,89.9999972534181,8|0,3:0|0:0,0:0:0:0:
88,224,141374,2,0,L|184:224,1,89.9999972534181,8|0,3:0|0:0,0:0:0:0:
496,224,141680,2,0,L|392:224,1,89.9999972534181,8|0,3:0|0:0,0:0:0:0:
360,224,141910,1,0,0:0:0:0:
184,224,141986,6,0,L|160:128,1,89.9999972534181,6|0,0:0|0:0,0:0:0:0:
392,128,142293,2,0,L|416:32,1,89.9999972534181,8|0,3:0|0:0,0:0:0:0:
128,40,142599,2,0,L|32:40,1,94.9999974632264,8|2,3:0|0:0,0:0:0:0:
368,40,142905,2,0,L|488:40,1,94.9999974632264,8|2,3:0|0:0,0:0:0:0:
416,40,143134,1,0,0:0:0:0:
136,96,143211,6,0,L|64:208,1,94.9999974632264,0|0,0:0|0:0,0:0:0:0:
296,208,143517,2,0,L|200:208,1,94.9999974632264,8|0,3:0|0:0,0:0:0:0:
496,296,143823,2,0,L|392:296,1,100,8|0,3:0|0:0,0:0:0:0:
144,296,144129,2,0,L|32:296,1,100,8|0,3:0|0:0,0:0:0:0:
344,296,144435,6,0,P|432:200|288:120,1,300,6|0,0:0|0:0,0:0:0:0:
80,104,145048,2,0,P|48:200|176:336,1,300,8|8,0:0|3:0,0:0:0:0:
472,336,145660,1,8,3:0:0:0:
320,336,145813,2,0,P|304:208|392:192,1,200,14|8,0:0|3:0,0:0:0:0:
400,184,146196,1,8,3:0:0:0:
152,184,146272,2,0,L|32:184,1,100,8|8,0:0|3:0,0:0:0:0:
224,184,146578,2,0,L|352:184,1,100,8|2,0:0|0:0,0:0:0:0:
256,192,146884,12,6,149333,0:0:0:0:
432,184,153007,6,0,L|312:184,1,110.000003356934,6|8,0:0|3:0,0:0:0:0:
48,184,153313,2,0,L|24:64,1,110.000003356934,8|8,0:0|3:0,0:0:0:0:
360,80,153619,1,8,3:0:0:0:
408,98,153695,1,0,0:0:0:0:
407,150,153772,1,2,0:0:0:0:
360,176,153849,1,0,0:0:0:0:
200,184,153925,1,8,0:0:0:0:
149,201,154001,1,0,0:0:0:0:
124,248,154078,1,2,0:0:0:0:
138,300,154154,1,0,0:0:0:0:
384,312,154231,6,0,P|448:248|424:104,1,220.000006713867,6|8,0:0|0:0,0:0:0:0:
168,128,154690,1,2,0:0:0:0:
446,128,154844,2,0,L|336:128,2,110.000003356934,8|2|8,3:0|0:0|0:0,0:0:0:0:
64,128,155303,2,0,L|232:296,1,220.000006713867,6|8,0:0|3:0,0:0:0:0:
112,280,155762,1,8,0:0:0:0:
448,128,155915,2,0,L|280:296,1,220.000006713867,8|8,3:0|3:0,0:0:0:0:
400,280,156374,1,8,0:0:0:0:
112,280,156527,1,2,0:0:0:0:
496,280,156680,5,6,0:0:0:0:
440,280,156833,1,8,3:0:0:0:
168,280,156986,1,8,0:0:0:0:
336,280,157139,2,0,L|104:280,1,220.000006713867,8|8,3:0|3:0,0:0:0:0:
8,280,157599,1,8,0:0:0:0:
392,280,157752,2,0,L|152:280,1,220.000006713867,6|8,0:0|3:0,0:0:0:0:
64,280,158211,1,8,0:0:0:0:
336,280,158364,1,8,3:0:0:0:
391,280,158440,1,8,3:0:0:0:
446,280,158517,1,8,3:0:0:0:
64,280,158670,1,8,3:0:0:0:
119,280,158746,1,0,0:0:0:0:
174,280,158823,1,8,0:0:0:0:
446,280,158976,1,0,0:0:0:0:
174,280,159129,6,0,L|24:136,1,200,6|0,0:0|0:0,0:0:0:0:
328,136,159435,2,0,L|178:280,1,200,6|0,0:0|0:0,0:0:0:0:
424,280,159742,2,0,L|240:280,2,160,6|2|8,0:0|0:0|0:0,0:0:0:0:
96,280,160201,2,0,L|320:280,1,220.000006713867,6|8,0:0|3:0,0:0:0:0:
152,280,160660,2,0,L|16:280,1,110.000003356934,8|0,0:0|0:0,0:0:0:0:
320,280,160966,1,8,3:0:0:0:
432,280,161119,1,8,3:0:0:0:
96,184,161272,2,0,L|206:184,1,110.000003356934,8|2,0:0|0:0,0:0:0:0:
480,184,161578,6,0,P|424:304|312:320,1,220.000006713867,6|8,0:0|0:0,0:0:0:0:
200,328,162037,1,2,0:0:0:0:
280,328,162190,1,8,3:0:0:0:
128,328,162344,2,0,L|8:328,1,110.000003356934,2|8,0:0|0:0,0:0:0:0:
400,328,162650,2,0,L|512:328,1,110.000003356934,6|0,0:0|0:0,0:0:0:0:
184,272,162956,2,0,L|72:272,1,110.000003356934,8|8,3:0|0:0,0:0:0:0:
456,272,163262,1,8,3:0:0:0:
344,272,163415,1,8,3:0:0:0:
128,208,163568,2,0,L|240:208,1,110.000003356934,8|8,3:0|0:0,0:0:0:0:
72,208,163874,1,2,0:0:0:0:
456,208,164027,6,0,P|496:104|408:40,1,220.000006713867,6|8,0:0|0:0,0:0:0:0:
96,48,164639,2,0,L|216:48,2,110.000003356934,8|0|8,3:0|0:0|0:0,0:0:0:0:
432,48,165099,2,0,L|208:48,1,220.000006713867,8|8,3:0|3:0,0:0:0:0:
488,48,165558,1,8,0:0:0:0:
212,48,165711,2,0,L|432:48,1,220.000006713867,8|8,3:0|3:0,0:0:0:0:
160,48,166170,2,0,L|48:48,1,110.000003356934,8|2,0:0|0:0,0:0:0:0:
424,16,166476,5,6,0:0:0:0:
480,16,166552,1,0,0:0:0:0:
416,64,166629,1,8,3:0:0:0:
472,64,166705,1,0,0:0:0:0:
408,112,166782,1,8,0:0:0:0:
464,112,166858,1,0,0:0:0:0:
400,152,166935,1,8,3:0:0:0:
456,152,167011,1,0,0:0:0:0:
88,368,167088,5,8,3:0:0:0:
32,368,167164,1,0,0:0:0:0:
96,328,167241,1,8,0:0:0:0:
40,328,167317,1,0,0:0:0:0:
104,288,167394,1,0,0:0:0:0:
48,288,167470,1,0,0:0:0:0:
112,248,167547,1,8,3:0:0:0:
56,248,167623,1,0,0:0:0:0:
384,48,167701,6,0,L|448:48,1,55.0000016784668,6|0,0:0|0:0,0:0:0:0:
184,72,167854,2,0,L|120:72,1,55.0000016784668,8|0,3:0|0:0,0:0:0:0:
408,96,168007,2,0,L|480:96,1,55.0000016784668,8|0,3:0|0:0,0:0:0:0:
408,96,168160,2,0,L|336:96,1,55.0000016784668,8|8,3:0|3:0,0:0:0:0:
400,152,168313,2,0,L|464:272,1,110.000003356934,8|8,0:0|3:0,0:0:0:0:
112,152,168619,2,0,L|48:272,1,110.000003356934,8|8,3:0|3:0,0:0:0:0:
376,272,168925,6,0,L|256:272,2,89.9999972534181,12|8|8,0:0|3:0|0:0,0:0:0:0:
72,192,169384,2,0,L|192:192,2,89.9999972534181,8|8|8,3:0|0:0|3:0,0:0:0:0:
392,192,169844,2,0,L|272:192,1,89.9999972534181,8|8,0:0|3:0,0:0:0:0:
36,192,170150,2,0,L|96:192,1,60,6|8,0:0|3:0,0:0:0:0:
424,192,170762,2,0,L|16:192,1,400,14|12,0:0|0:0,0:0:0:0:
296,192,171527,1,8,3:0:0:0:
70,192,171680,2,0,L|160:192,1,89.9999972534181,8|8,0:0|3:0,0:0:0:0:
322,192,171986,2,0,L|232:192,2,89.9999972534181,8|8|8,0:0|3:0|0:0,0:0:0:0:
0,192,172446,2,0,L|0:304,1,89.9999972534181,8|0,3:0|0:0,0:0:0:0:
