osu file format v14

[General]
AudioFilename: audio.mp3
AudioLeadIn: 0
PreviewTime: 52981
Countdown: 0
SampleSet: Soft
StackLeniency: 0.3
Mode: 0
LetterboxInBreaks: 0
WidescreenStoryboard: 1

[Editor]
Bookmarks: 9742,12190,21986,24435,31782,34231,41578,44027,53823,73415,78313,88109,95456,97905,107701,127293,129742,139537,149333,153007,168925,172599
DistanceSpacing: 0.9
BeatDivisor: 4
GridSize: 4
TimelineZoom: 1.5

[Metadata]
Title:GOOD NIGHT
TitleUnicode:GOOD NIGHT
Artist:Dreamcatcher
ArtistUnicode:드림캐쳐
Creator:Natsu
Version:Midnight
Source:
Tags:toybot rock k-rock krock Nightmare poprock kpop k-pop 지유 수아 시연 한동 유현 다미 가현 Ji-U Su-A SiYeon Handong YooHyun DaMi Gahyeon Happy Face Entertainment
BeatmapID:1275831
BeatmapSetID:603905

[Difficulty]
HPDrainRate:6
CircleSize:4
OverallDifficulty:9.5
ApproachRate:9.5
SliderMultiplier:2
SliderTickRate:1

[Events]
//Background and Video events
Video,447,"GOOD+NIGHT.avi"
0,0,"KakaoTalk_20170519_184557694.jpg",0,0
//Break Periods
//Storyboard Layer 0 (Background)
//Storyboard Layer 1 (Fail)
//Storyboard Layer 2 (Pass)
//Storyboard Layer 3 (Foreground)
//Storyboard Sound Samples

[TimingPoints]
9742,306.122448979592,4,2,1,65,1,0
9742,-500,4,2,1,65,0,0
9818,-500,4,2,1,20,0,0
10889,-500,4,2,1,5,0,0
10966,-111.111111111111,4,2,2,40,0,0
11731,-111.111111111111,4,2,1,60,0,0
11884,-111.111111111111,4,2,2,40,0,0
12114,-111.111111111111,4,2,1,5,0,0
12190,-100,4,2,2,60,0,1
17318,-100,4,2,2,5,0,1
17395,-83.3333333333333,4,2,2,60,0,1
17854,-100,4,2,2,60,0,1
21986,-133.333333333333,4,2,1,30,0,0
22905,-133.333333333333,4,2,2,50,0,0
23517,-238.095238095238,4,2,2,30,0,0
23823,-238.095238095238,4,2,2,5,0,0
23976,-238.095238095238,4,2,2,30,0,0
24053,-238.095238095238,4,2,2,32,0,0
24129,-238.095238095238,4,2,2,34,0,0
24206,-238.095238095238,4,2,2,36,0,0
24282,-238.095238095238,4,2,2,38,0,0
24359,-238.095238095238,4,2,2,40,0,0
24435,-111.111111111111,4,2,2,50,0,0
25660,-142.857142857143,4,2,2,50,0,0
25813,-142.857142857143,4,2,2,5,0,0
25966,-142.857142857143,4,2,2,50,0,0
26119,-142.857142857143,4,2,2,5,0,0
26272,-142.857142857143,4,2,2,50,0,0
26502,-142.857142857143,4,2,2,5,0,0
26578,-142.857142857143,4,2,2,50,0,0
26884,-111.111111111111,4,2,2,50,0,0
28109,-142.857142857143,4,2,2,50,0,0
28262,-142.857142857143,4,2,2,5,0,0
28415,-142.857142857143,4,2,2,50,0,0
28951,-142.857142857143,4,2,2,5,0,0
29027,-142.857142857143,4,2,2,50,0,0
29333,-111.111111111111,4,2,2,50,0,0
30711,-111.111111111111,4,2,2,30,0,0
31017,-99.9999999999999,4,2,2,60,0,0
31782,-99.9999999999999,4,2,2,70,0,1
34155,-99.9999999999999,4,2,2,5,0,1
34231,-111.111111111111,4,2,2,50,0,0
35456,-142.857142857143,4,2,2,50,0,0
35609,-142.857142857143,4,2,2,5,0,0
35762,-142.857142857143,4,2,2,50,0,0
35915,-142.857142857143,4,2,2,5,0,0
36068,-142.857142857143,4,2,2,50,0,0
36298,-142.857142857143,4,2,2,5,0,0
36374,-142.857142857143,4,2,2,50,0,0
36680,-111.111111111111,4,2,2,50,0,0
37905,-142.857142857143,4,2,2,50,0,0
38747,-142.857142857143,4,2,2,5,0,0
38823,-142.857142857143,4,2,2,50,0,0
39129,-111.111111111111,4,2,2,50,0,0
40507,-111.111111111111,4,2,2,30,0,0
40813,-99.9999999999999,4,2,2,60,0,0
41578,-99.9999999999999,4,2,2,70,0,1
44027,-125,4,2,2,60,0,0
48925,-111.111111111111,4,2,2,65,0,0
49078,-111.111111111111,4,2,1,55,0,0
49231,-111.111111111111,4,2,2,65,0,0
49384,-111.111111111111,4,2,1,55,0,0
49537,-111.111111111111,4,2,2,65,0,0
49690,-111.111111111111,4,2,1,55,0,0
49844,-111.111111111111,4,2,2,65,0,0
49997,-111.111111111111,4,2,1,55,0,0
50150,-111.111111111111,4,2,2,65,0,0
50303,-111.111111111111,4,2,1,55,0,0
50456,-111.111111111111,4,2,2,65,0,0
50609,-111.111111111111,4,2,1,55,0,0
50762,-111.111111111111,4,2,2,65,0,0
51221,-111.111111111111,4,2,1,55,0,0
51374,-111.111111111111,4,2,2,65,0,0
51527,-111.111111111111,4,2,1,55,0,0
51680,-111.111111111111,4,2,2,65,0,0
51833,-111.111111111111,4,2,1,55,0,0
51986,-111.111111111111,4,2,2,65,0,0
52139,-111.111111111111,4,2,1,55,0,0
52293,-199.999999999999,4,2,1,70,0,0
52446,-199.999999999999,4,2,2,60,0,0
52599,-66.6666666666667,4,2,1,70,0,0
52752,-66.6666666666667,4,2,2,60,0,0
53058,-200,4,2,2,50,0,0
53517,-200,4,2,2,5,0,0
53823,-50,4,2,2,70,0,1
54053,-50,4,2,2,5,0,1
54129,-55.5555555555556,4,2,2,70,0,1
54359,-55.5555555555556,4,2,2,5,0,1
54435,-62.5,4,2,2,70,0,1
54895,-90.9090909090909,4,2,2,70,0,1
56272,-50,4,2,2,70,0,1
56502,-50,4,2,2,5,0,1
56578,-55.5555555555556,4,2,2,70,0,1
56808,-55.5555555555556,4,2,2,5,0,1
56884,-62.5,4,2,2,70,0,1
57344,-90.9090909090909,4,2,2,70,0,1
63543,-125,4,2,2,5,0,0
63619,-50,4,2,2,70,0,1
63849,-50,4,2,2,5,0,1
63925,-50,4,2,2,70,0,1
64155,-50,4,2,2,5,0,1
64231,-62.5,4,2,2,70,0,1
64690,-90.9090909090909,4,2,2,70,0,1
72344,-90.9090909090909,4,2,1,70,0,1
72803,-90.9090909090909,4,2,2,70,0,1
72956,-90.9090909090909,4,2,1,70,0,1
73415,-111.111111111111,4,2,2,50,0,0
74639,-500,4,2,2,70,0,0
74946,-500,4,2,2,5,0,0
75099,-500,4,2,2,50,0,0
75252,-100,4,2,2,50,0,0
75405,-100,4,2,2,5,0,0
75558,-100,4,2,2,50,0,0
75864,-111.111111111111,4,2,2,50,0,0
77242,-200,4,2,1,25,0,0
78313,-125,4,2,1,35,0,0
78925,-125,4,2,1,55,0,0
79078,-125,4,2,1,35,0,0
80150,-125,4,2,1,55,0,0
80303,-125,4,2,1,35,0,0
81374,-125,4,2,1,55,0,0
81527,-125,4,2,1,35,0,0
82599,-125,4,2,1,55,0,0
82752,-125,4,2,1,35,0,0
83517,-200,4,2,1,55,0,0
83670,-200,4,2,1,35,0,0
83823,-200,4,2,1,65,0,0
83976,-200,4,2,1,35,0,0
84129,-200,4,2,1,55,0,0
84282,-200,4,2,1,35,0,0
84435,-166.666666666667,4,2,1,55,0,0
84588,-166.666666666667,4,2,1,35,0,0
84742,-166.666666666667,4,2,1,55,0,0
84895,-166.666666666667,4,2,1,35,0,0
85048,-142.857142857143,4,2,1,65,0,0
85201,-142.857142857143,4,2,1,35,0,0
85354,-142.857142857143,4,2,1,55,0,0
85507,-142.857142857143,4,2,1,35,0,0
85660,-125,4,2,1,55,0,0
85813,-125,4,2,1,35,0,0
85966,-125,4,2,1,55,0,0
86119,-125,4,2,1,35,0,0
86272,-111.111111111111,4,2,1,55,0,0
86425,-111.111111111111,4,2,1,35,0,0
86578,-111.111111111111,4,2,1,55,0,0
86731,-111.111111111111,4,2,1,35,0,0
86884,-100,4,2,1,55,0,0
87037,-100,4,2,1,35,0,0
87190,-100,4,2,1,55,0,0
87344,-100,4,2,1,35,0,0
87497,-100,4,2,1,65,0,0
87726,-100,4,2,1,5,0,0
87803,-83.3333333333333,4,2,1,50,0,0
88032,-83.3333333333333,4,2,1,5,0,0
88109,-111.111111111111,4,2,2,50,0,0
89180,-142.857142857143,4,2,2,50,0,0
90099,-142.857142857143,4,2,2,5,0,0
90252,-142.857142857143,4,2,2,50,0,0
90558,-111.111111111111,4,2,2,50,0,0
91629,-142.857142857143,4,2,2,50,0,0
92548,-142.857142857143,4,2,2,5,0,0
92701,-142.857142857143,4,2,2,50,0,0
93007,-111.111111111111,4,2,2,50,0,0
94231,-142.857142857143,4,2,2,30,0,0
94690,-100,4,2,2,60,0,0
95456,-100,4,2,2,70,0,1
97905,-125,4,2,2,60,0,0
102803,-111.111111111111,4,2,2,65,0,0
102956,-111.111111111111,4,2,1,55,0,0
103109,-111.111111111111,4,2,2,65,0,0
103262,-111.111111111111,4,2,1,55,0,0
103415,-111.111111111111,4,2,2,65,0,0
103568,-111.111111111111,4,2,1,55,0,0
103721,-111.111111111111,4,2,2,65,0,0
103874,-111.111111111111,4,2,1,55,0,0
104027,-111.111111111111,4,2,2,65,0,0
104180,-111.111111111111,4,2,1,55,0,0
104333,-111.111111111111,4,2,2,65,0,0
104486,-111.111111111111,4,2,1,55,0,0
104639,-111.111111111111,4,2,2,65,0,0
105099,-111.111111111111,4,2,1,55,0,0
105252,-111.111111111111,4,2,2,65,0,0
105405,-111.111111111111,4,2,1,55,0,0
105558,-111.111111111111,4,2,2,65,0,0
105711,-111.111111111111,4,2,1,55,0,0
105864,-111.111111111111,4,2,2,65,0,0
106017,-111.111111111111,4,2,1,55,0,0
106170,-200,4,2,1,70,0,0
106323,-200,4,2,2,60,0,0
106476,-66.6666666666667,4,2,1,70,0,0
106629,-66.6666666666667,4,2,2,60,0,0
106935,-200,4,2,2,50,0,0
107395,-200,4,2,2,5,0,0
107701,-50,4,2,2,70,0,1
107930,-50,4,2,2,5,0,1
108007,-55.5555555555556,4,2,2,70,0,1
108236,-55.5555555555556,4,2,2,5,0,1
108313,-62.5,4,2,2,70,0,1
108772,-90.9090909090909,4,2,2,70,0,1
110150,-50,4,2,2,70,0,1
110379,-50,4,2,2,5,0,1
110456,-55.5555555555556,4,2,2,70,0,1
110685,-55.5555555555556,4,2,2,5,0,1
110762,-62.5,4,2,2,70,0,1
111221,-90.9090909090909,4,2,2,70,0,1
117420,-125,4,2,2,5,0,0
117497,-50,4,2,2,70,0,1
117726,-50,4,2,2,5,0,1
117803,-50,4,2,2,70,0,1
118032,-50,4,2,2,5,0,1
118109,-62.5,4,2,2,70,0,1
118568,-90.9090909090909,4,2,2,70,0,1
126527,-90.9090909090909,4,2,1,70,0,1
126680,-90.9090909090909,4,2,2,70,0,1
126833,-90.9090909090909,4,2,1,70,0,1
127293,-111.111111111111,4,2,2,50,0,0
128517,-250,4,2,1,70,0,0
128747,-250,4,2,1,5,0,0
128823,-142.857142857143,4,2,2,50,0,0
129435,-142.857142857143,4,2,2,5,0,0
129512,-142.857142857143,4,2,2,50,0,0
129742,-200,4,2,2,50,0,0
130048,-200,4,2,3,40,0,0
130201,-200,4,2,3,5,0,0
130354,-200,4,2,3,40,0,0
130660,-200,4,2,3,5,0,0
130813,-200,4,2,3,40,0,0
131119,-200,4,2,3,5,0,0
131272,-200,4,2,3,40,0,0
131578,-200,4,2,3,5,0,0
131731,-200,4,2,3,40,0,0
131884,-200,4,2,3,5,0,0
132037,-200,4,2,3,40,0,0
132344,-200,4,2,3,5,0,0
133415,-200,4,2,3,40,0,0
134946,-200,4,2,3,50,0,0
135099,-200,4,2,3,5,0,0
135252,-200,4,2,3,50,0,0
135558,-200,4,2,3,5,0,0
135711,-200,4,2,3,50,0,0
136017,-200,4,2,3,5,0,0
136170,-200,4,2,3,50,0,0
136629,-200,4,2,3,5,0,0
136782,-200,4,2,3,50,0,0
136935,-200,4,2,3,5,0,0
137088,-181.818181818182,4,2,3,50,0,0
137318,-181.818181818182,4,2,3,5,0,0
137548,-166.666666666667,4,2,3,50,0,0
137777,-166.666666666667,4,2,3,5,0,0
138007,-153.846153846154,4,2,3,50,0,0
138236,-153.846153846154,4,2,3,5,0,0
138772,-153.846153846154,4,2,2,50,0,0
139231,-153.846153846154,4,2,3,50,0,0
139537,-117.647058823529,4,2,2,60,0,0
140609,-111.111111111111,4,2,2,60,0,0
142599,-105.263157894737,4,2,2,60,0,0
143823,-100,4,2,2,60,0,0
146884,-111.111111111111,4,2,2,60,0,0
147114,-111.111111111111,4,2,2,5,0,0
147956,-111.111111111111,4,2,2,25,0,0
148109,-166.666666666667,4,2,2,30,0,0
148415,-166.666666666667,4,2,2,5,0,0
148568,-200,4,2,2,20,0,0
149180,-200,4,2,2,5,0,0
149333,-133.333333333333,4,2,22,40,0,0
149486,-133.333333333333,4,2,3,5,0,0
149639,-133.333333333333,4,2,23,40,0,0
149793,-133.333333333333,4,2,3,5,0,0
149946,-133.333333333333,4,2,24,40,0,0
150099,-133.333333333333,4,2,20,40,0,0
150252,-133.333333333333,4,2,3,5,0,0
150405,-133.333333333333,4,2,25,40,0,0
150634,-133.333333333333,4,2,3,5,0,0
150864,-133.333333333333,4,2,24,40,0,0
151170,-133.333333333333,4,2,23,40,0,0
151323,-133.333333333333,4,2,22,40,0,0
151476,-133.333333333333,4,2,22,25,0,0
151782,-133.333333333333,4,2,21,40,0,0
151935,-133.333333333333,4,2,3,5,0,0
152088,-133.333333333333,4,2,22,40,0,0
152242,-133.333333333333,4,2,3,5,0,0
152395,-133.333333333333,4,2,23,40,0,0
152548,-133.333333333333,4,2,19,40,0,0
152701,-133.333333333333,4,2,3,5,0,0
152854,-90.9090909090909,4,2,2,70,0,0
153007,-90.9090909090909,4,2,2,70,0,1
159053,-125,4,2,2,5,0,0
159129,-50,4,2,2,70,0,1
159359,-50,4,2,2,5,0,1
159435,-50,4,2,2,70,0,1
159665,-50,4,2,2,5,0,1
159741,-62.5,4,2,2,70,0,1
160200,-90.9090909090909,4,2,2,70,0,1
168160,-90.9090909090909,4,2,1,70,0,1
168313,-90.9090909090909,4,2,2,70,0,1
168466,-90.9090909090909,4,2,1,70,0,1
168925,-111.111111111111,4,2,2,50,0,0
170149,-500,4,2,2,50,0,0
170456,-500,4,2,2,5,0,0
170609,-500,4,2,2,50,0,0
170762,-100,4,2,2,50,0,0
170915,-100,4,2,2,5,0,0
171068,-100,4,2,2,50,0,0
171374,-111.111111111111,4,2,2,50,0,0
172599,-111.111111111111,4,2,2,5,0,0

[Colours]
Combo1 : 198,0,35
Combo2 : 255,213,236
Combo3 : 240,211,145
Combo4 : 133,133,133
Combo5 : 181,174,43
Combo6 : 0,60,159
SliderBorder : 181,174,43
SliderTrackOverride : 30,30,30

[HitObjects]
232,98,9742,6,0,L|248:247,1,150,4|0,0:0|0:0,0:0:0:0:
260,321,10966,37,12,0:0:0:0:
220,21,11119,1,8,0:0:0:0:
220,21,11425,69,8,0:0:0:0:
225,60,11502,1,8,0:0:0:0:
232,98,11578,1,12,0:0:0:0:
260,321,11731,1,8,0:0:0:0:
232,98,11884,2,0,L|248:233,1,134.999995880127,12|0,0:0|0:0,0:0:0:0:
260,321,12190,37,6,0:0:0:0:
422,222,12344,1,2,0:0:0:0:
162,158,12497,1,8,0:0:0:0:
325,60,12650,1,2,0:0:0:0:
260,321,12803,69,8,3:0:0:0:
0,257,12956,1,8,3:0:0:0:
185,63,13109,1,8,0:0:0:0:
196,370,13262,6,0,P|178:321|198:273,1,100,6|0,0:0|0:0,0:0:0:0:
410,98,13568,1,8,3:0:0:0:
260,321,13722,1,8,0:0:0:0:
223,134,13875,1,2,0:0:0:0:
445,282,14027,69,8,3:0:0:0:
462,19,14180,1,8,3:0:0:0:
223,134,14333,1,8,0:0:0:0:
377,240,14486,1,2,0:0:0:0:
119,294,14639,5,6,0:0:0:0:
223,134,14793,1,2,0:0:0:0:
276,384,14946,1,8,0:0:0:0:
377,240,15099,1,2,3:0:0:0:
119,294,15252,69,8,3:0:0:0:
201,36,15405,1,8,3:0:0:0:
377,240,15558,1,8,0:0:0:0:
61,233,15711,6,0,P|105:210|154:219,1,100,6|0,0:0|0:0,0:0:0:0:
367,380,16017,1,8,3:0:0:0:
119,294,16170,1,8,0:0:0:0:
322,115,16323,1,8,3:0:0:0:
510,384,16476,69,8,3:0:0:0:
262,298,16629,1,8,3:0:0:0:
465,119,16782,1,8,0:0:0:0:
455,312,16935,1,2,0:0:0:0:
276,109,17088,6,0,P|221:100|266:133,1,150,6|0,0:0|0:0,0:0:0:0:
276,109,17395,70,0,P|192:93|270:127,1,239.999992675781,8|8,0:0|3:0,0:0:0:0:
512,21,17854,5,2,0:0:0:0:
476,285,18007,1,8,0:0:0:0:
263,134,18160,1,8,3:0:0:0:
512,21,18313,70,0,L|503:132,2,100,2|8|8,0:0|3:0|0:0,0:0:0:0:
391,153,18772,2,0,L|372:364,1,200,8|8,3:0|3:0,0:0:0:0:
121,231,19231,5,8,0:0:0:0:
391,153,19384,1,2,0:0:0:0:
75,289,19537,2,0,P|121:305|167:288,1,100,6|8,0:0|3:0,0:0:0:0:
437,95,19844,2,0,P|390:78|344:95,1,100,6|8,0:0|3:0,0:0:0:0:
121,231,20150,69,2,0:0:0:0:
390,153,20303,1,10,3:0:0:0:
121,231,20456,1,10,0:0:0:0:
390,153,20609,1,10,3:0:0:0:
217,56,20762,6,0,P|214:16|250:36,1,100,2|8,0:0|3:0,0:0:0:0:
263,347,21068,2,0,P|299:367|295:327,1,100,2|8,0:0|3:0,0:0:0:0:
152,306,21298,1,8,3:0:0:0:
152,306,21374,2,0,P|104:321|52:308,1,100,10|8,0:0|3:0,0:0:0:0:
360,78,21680,2,0,P|407:62|459:75,1,100,10|8,0:0|3:0,0:0:0:0:
512,284,21986,21,8,3:0:0:0:
460,349,22139,1,8,3:0:0:0:
483,207,22293,69,8,3:0:0:0:
431,272,22446,1,8,3:0:0:0:
454,130,22599,5,8,3:0:0:0:
402,195,22752,1,8,3:0:0:0:
512,72,22905,69,8,0:0:0:0:
512,72,22981,1,8,0:0:0:0:
512,72,23058,1,8,0:0:0:0:
402,195,23517,6,0,L|304:195,1,83.9999974365235,2|0,0:0|0:0,0:0:0:0:
207,195,23976,69,8,1:0:0:0:
205,211,24052,1,8,1:0:0:0:
217,223,24129,1,8,1:0:0:0:
233,222,24205,1,8,1:0:0:0:
243,209,24282,1,8,1:0:0:0:
241,193,24358,1,8,1:0:0:0:
227,184,24435,37,12,0:0:0:0:
29,89,24588,1,8,3:0:0:0:
324,42,24742,1,8,0:0:0:0:
126,137,24895,1,8,3:0:0:0:
422,187,25048,1,8,0:0:0:0:
224,92,25201,1,8,3:0:0:0:
512,32,25354,1,8,0:0:0:0:
321,140,25507,1,8,3:0:0:0:
484,227,25660,70,0,L|493:312,1,69.9999978637696,2|0,0:0|0:0,0:0:0:0:
411,369,25966,2,0,L|401:283,1,69.9999978637696,2|0,0:0|0:0,0:0:0:0:
321,140,26272,2,0,L|333:255,1,104.999996795654,4|0,1:0|0:0,0:0:0:0:
402,299,26578,1,2,0:0:0:0:
254,219,26731,1,2,0:0:0:0:
476,79,26884,5,12,0:0:0:0:
331,244,27037,1,8,3:0:0:0:
253,0,27190,1,8,0:0:0:0:
398,165,27343,1,8,3:0:0:0:
167,254,27497,1,8,0:0:0:0:
312,89,27650,1,8,3:0:0:0:
388,345,27803,1,8,0:0:0:0:
243,180,27956,1,8,3:0:0:0:
200,328,28109,70,0,P|167:336|133:329,1,69.9999978637696,2|0,0:0|0:0,0:0:0:0:
243,180,28415,2,0,P|276:171|310:178,1,69.9999978637696,2|8,0:0|3:0,0:0:0:0:
167,254,28721,2,0,L|167:131,1,104.999996795654,4|0,1:0|0:0,0:0:0:0:
168,72,29027,1,2,0:0:0:0:
278,249,29180,1,2,0:0:0:0:
11,277,29333,5,12,0:0:0:0:
222,332,29486,1,8,3:0:0:0:
140,92,29639,1,8,0:0:0:0:
78,302,29792,1,8,3:0:0:0:
332,224,29946,1,8,0:0:0:0:
122,162,30099,1,8,3:0:0:0:
140,364,30252,1,8,0:0:0:0:
204,160,30405,2,0,B|292:205|291:111|388:168,1,179.999994506836,8|2,3:0|0:0,0:0:0:0:
192,371,31017,5,8,0:0:0:0:
192,371,31094,1,8,0:0:0:0:
192,371,31170,1,14,0:0:0:0:
269,97,31323,1,10,0:0:0:0:
392,363,31476,1,10,0:0:0:0:
102,337,31629,1,10,0:0:0:0:
388,187,31782,6,0,P|431:274|393:363,1,200,6|8,0:0|0:0,0:0:0:0:
123,196,32242,2,0,P|80:109|119:21,1,200,2|0,0:0|0:0,0:0:0:0:
175,265,32701,2,0,P|130:283|82:271,1,100,8|8,0:0|3:0,0:0:0:0:
336,118,33007,70,0,P|381:100|429:112,1,100,6|8,0:0|3:0,0:0:0:0:
271,310,33313,1,8,0:0:0:0:
241,74,33466,1,2,0:0:0:0:
52,218,33619,5,8,3:0:0:0:
271,310,33772,1,8,3:0:0:0:
241,74,33925,2,0,P|278:30|275:88,1,150,8|0,0:0|0:0,0:0:0:0:
52,218,34231,53,12,0:0:0:0:
271,207,34384,1,8,3:0:0:0:
11,331,34537,1,8,0:0:0:0:
0,112,34690,1,8,3:0:0:0:
295,274,34844,1,8,0:0:0:0:
76,285,34997,1,8,3:0:0:0:
335,165,35150,1,8,0:0:0:0:
346,384,35303,1,8,3:0:0:0:
225,277,35456,70,0,L|317:272,1,69.9999978637696,6|0,0:0|0:0,0:0:0:0:
439,264,35762,2,0,L|347:269,1,69.9999978637696,2|0,0:0|0:0,0:0:0:0:
120,281,36068,2,0,L|234:276,1,104.999996795654,12|0,0:0|0:0,0:0:0:0:
294,273,36374,1,2,0:0:0:0:
47,284,36527,1,2,0:0:0:0:
289,141,36680,5,12,0:0:0:0:
120,281,36833,1,8,3:0:0:0:
396,339,36986,1,8,0:0:0:0:
227,199,37139,1,8,3:0:0:0:
506,147,37293,1,8,0:0:0:0:
337,287,37446,1,8,3:0:0:0:
277,58,37599,1,8,0:0:0:0:
446,198,37752,1,8,3:0:0:0:
337,287,37905,70,0,P|304:297|271:288,1,69.9999978637696,6|8,0:0|3:0,0:0:0:0:
160,201,38211,2,0,P|194:190|227:199,1,69.9999978637696,2|8,0:0|3:0,0:0:0:0:
385,339,38517,2,0,L|385:227,1,104.999996795654,8|0,0:0|0:0,0:0:0:0:
385,155,38823,1,2,0:0:0:0:
271,288,38976,1,2,0:0:0:0:
216,15,39129,5,12,0:0:0:0:
385,155,39282,1,8,3:0:0:0:
107,207,39435,1,8,0:0:0:0:
276,67,39588,1,8,3:0:0:0:
337,300,39742,1,8,0:0:0:0:
168,160,39895,1,12,3:0:0:0:
448,111,40048,1,8,0:0:0:0:
279,251,40201,2,0,P|254:307|337:281,1,179.999994506836,8|2,3:0|0:0,0:0:0:0:
94,208,40813,5,8,0:0:0:0:
94,208,40890,1,8,0:0:0:0:
94,208,40966,1,14,0:0:0:0:
345,221,41119,1,10,0:0:0:0:
70,344,41272,1,10,0:0:0:0:
102,46,41425,1,10,0:0:0:0:
289,325,41578,6,0,P|384:340|454:275,1,200,6|8,0:0|0:0,0:0:0:0:
222,58,42037,2,0,P|127:43|57:108,1,200,2|0,0:0|0:0,0:0:0:0:
295,108,42497,2,0,P|308:53|288:5,1,100,8|8,0:0|3:0,0:0:0:0:
108,275,42803,70,0,P|203:290|273:225,1,200,6|8,0:0|0:0,0:0:0:0:
56,109,43262,1,8,3:0:0:0:
37,154,43338,1,8,3:0:0:0:
41,204,43415,1,8,3:0:0:0:
66,247,43491,1,8,3:0:0:0:
107,274,43568,1,8,3:0:0:0:
300,131,43721,1,8,0:0:0:0:
56,109,43874,1,8,3:0:0:0:
373,147,44027,54,0,P|321:203|248:184,1,160,6|8,0:0|3:0,0:0:0:0:
217,26,44486,2,0,L|250:198,1,160,2|0,0:0|0:0,0:0:0:0:
284,337,44946,2,0,L|268:258,1,80,8|0,3:0|0:0,0:0:0:0:
72,116,45252,6,0,B|54:102|31:131|51:146|51:146|105:173|149:148,1,160,8|8,3:0|3:0,0:0:0:0:
363,85,45711,2,0,B|407:60|461:87|461:87|481:102|458:131|440:117,1,160,2|0,0:0|0:0,0:0:0:0:
137,68,46170,70,0,L|151:161,1,80,8|0,3:0|0:0,0:0:0:0:
375,316,46476,2,0,L|361:223,1,80,8|0,3:0|0:0,0:0:0:0:
137,68,46782,5,8,3:0:0:0:
105,239,46935,1,0,0:0:0:0:
236,120,47088,1,8,3:0:0:0:
59,139,47242,1,0,0:0:0:0:
212,226,47395,1,8,3:0:0:0:
137,68,47548,70,0,L|147:148,1,80,2|8,0:0|3:0,0:0:0:0:
375,316,47854,2,0,L|365:236,1,80,2|8,0:0|3:0,0:0:0:0:
110,245,48160,6,0,P|148:253|187:243,1,80,2|8,0:0|3:0,0:0:0:0:
402,139,48466,2,0,P|364:131|325:141,1,80,2|8,0:0|3:0,0:0:0:0:
187,242,48772,1,2,0:0:0:0:
52,12,48925,5,6,0:0:0:0:
110,245,49078,1,8,3:0:0:0:
339,5,49231,5,8,3:0:0:0:
106,62,49384,1,8,3:0:0:0:
345,292,49537,69,8,3:0:0:0:
288,59,49690,1,8,3:0:0:0:
58,302,49844,5,8,3:0:0:0:
290,245,49997,1,8,3:0:0:0:
52,12,50150,69,8,3:0:0:0:
109,244,50303,1,8,3:0:0:0:
334,0,50456,5,8,3:0:0:0:
113,66,50609,1,8,3:0:0:0:
113,66,50685,1,8,3:0:0:0:
113,66,50762,1,8,0:0:0:0:
290,245,50915,1,2,0:0:0:0:
0,376,51068,69,12,0:0:0:0:
290,245,51221,2,0,P|304:200|284:156,2,89.9999972534181,8|8|8,3:0|3:0|3:0,0:0:0:0:
0,260,51680,5,8,3:0:0:0:
232,203,51833,1,8,3:0:0:0:
0,80,51986,1,8,3:0:0:0:
232,23,52139,1,8,3:0:0:0:
72,244,52293,6,0,L|72:304,1,50,4|8,0:0|3:0,0:0:0:0:
232,203,52599,70,0,L|232:40,1,150.000005722046,4|8,0:0|3:0,0:0:0:0:
240,212,53058,5,8,0:0:0:0:
240,212,53134,1,8,0:0:0:0:
240,212,53211,1,8,0:0:0:0:
54,356,53364,2,0,P|2:364|19:315,1,125,12|0,0:0|0:0,0:0:0:0:
19,316,53823,70,0,B|-6:207|-6:207|25:181|67:184|80:220|61:254|61:254|108:294,1,300,6|0,0:0|0:0,0:0:0:0:
145,230,54129,2,0,B|133:268|146:305|161:325|202:323|202:323|239:316|259:286|252:245|222:212,1,269.999991760254,6|0,0:0|0:0,0:0:0:0:
320,276,54435,2,0,B|320:220|287:178|287:178|398:232|398:232|379:192|383:136,1,320,6|8,0:0|0:0,0:0:0:0:
111,12,54895,70,0,L|146:239,1,220.000006713867,6|8,0:0|3:0,0:0:0:0:
320,276,55354,2,0,P|268:260|216:277,1,110.000003356934,8|0,0:0|0:0,0:0:0:0:
0,381,55660,1,8,3:0:0:0:
132,144,55813,1,8,3:0:0:0:
270,355,55966,2,0,P|218:371|166:354,1,110.000003356934,8|0,0:0|0:0,0:0:0:0:
41,149,56272,6,0,B|37:37|37:37|72:17|113:28|119:66|94:96|94:96|132:144,1,300,6|0,0:0|0:0,0:0:0:0:
181,88,56578,2,0,B|161:123|167:161|176:182|216:190|216:190|256:190|282:164|283:123|260:85,1,269.999991760254,6|0,0:0|0:0,0:0:0:0:
344,167,56884,2,0,B|354:112|330:64|330:64|428:138|428:138|424:94|432:41,1,320,6|8,0:0|0:0,0:0:0:0:
473,346,57344,70,0,P|424:368|373:351,1,110.000003356934,6|0,0:0|0:0,0:0:0:0:
177,200,57650,1,8,3:0:0:0:
380,35,57803,1,8,0:0:0:0:
421,292,57956,1,8,3:0:0:0:
68,215,58109,5,8,3:0:0:0:
270,51,58262,1,8,3:0:0:0:
311,307,58415,2,0,P|258:328|206:312,1,110.000003356934,8|0,0:0|0:0,0:0:0:0:
15,148,58721,70,0,P|65:130|123:148,1,110.000003356934,6|0,0:0|0:0,0:0:0:0:
256,254,59027,1,8,0:0:0:0:
118,144,59180,2,0,P|101:92|120:41,1,110.000003356934,2|8,0:0|3:0,0:0:0:0:
349,238,59486,2,0,P|366:290|347:341,1,110.000003356934,2|8,0:0|0:0,0:0:0:0:
66,218,59793,6,0,L|186:206,1,110.000003356934,6|0,0:0|0:0,0:0:0:0:
459,183,60099,2,0,L|339:195,1,110.000003356934,8|8,3:0|0:0,0:0:0:0:
0,248,60405,2,0,L|120:236,1,110.000003356934,8|0,3:0|0:0,0:0:0:0:
512,136,60711,2,0,L|392:148,1,110.000003356934,8|8,3:0|0:0,0:0:0:0:
109,237,61017,69,2,0:0:0:0:
362,368,61170,2,0,P|379:316|361:266,1,110.000003356934,6|8,0:0|3:0,0:0:0:0:
136,116,61476,1,8,0:0:0:0:
360,265,61629,2,0,L|480:257,1,110.000003356934,8|0,3:0|0:0,0:0:0:0:
136,116,61935,2,0,L|16:124,1,110.000003356934,8|8,3:0|0:0,0:0:0:0:
256,370,62242,6,0,P|273:318|255:268,1,110.000003356934,6|0,0:0|0:0,0:0:0:0:
26,123,62548,1,8,3:0:0:0:
197,318,62701,1,8,0:0:0:0:
170,10,62854,69,8,3:0:0:0:
164,47,62930,1,8,3:0:0:0:
157,85,63007,1,8,3:0:0:0:
105,378,63160,1,8,3:0:0:0:
267,141,63313,2,0,P|255:83|248:142,1,165.000005035401,8|0,0:0|0:0,0:0:0:0:
256,242,63619,6,0,B|216:285|128:332|77:267|81:214|117:182|148:172|175:187|191:198,1,300,6|0,0:0|0:0,0:0:0:0:
318,286,63925,2,0,B|335:298|362:313|393:303|429:271|433:218|382:153|294:200|254:243,1,300,6|0,0:0|0:0,0:0:0:0:
256,338,64231,1,6,0:0:0:0:
256,88,64384,2,0,B|223:165|293:167|254:242,1,160,2|8,0:0|0:0,0:0:0:0:
185,82,64690,70,0,P|245:16|325:97,1,220.000006713867,6|8,0:0|3:0,0:0:0:0:
104,236,65150,2,0,P|49:252|-6:233,1,110.000003356934,8|0,0:0|0:0,0:0:0:0:
185,82,65456,1,8,3:0:0:0:
298,235,65609,2,0,L|319:363,1,110.000003356934,8|8,3:0|0:0,0:0:0:0:
194,184,65915,5,2,0:0:0:0:
416,289,66068,2,0,P|498:286|414:279,1,220.000006713867,6|8,0:0|0:0,0:0:0:0:
158,365,66527,69,2,0:0:0:0:
210,101,66680,1,8,3:0:0:0:
279,287,66833,2,0,P|225:306|170:284,1,110.000003356934,2|8,0:0|0:0,0:0:0:0:
434,135,67139,6,0,L|426:253,1,110.000003356934,6|0,0:0|0:0,0:0:0:0:
102,266,67446,2,0,L|110:148,1,110.000003356934,8|8,3:0|0:0,0:0:0:0:
345,58,67752,69,8,3:0:0:0:
313,311,67905,1,8,3:0:0:0:
110,157,68058,1,8,3:0:0:0:
407,109,68211,1,8,0:0:0:0:
313,311,68364,5,2,0:0:0:0:
58,101,68517,2,0,P|109:81|171:108,1,110.000003356934,6|0,0:0|0:0,0:0:0:0:
414,307,68823,2,0,P|363:327|301:300,1,110.000003356934,8|0,0:0|0:0,0:0:0:0:
198,38,69129,70,0,L|214:160,1,110.000003356934,8|0,3:0|0:0,0:0:0:0:
252,377,69435,1,8,0:0:0:0:
408,214,69588,1,8,3:0:0:0:
212,147,69742,1,6,0:0:0:0:
337,354,69895,6,0,P|381:369|367:323,1,110.000003356934,8|8,3:0|0:0,0:0:0:0:
174,175,70201,2,0,P|168:130|211:146,1,110.000003356934,8|0,3:0|0:0,0:0:0:0:
337,354,70507,69,8,3:0:0:0:
256,28,70660,1,8,0:0:0:0:
194,288,70813,1,2,0:0:0:0:
473,190,70966,6,0,P|420:172|365:192,1,110.000003356934,6|8,0:0|3:0,0:0:0:0:
206,363,71272,1,8,0:0:0:0:
164,151,71425,2,0,L|147:32,1,110.000003356934,8|0,3:0|0:0,0:0:0:0:
62,297,71731,69,8,3:0:0:0:
325,245,71884,1,8,0:0:0:0:
148,42,72037,1,8,3:0:0:0:
199,323,72190,1,6,0:0:0:0:
483,121,72344,5,8,3:0:0:0:
220,172,72497,1,8,3:0:0:0:
397,375,72650,1,8,3:0:0:0:
38,302,72803,69,6,0:0:0:0:
290,234,72956,1,8,3:0:0:0:
290,234,73032,1,8,3:0:0:0:
290,234,73109,1,8,3:0:0:0:
116,45,73262,1,8,3:0:0:0:
38,302,73415,69,12,0:0:0:0:
166,125,73568,1,8,3:0:0:0:
256,373,73721,1,8,0:0:0:0:
79,244,73874,1,8,3:0:0:0:
323,156,74027,1,8,0:0:0:0:
195,333,74180,1,8,3:0:0:0:
105,86,74333,1,8,0:0:0:0:
281,214,74486,1,8,3:0:0:0:
79,244,74639,38,0,P|71:216|79:184,1,60,6|8,0:0|3:0,0:0:0:0:
256,162,75252,70,0,L|380:150,1,100,14|0,0:0|0:0,0:0:0:0:
215,251,75558,1,2,0:0:0:0:
142,51,75711,1,2,0:0:0:0:
86,325,75864,53,12,0:0:0:0:
171,124,76017,1,8,3:0:0:0:
317,344,76170,1,8,0:0:0:0:
116,259,76323,1,8,3:0:0:0:
336,113,76476,1,8,0:0:0:0:
251,314,76629,1,8,3:0:0:0:
107,98,76782,1,8,0:0:0:0:
308,183,76935,1,8,3:0:0:0:
488,20,77242,37,8,3:0:0:0:
488,56,77395,1,8,3:0:0:0:
488,92,77547,1,8,3:0:0:0:
488,128,77700,1,8,3:0:0:0:
488,164,77853,1,8,3:0:0:0:
488,200,78006,1,8,3:0:0:0:
488,236,78159,1,8,3:0:0:0:
488,276,78313,22,0,L|488:368,2,80,12|8|8,3:0|3:0|3:0,0:0:0:0:
304,124,78772,5,8,3:0:0:0:
412,253,78925,1,8,1:0:0:0:
249,212,79078,1,8,3:0:0:0:
405,149,79231,1,8,3:0:0:0:
316,292,79384,1,8,3:0:0:0:
237,44,79537,69,12,3:0:0:0:
148,187,79690,1,8,3:0:0:0:
304,124,79844,1,8,3:0:0:0:
141,83,79996,1,8,3:0:0:0:
180,264,80150,5,8,1:0:0:0:
304,124,80303,2,0,L|400:120,1,80,8|8,3:0|3:0,0:0:0:0:
244,196,80609,1,8,3:0:0:0:
141,83,80762,70,0,P|96:72|48:96,2,80,4|8|8,3:0|3:0|3:0,0:0:0:0:
224,272,81221,5,8,3:0:0:0:
104,152,81374,1,8,1:0:0:0:
164,328,81527,1,8,3:0:0:0:
244,196,81680,1,8,3:0:0:0:
56,216,81833,1,8,3:0:0:0:
224,272,81986,2,0,P|264:275|298:255,1,80,12|8,3:0|3:0,0:0:0:0:
350,57,82293,69,8,3:0:0:0:
362,211,82446,1,8,3:0:0:0:
278,30,82599,1,8,1:0:0:0:
362,211,82752,2,0,P|404:221|450:205,1,80,8|8,3:0|3:0,0:0:0:0:
313,125,83058,1,8,3:0:0:0:
335,303,83211,5,12,3:0:0:0:
335,303,83364,1,8,3:0:0:0:
429,132,83517,70,0,L|437:203,1,50,8|0,3:0|3:0,0:0:0:0:
448,303,83823,2,0,L|441:238,1,50,8|0,1:0|3:0,0:0:0:0:
424,82,84129,2,0,L|430:142,1,50,8|0,3:0|3:0,0:0:0:0:
375,324,84435,6,0,L|365:244,1,59.9999981689454,12|0,3:0|3:0,0:0:0:0:
350,134,84742,2,0,L|358:202,1,59.9999981689454,8|0,3:0|3:0,0:0:0:0:
300,340,85048,70,0,L|290:267,1,69.9999978637696,8|0,1:0|3:0,0:0:0:0:
271,129,85354,2,0,L|279:202,1,69.9999978637696,8|0,3:0|3:0,0:0:0:0:
223,357,85660,6,0,L|213:277,1,80,12|0,3:0|3:0,0:0:0:0:
193,124,85966,2,0,L|202:203,1,80,8|0,3:0|3:0,0:0:0:0:
150,373,86272,70,0,L|138:279,1,89.9999972534181,8|0,3:0|3:0,0:0:0:0:
118,119,86578,2,0,L|127:210,1,89.9999972534181,8|0,3:0|3:0,0:0:0:0:
73,384,86884,6,0,L|60:281,1,100,8|0,3:0|3:0,0:0:0:0:
33,110,87190,2,0,L|46:213,1,100,8|0,3:0|3:0,0:0:0:0:
220,272,87497,22,0,P|281:259|230:247,1,150,8|0,1:0|0:0,0:0:0:0:
220,272,87803,2,0,P|182:216|247:239,1,179.999994506836,8|0,3:0|0:0,0:0:0:0:
299,305,88109,53,12,0:0:0:0:
384,104,88262,1,8,3:0:0:0:
98,220,88415,1,8,0:0:0:0:
299,305,88568,1,8,3:0:0:0:
183,19,88721,1,8,0:0:0:0:
98,220,88874,1,8,3:0:0:0:
384,104,89027,1,8,0:0:0:0:
183,19,89180,2,0,P|129:99|190:94,1,209.999993591309,8|8,3:0|3:0,0:0:0:0:
472,14,89946,70,0,L|454:87,1,69.9999978637696,12|0,0:0|0:0,0:0:0:0:
404,271,90252,1,2,0:0:0:0:
512,130,90405,1,2,0:0:0:0:
250,128,90558,5,12,0:0:0:0:
451,213,90711,1,8,3:0:0:0:
180,328,90864,1,8,0:0:0:0:
381,243,91017,1,8,3:0:0:0:
113,127,91170,1,8,0:0:0:0:
314,212,91323,1,8,3:0:0:0:
45,330,91476,1,8,0:0:0:0:
246,245,91629,2,0,B|223:189|271:150|271:150|232:109|252:54,1,209.999993591309,8|8,3:0|3:0,0:0:0:0:
174,258,92395,70,0,P|165:221|169:186,1,69.9999978637696,12|0,0:0|0:0,0:0:0:0:
328,87,92701,1,2,0:0:0:0:
168,189,92854,1,2,0:0:0:0:
473,285,93007,5,12,0:0:0:0:
272,200,93160,1,8,3:0:0:0:
471,13,93313,1,8,0:0:0:0:
386,214,93466,1,8,3:0:0:0:
181,10,93619,1,8,0:0:0:0:
382,95,93772,1,12,3:0:0:0:
176,298,93925,1,8,0:0:0:0:
261,97,94078,1,8,3:0:0:0:
408,320,94231,69,6,0:0:0:0:
334,210,94384,1,6,0:0:0:0:
465,200,94537,1,6,0:0:0:0:
174,199,94690,37,8,0:0:0:0:
174,199,94767,1,8,0:0:0:0:
174,199,94843,1,14,0:0:0:0:
379,42,94996,1,10,0:0:0:0:
273,328,95149,1,10,0:0:0:0:
76,95,95302,1,10,0:0:0:0:
379,42,95456,70,0,P|354:132|406:230,1,200,6|8,0:0|0:0,0:0:0:0:
133,342,95915,2,0,P|158:252|106:154,1,200,2|0,0:0|0:0,0:0:0:0:
256,359,96375,2,0,P|304:369|348:344,1,100,8|0,0:0|0:0,0:0:0:0:
256,53,96680,6,0,P|161:30|79:82,1,200,2|8,0:0|0:0,0:0:0:0:
2,296,97139,1,8,3:0:0:0:
46,317,97215,1,8,3:0:0:0:
96,319,97292,1,8,3:0:0:0:
143,301,97368,1,8,3:0:0:0:
178,267,97445,1,8,3:0:0:0:
256,53,97599,1,8,0:0:0:0:
256,339,97752,1,8,3:0:0:0:
419,124,97905,38,0,P|352:95|272:137,1,160,6|8,0:0|3:0,0:0:0:0:
460,279,98364,2,0,L|415:108,1,160,2|0,0:0|0:0,0:0:0:0:
256,53,98823,2,0,L|278:131,1,80,8|0,3:0|0:0,0:0:0:0:
365,279,99129,6,0,P|293:304|235:255,1,160,8|8,3:0|3:0,0:0:0:0:
147,105,99588,2,0,P|219:80|277:129,1,160,2|0,0:0|0:0,0:0:0:0:
143,232,100048,70,0,L|57:240,1,80,8|0,3:0|0:0,0:0:0:0:
369,152,100354,2,0,L|455:144,1,80,8|0,3:0|0:0,0:0:0:0:
270,100,100660,5,8,3:0:0:0:
238,271,100813,1,0,0:0:0:0:
369,152,100966,1,8,3:0:0:0:
192,171,101120,1,0,0:0:0:0:
345,258,101273,1,8,3:0:0:0:
270,100,101425,70,0,L|262:21,1,80,2|8,0:0|3:0,0:0:0:0:
238,271,101731,2,0,L|246:350,1,80,2|8,0:0|3:0,0:0:0:0:
446,154,102037,6,0,P|408:144|367:152,1,80,2|8,0:0|3:0,0:0:0:0:
160,268,102344,2,0,P|198:278|239:270,1,80,2|8,0:0|3:0,0:0:0:0:
368,151,102650,1,2,0:0:0:0:
102,35,102803,5,6,0:0:0:0:
160,268,102956,1,8,3:0:0:0:
392,27,103109,5,8,3:0:0:0:
159,84,103262,1,8,3:0:0:0:
402,317,103415,69,8,3:0:0:0:
344,84,103568,1,8,3:0:0:0:
109,328,103721,5,8,3:0:0:0:
342,271,103874,1,8,3:0:0:0:
102,35,104027,69,8,3:0:0:0:
160,268,104180,1,8,3:0:0:0:
392,27,104333,5,8,3:0:0:0:
166,92,104486,1,8,3:0:0:0:
166,92,104563,1,8,3:0:0:0:
166,92,104640,1,8,0:0:0:0:
342,271,104793,1,2,0:0:0:0:
0,378,104946,69,12,0:0:0:0:
228,307,105099,2,0,P|233:259|207:223,2,89.9999972534181,8|8|8,3:0|3:0|3:0,0:0:0:0:
0,378,105558,5,8,3:0:0:0:
228,307,105711,1,8,3:0:0:0:
0,177,105864,1,8,3:0:0:0:
228,106,106017,1,8,3:0:0:0:
0,253,106171,6,0,L|1:318,1,50,4|8,0:0|3:0,0:0:0:0:
123,165,106476,70,0,L|123:330,1,150.000005722046,4|8,0:0|3:0,0:0:0:0:
131,173,106936,5,8,0:0:0:0:
131,173,107012,1,8,0:0:0:0:
131,173,107089,1,12,0:0:0:0:
88,356,107242,2,0,P|140:364|123:315,1,125,12|0,0:0|0:0,0:0:0:0:
123,315,107701,70,0,B|98:206|98:206|129:180|171:183|184:219|165:253|165:253|212:293,1,300,6|0,0:0|0:0,0:0:0:0:
249,229,108007,2,0,B|237:267|250:304|263:323|303:323|303:323|343:315|363:285|356:244|326:211,1,269.999991760254,6|0,0:0|0:0,0:0:0:0:
424,275,108313,2,0,B|424:219|391:177|391:177|502:231|502:231|486:191|487:135,1,320,6|8,0:0|0:0,0:0:0:0:
208,12,108773,70,0,L|256:268,1,220.000006713867,6|8,0:0|3:0,0:0:0:0:
487,140,109232,2,0,P|435:124|383:141,1,110.000003356934,8|0,0:0|0:0,0:0:0:0:
256,336,109538,1,8,3:0:0:0:
338,81,109691,1,8,3:0:0:0:
359,336,109844,2,0,P|307:352|255:335,1,110.000003356934,8|0,0:0|0:0,0:0:0:0:
9,144,110150,6,0,B|5:32|5:32|40:12|81:23|87:61|62:91|62:91|100:139,1,300,6|0,0:0|0:0,0:0:0:0:
149,83,110456,2,0,B|129:118|135:156|144:177|184:185|184:185|224:185|250:159|251:118|228:80,1,269.999991760254,6|0,0:0|0:0,0:0:0:0:
312,162,110762,2,0,B|322:107|298:59|298:59|396:133|396:133|388:91|400:36,1,320,6|8,0:0|0:0,0:0:0:0:
81,37,111221,70,0,P|67:85|99:147,1,110.000003356934,6|0,0:0|0:0,0:0:0:0:
365,235,111527,1,8,3:0:0:0:
127,342,111680,1,8,0:0:0:0:
149,83,111833,1,8,3:0:0:0:
461,193,111986,5,8,3:0:0:0:
278,353,112139,1,8,3:0:0:0:
213,117,112292,2,0,P|255:101|324:122,1,110.000003356934,8|0,0:0|0:0,0:0:0:0:
512,354,112599,70,0,P|463:372|399:348,1,110.000003356934,6|0,0:0|0:0,0:0:0:0:
268,180,112905,1,8,0:0:0:0:
503,112,113058,2,0,P|520:164|501:215,1,110.000003356934,2|8,0:0|3:0,0:0:0:0:
203,228,113364,2,0,P|186:176|205:125,1,110.000003356934,2|8,0:0|0:0,0:0:0:0:
437,10,113671,6,0,L|329:27,1,110.000003356934,6|0,0:0|0:0,0:0:0:0:
67,65,113976,2,0,L|175:48,1,110.000003356934,8|8,3:0|0:0,0:0:0:0:
501,39,114282,2,0,L|393:56,1,110.000003356934,8|0,3:0|0:0,0:0:0:0:
23,121,114588,2,0,L|131:104,1,110.000003356934,8|8,3:0|0:0,0:0:0:0:
392,56,114895,69,2,0:0:0:0:
145,204,115048,2,0,P|119:150|134:99,1,110.000003356934,6|8,0:0|3:0,0:0:0:0:
392,56,115354,1,8,0:0:0:0:
145,204,115507,2,0,L|27:217,1,110.000003356934,8|0,3:0|0:0,0:0:0:0:
367,180,115813,2,0,L|485:167,1,110.000003356934,8|8,3:0|0:0,0:0:0:0:
257,357,116120,6,0,P|237:303|266:233,1,110.000003356934,6|0,0:0|0:0,0:0:0:0:
392,56,116426,1,8,3:0:0:0:
325,301,116579,1,8,0:0:0:0:
123,11,116731,69,8,3:0:0:0:
117,48,116807,1,8,3:0:0:0:
110,86,116884,1,8,3:0:0:0:
68,384,117038,1,8,3:0:0:0:
156,177,117191,2,0,P|96:203|158:210,1,165.000005035401,8|0,0:0|0:0,0:0:0:0:
256,192,117497,6,0,B|299:232|346:320|281:371|228:367|196:331|186:300|201:273|212:257,1,300,6|0,0:0|0:0,0:0:0:0:
300,130,117803,2,0,B|312:113|327:86|317:55|285:19|232:15|167:66|214:154|257:194,1,300,6|0,0:0|0:0,0:0:0:0:
367,192,118109,1,6,0:0:0:0:
102,191,118262,2,0,B|179:224|181:154|256:193,1,160,2|8,0:0|0:0,0:0:0:0:
87,265,118568,70,0,P|26:196|110:117,1,220.000006713867,6|8,0:0|3:0,0:0:0:0:
367,192,119028,2,0,L|373:313,1,110.000003356934,8|0,0:0|0:0,0:0:0:0:
471,117,119334,1,8,3:0:0:0:
261,243,119486,2,0,P|211:264|160:249,1,110.000003356934,8|8,3:0|0:0,0:0:0:0:
25,71,119793,5,2,0:0:0:0:
88,315,119946,2,0,P|29:374|41:292,1,220.000006713867,6|8,0:0|0:0,0:0:0:0:
254,64,120405,69,2,0:0:0:0:
306,329,120558,1,8,3:0:0:0:
168,161,120711,2,0,P|215:135|269:142,1,110.000003356934,2|8,0:0|0:0,0:0:0:0:
124,342,121017,6,0,L|102:221,1,110.000003356934,6|0,0:0|0:0,0:0:0:0:
388,42,121323,2,0,L|409:162,1,110.000003356934,8|8,3:0|0:0,0:0:0:0:
222,314,121629,69,8,3:0:0:0:
257,30,121782,1,8,3:0:0:0:
485,202,121935,1,8,3:0:0:0:
172,236,122088,1,8,0:0:0:0:
257,30,122242,5,2,0:0:0:0:
485,202,122395,2,0,P|435:222|369:199,1,110.000003356934,6|0,0:0|0:0,0:0:0:0:
154,36,122701,2,0,P|204:16|257:30,1,110.000003356934,8|0,0:0|0:0,0:0:0:0:
141,271,123007,70,0,P|91:291|38:277,1,110.000003356934,8|0,3:0|0:0,0:0:0:0:
209,97,123312,1,8,0:0:0:0:
250,329,123466,1,8,3:0:0:0:
431,176,123619,1,6,0:0:0:0:
141,271,123773,6,0,P|98:265|134:239,1,110.000003356934,8|8,3:0|0:0,0:0:0:0:
430,176,124078,2,0,P|465:149|422:143,1,110.000003356934,8|0,3:0|0:0,0:0:0:0:
175,354,124384,69,8,3:0:0:0:
256,28,124537,1,8,0:0:0:0:
318,288,124690,1,2,0:0:0:0:
148,118,124844,6,0,P|198:101|254:116,1,110.000003356934,6|8,0:0|3:0,0:0:0:0:
318,288,125150,1,8,0:0:0:0:
97,172,125303,2,0,P|72:117|95:67,1,110.000003356934,8|0,3:0|0:0,0:0:0:0:
456,44,125609,69,8,3:0:0:0:
382,322,125762,1,8,0:0:0:0:
180,121,125915,1,8,3:0:0:0:
503,243,126068,5,6,0:0:0:0:
302,42,126221,1,8,3:0:0:0:
228,321,126374,1,8,3:0:0:0:
463,51,126528,69,8,3:0:0:0:
463,51,126604,1,8,3:0:0:0:
463,51,126681,1,8,0:0:0:0:
389,329,126833,1,8,3:0:0:0:
389,329,126909,1,8,3:0:0:0:
389,329,126986,1,8,3:0:0:0:
180,121,127139,1,8,3:0:0:0:
474,128,127293,69,12,0:0:0:0:
389,329,127446,1,8,3:0:0:0:
249,115,127599,1,8,0:0:0:0:
450,200,127752,1,8,3:0:0:0:
230,351,127905,1,8,0:0:0:0:
315,150,128058,1,8,3:0:0:0:
62,201,128211,1,8,0:0:0:0:
263,286,128364,1,8,3:0:0:0:
400,72,128517,38,0,L|406:140,1,60,4|0,0:0|0:0,0:0:0:0:
417,204,128823,21,2,0:0:0:0:
263,286,128976,1,2,0:0:0:0:
359,361,129129,2,0,L|335:183,1,174.999994659424,2|2,0:0|0:0,0:0:0:0:
416,179,129588,2,0,L|409:134,1,34.9999989318848,2|2,0:0|0:0,0:0:0:0:
396,73,129742,1,2,0:0:0:0:
213,262,130048,54,0,L|150:262,1,50,2|0,0:0|0:0,0:0:0:0:
101,312,130354,1,2,0:0:0:0:
88,232,130507,2,0,L|74:176,1,50,2|0,0:0|0:0,0:0:0:0:
58,105,130813,2,0,P|109:115|157:99,1,100,2|0,0:0|0:0,0:0:0:0:
221,57,131272,1,2,0:0:0:0:
226,136,131425,6,0,L|237:184,1,50,2|0,0:0|0:0,0:0:0:0:
315,169,131731,2,0,L|326:217,1,50,2|0,0:0|0:0,0:0:0:0:
308,295,132037,2,0,P|368:352|381:271,1,200,2|0,0:0|0:0,0:0:0:0:
87,69,133415,69,2,0:0:0:0:
77,143,134027,5,2,0:0:0:0:
69,217,134639,69,2,0:0:0:0:
218,158,134946,6,0,P|242:153|266:156,1,50,2|0,0:0|0:0,0:0:0:0:
338,192,135252,1,2,0:0:0:0:
405,234,135405,2,0,P|429:237|453:231,1,50,2|0,0:0|0:0,0:0:0:0:
511,175,135711,2,0,L|511:295,1,100,2|0,0:0|0:0,0:0:0:0:
508,354,136170,1,2,0:0:0:0:
355,306,136476,70,0,P|330:300|306:305,1,50,2|0,0:0|0:0,0:0:0:0:
229,327,136782,2,0,P|204:331|180:326,1,50,2|0,0:0|0:0,0:0:0:0:
126,256,137088,6,0,B|97:174|97:174|151:189,1,137.500004196167,2|0,0:0|0:0,0:0:0:0:
145,187,137548,70,0,B|203:203|203:203|174:108,1,149.999995422363,2|0,0:0|0:0,0:0:0:0:
176,117,138007,6,0,P|264:47|249:129,1,259.999988098145,2|0,0:0|0:0,0:0:0:0:
207,270,138772,37,8,3:0:0:0:
207,270,138849,1,8,3:0:0:0:
207,270,138925,1,8,3:0:0:0:
456,193,139231,21,2,0:0:0:0:
403,282,139384,1,2,0:0:0:0:
256,78,139537,38,0,L|256:176,1,85.0000016212464,6|0,0:0|0:0,0:0:0:0:
256,329,139844,1,8,3:0:0:0:
116,209,139997,2,0,P|155:195|195:205,1,85.0000016212464,2|8,0:0|3:0,0:0:0:0:
403,282,140303,2,0,P|363:295|323:285,1,85.0000016212464,2|8,0:0|3:0,0:0:0:0:
194,52,140609,70,0,P|235:129|194:206,1,179.999994506836,2|0,0:0|0:0,0:0:0:0:
125,350,141068,2,0,P|110:302|135:255,1,89.9999972534181,8|0,3:0|0:0,0:0:0:0:
316,310,141374,6,0,P|272:320|229:309,1,89.9999972534181,8|0,3:0|0:0,0:0:0:0:
10,187,141680,2,0,P|53:176|96:187,1,89.9999972534181,8|0,3:0|0:0,0:0:0:0:
229,309,141986,2,0,L|84:176,1,179.999994506836,6|8,0:0|3:0,0:0:0:0:
376,372,142599,69,8,3:0:0:0:
284,252,142752,2,0,P|271:206|287:151,1,94.9999974632264,2|8,0:0|3:0,0:0:0:0:
475,188,143058,2,0,B|463:264|391:284|335:244|307:212|335:148|407:140|403:184,1,284.999992389679,2|8,0:0|3:0,0:0:0:0:
168,352,143823,6,0,B|124:372|84:352|84:352|100:340,1,100,8|0,3:0|0:0,0:0:0:0:
340,316,144129,2,0,B|384:296|424:316|424:316|408:328,1,100,8|0,3:0|0:0,0:0:0:0:
254,222,144435,70,0,B|190:182|170:135|196:71|224:41|262:39|341:44|395:96|298:226|266:122,1,400,6|8,0:0|0:0,0:0:0:0:
0,20,145507,37,8,3:0:0:0:
96,220,145660,1,8,3:0:0:0:
284,72,145813,2,0,P|232:56|176:80,1,100,14|0,0:0|0:0,0:0:0:0:
84,359,146119,69,8,3:0:0:0:
84,359,146196,1,8,3:0:0:0:
84,359,146272,1,8,0:0:0:0:
396,244,146425,1,8,3:0:0:0:
396,244,146502,1,8,3:0:0:0:
396,244,146578,1,8,0:0:0:0:
189,69,146731,53,2,0:0:0:0:
429,111,146884,2,0,B|373:187|292:155|292:155|200:205|224:251|224:251|255:294|255:294|287:251|287:251|310:205|219:155|219:155|138:187|84:112,1,674.999979400635,6|0,0:0|0:0,0:0:0:0:
147,70,148109,54,0,P|177:92|167:36,1,119.999996337891,2|0,0:0|0:0,0:0:0:0:
0,24,148568,5,2,0:0:0:0:
12,125,148721,1,2,0:0:0:0:
24,224,148874,2,0,L|12:125,1,100,2|0,0:0|0:0,0:0:0:0:
127,228,149333,70,0,P|163:236|199:226,1,75.0000028610231,6|0,0:0|0:0,0:0:0:0:
312,157,149639,2,0,P|348:147|385:156,1,75.0000028610231,2|0,0:0|0:0,0:0:0:0:
295,247,149946,1,2,0:0:0:0:
218,145,150099,2,0,P|205:108|218:67,1,75.0000028610231,2|0,0:0|0:0,0:0:0:0:
295,247,150405,6,0,P|222:261|224:141,1,225.000008583069,2|2,0:0|0:0,0:0:0:0:
376,320,151170,1,2,0:0:0:0:
376,320,151323,2,0,L|376:240,1,75.0000028610231,2|0,0:0|0:0,0:0:0:0:
382,30,151782,70,0,P|345:21|309:31,1,75.0000028610231,2|0,0:0|0:0,0:0:0:0:
196,100,152088,2,0,P|160:109|123:101,1,75.0000028610231,2|0,0:0|0:0,0:0:0:0:
18,28,152395,1,2,0:0:0:0:
54,150,152548,2,0,B|73:227,1,75.0000028610231,2|0,0:0|0:0,0:0:0:0:
348,368,152854,69,2,0:0:0:0:
488,100,153007,1,6,0:0:0:0:
177,184,153160,1,8,3:0:0:0:
420,344,153313,1,8,0:0:0:0:
441,39,153466,1,8,3:0:0:0:
130,239,153619,1,8,3:0:0:0:
485,383,153772,2,0,P|490:315|350:315,1,220.000006713867,2|0,0:0|0:0,0:0:0:0:
52,376,154231,70,0,L|164:366,1,110.000003356934,6|0,0:0|0:0,0:0:0:0:
420,344,154537,1,8,0:0:0:0:
192,192,154690,2,0,P|173:242|192:292,1,110.000003356934,2|8,0:0|3:0,0:0:0:0:
388,191,154997,2,0,P|407:141|388:91,1,110.000003356934,2|8,0:0|0:0,0:0:0:0:
58,53,155303,6,0,L|172:49,1,110.000003356934,6|0,0:0|0:0,0:0:0:0:
444,38,155609,2,0,L|330:42,1,110.000003356934,8|8,3:0|0:0,0:0:0:0:
5,105,155914,70,0,L|116:101,1,110.000003356934,8|0,3:0|0:0,0:0:0:0:
497,86,156220,2,0,L|386:90,1,110.000003356934,8|8,3:0|0:0,0:0:0:0:
114,101,156527,5,2,0:0:0:0:
347,256,156680,2,0,P|365:204|346:152,1,110.000003356934,6|8,0:0|3:0,0:0:0:0:
114,101,156986,1,8,0:0:0:0:
347,256,157139,2,0,P|399:274|448:253,1,110.000003356934,8|0,3:0|0:0,0:0:0:0:
114,101,157445,2,0,P|62:83|10:102,1,110.000003356934,8|8,3:0|0:0,0:0:0:0:
255,384,157752,70,0,P|270:328|241:273,1,110.000003356934,6|0,0:0|0:0,0:0:0:0:
114,101,158058,1,8,3:0:0:0:
194,334,158211,1,8,0:0:0:0:
320,16,158364,5,8,3:0:0:0:
314,53,158440,1,8,3:0:0:0:
307,91,158517,1,8,3:0:0:0:
255,384,158670,1,8,3:0:0:0:
186,120,158823,2,0,P|128:97|164:147,1,165.000005035401,8|0,0:0|0:0,0:0:0:0:
256,191,159129,70,0,B|271:248|262:348|180:355|138:323|130:275|139:244|166:229|184:222,1,300,6|0,0:0|0:0,0:0:0:0:
327,163,159435,2,0,B|346:156|374:141|382:110|375:62|333:30|250:37|242:137|256:194,1,300,6|0,0:0|0:0,0:0:0:0:
350,252,159741,1,6,0:0:0:0:
121,175,159895,2,0,P|192:147|254:191,1,160,2|8,0:0|0:0,0:0:0:0:
487,384,160200,6,0,L|464:147,1,220.000006713867,6|8,0:0|3:0,0:0:0:0:
205,315,160660,2,0,P|256:332|306:313,1,110.000003356934,8|0,0:0|0:0,0:0:0:0:
465,165,160966,1,8,3:0:0:0:
195,205,161118,2,0,L|204:314,1,110.000003356934,8|8,3:0|0:0,0:0:0:0:
76,135,161425,69,2,0:0:0:0:
306,313,161578,2,0,P|390:322|316:276,1,220.000006713867,6|8,0:0|0:0,0:0:0:0:
10,355,162037,5,2,0:0:0:0:
258,255,162190,1,8,3:0:0:0:
52,227,162343,2,0,P|50:284|90:331,1,110.000003356934,2|8,0:0|0:0,0:0:0:0:
396,192,162650,70,0,L|414:79,1,110.000003356934,6|0,0:0|0:0,0:0:0:0:
69,118,162956,2,0,L|51:231,1,110.000003356934,8|8,3:0|0:0,0:0:0:0:
314,338,163262,5,8,3:0:0:0:
279,54,163415,1,8,3:0:0:0:
51,226,163568,1,8,3:0:0:0:
395,295,163721,1,8,0:0:0:0:
279,54,163874,69,2,0:0:0:0:
51,226,164027,2,0,P|102:243|163:219,1,110.000003356934,6|0,0:0|0:0,0:0:0:0:
461,158,164333,2,0,P|410:141|349:165,1,110.000003356934,8|0,0:0|0:0,0:0:0:0:
146,336,164639,6,0,L|154:216,1,110.000003356934,8|0,3:0|0:0,0:0:0:0:
334,75,164946,1,8,0:0:0:0:
374,308,165099,1,8,3:0:0:0:
153,226,165253,1,6,0:0:0:0:
448,192,165405,70,0,P|477:225|433:224,1,110.000003356934,8|8,3:0|0:0,0:0:0:0:
167,193,165711,2,0,P|123:193|153:226,1,110.000003356934,8|0,3:0|0:0,0:0:0:0:
448,192,166017,5,8,3:0:0:0:
122,111,166170,1,8,0:0:0:0:
382,49,166323,1,2,0:0:0:0:
62,159,166476,70,0,P|46:107|67:58,1,110.000003356934,6|8,0:0|3:0,0:0:0:0:
312,56,166782,1,8,0:0:0:0:
116,217,166935,2,0,P|62:238|3:211,1,110.000003356934,8|8,3:0|3:0,0:0:0:0:
312,56,167242,2,0,P|366:35|425:62,1,110.000003356934,8|0,0:0|0:0,0:0:0:0:
512,200,167547,1,8,3:0:0:0:
169,157,167701,5,6,0:0:0:0:
334,384,167854,1,8,3:0:0:0:
449,123,168007,1,8,3:0:0:0:
103,186,168160,69,8,3:0:0:0:
103,186,168236,1,8,3:0:0:0:
103,186,168313,1,8,0:0:0:0:
359,319,168465,1,8,3:0:0:0:
359,319,168543,1,8,3:0:0:0:
359,319,168618,1,8,3:0:0:0:
332,20,168771,1,8,3:0:0:0:
221,269,168925,69,12,0:0:0:0:
438,239,169078,1,8,3:0:0:0:
191,52,169231,1,8,0:0:0:0:
221,269,169384,1,8,3:0:0:0:
408,22,169537,1,8,0:0:0:0:
191,52,169690,1,8,3:0:0:0:
438,239,169844,1,8,0:0:0:0:
408,22,169997,1,8,3:0:0:0:
314,151,170149,38,0,L|250:149,1,60,6|8,0:0|3:0,0:0:0:0:
213,308,170762,70,0,L|336:316,1,100,14|0,0:0|0:0,0:0:0:0:
179,202,171068,1,2,0:0:0:0:
114,383,171221,1,2,0:0:0:0:
430,338,171374,53,12,0:0:0:0:
213,308,171527,1,8,3:0:0:0:
389,110,171680,1,8,0:0:0:0:
359,327,171833,1,8,3:0:0:0:
159,150,171986,1,8,0:0:0:0:
376,180,172139,1,8,3:0:0:0:
199,378,172292,1,8,0:0:0:0:
229,161,172446,2,0,P|271:145|304:187,1,89.9999972534181,8|0,3:0|0:0,0:0:0:0:
