osu file format v14

[General]
AudioFilename: audio.mp3
AudioLeadIn: 0
PreviewTime: 53112
Countdown: 0
SampleSet: Soft
StackLeniency: 0.7
Mode: 0
LetterboxInBreaks: 0
WidescreenStoryboard: 1

[Editor]
DistanceSpacing: 1
BeatDivisor: 2
GridSize: 16
TimelineZoom: 1.700001

[Metadata]
Title:GOOD NIGHT
TitleUnicode:GOOD NIGHT
Artist:Dreamcatcher
ArtistUnicode:드림캐쳐
Creator:Jeezyh
Version:Normal
Source:
Tags:rock k-rock krock Nightmare poprock kpop k-pop 지유 수아 시연 한동 유현 다미 가현 Ji-U Su-A SiYeon Handong YooHyun DaMi cut version Gahyeon Happy Face Entertainment -Arche PoNo Natsu
BeatmapID:1896885
BeatmapSetID:908055

[Difficulty]
HPDrainRate:3
CircleSize:3.3
OverallDifficulty:4
ApproachRate:6
SliderMultiplier:0.97
SliderTickRate:1

[Events]
//Background and Video events
0,0,"Good Night BG.jpg",0,0
//Break Periods
2,22240,23439
//Storyboard Layer 0 (Background)
//Storyboard Layer 1 (Fail)
//Storyboard Layer 2 (Pass)
//Storyboard Layer 3 (Foreground)
//Storyboard Sound Samples

[TimingPoints]
9796,306.122448979592,4,2,1,40,1,0
9796,-111.111111111111,4,2,1,40,0,0
11020,-100,4,2,2,65,0,0
11479,-100,4,2,2,55,0,0
11632,-100,4,2,2,65,0,0
11938,-100,4,2,2,65,0,0
12244,-100,4,2,2,60,0,0
22040,-111.111111111111,4,2,1,55,0,0
24489,-111.111111111111,4,2,2,50,0,0
26326,-111.111111111111,4,2,2,65,0,0
26938,-111.111111111111,4,2,2,50,0,0
28775,-111.111111111111,4,2,2,65,0,0
29387,-111.111111111111,4,2,2,50,0,0
30459,-111.111111111111,4,2,2,40,0,0
31071,-111.111111111111,4,2,2,55,0,0
31224,-111.111111111111,4,2,2,65,0,0
31377,-111.111111111111,4,2,2,55,0,0
31530,-111.111111111111,4,2,2,65,0,0
31836,-100,4,2,2,60,0,0
34285,-111.111111111111,4,2,2,65,0,0
35510,-111.111111111111,4,2,2,60,0,0
36122,-111.111111111111,4,2,2,65,0,0
36428,-111.111111111111,4,2,2,55,0,0
36734,-111.111111111111,4,2,2,65,0,0
37959,-111.111111111111,4,2,2,60,0,0
38571,-111.111111111111,4,2,2,65,0,0
39183,-111.111111111111,4,2,2,65,0,0
40867,-111.111111111111,4,2,2,55,0,0
41020,-111.111111111111,4,2,2,65,0,0
41173,-111.111111111111,4,2,2,55,0,0
41326,-111.111111111111,4,2,2,65,0,0
41632,-100,4,2,2,60,0,0
44081,-111.111111111111,4,2,2,55,0,0
44540,-111.111111111111,4,2,2,50,0,0
46224,-111.111111111111,4,2,2,50,0,0
46530,-111.111111111111,4,2,2,50,0,0
48979,-111.111111111111,4,2,2,65,0,0
49285,-111.111111111111,4,2,2,65,0,0
49591,-111.111111111111,4,2,2,65,0,0
49898,-111.111111111111,4,2,2,65,0,0
50204,-111.111111111111,4,2,2,65,0,0
50510,-111.111111111111,4,2,2,65,0,0
50663,-111.111111111111,4,2,1,65,0,0
51275,-111.111111111111,4,2,1,65,0,0
51428,-111.111111111111,4,2,2,65,0,0
51734,-111.111111111111,4,2,2,65,0,0
51887,-111.111111111111,4,2,1,65,0,0
52040,-111.111111111111,4,2,2,65,0,0
52193,-111.111111111111,4,2,1,65,0,0
52347,-111.111111111111,4,2,1,70,0,0
52653,-111.111111111111,4,2,1,75,0,0
53112,-111.111111111111,4,2,2,60,0,0
53418,-111.111111111111,4,2,2,60,0,0
53877,-100,4,2,2,75,0,1
54489,-100,4,2,2,75,0,1
54949,-100,4,2,2,75,0,1
56326,-100,4,2,2,75,0,1
56938,-100,4,2,2,75,0,1
63367,-100,4,2,2,75,0,1
63673,-100,4,2,2,75,0,1
64285,-100,4,2,2,75,0,1
67193,-100,4,2,2,75,0,1
68571,-100,4,2,2,75,0,1
72398,-100,4,2,1,75,0,1
73010,-100,4,2,1,75,0,1
73469,-100,4,2,2,65,0,0
75306,-100,4,2,2,60,0,0
75918,-100,4,2,2,65,0,0

[Colours]
Combo1 : 163,82,82
Combo2 : 192,192,192
Combo3 : 255,128,64
Combo4 : 255,128,192

[HitObjects]
381,77,9796,6,0,P|476:118|383:164,1,261.899992007447,4|0,0:0|0:0,0:0:0:0:
293,120,11020,1,12,0:0:0:0:
293,120,11173,2,0,L|187:120,1,97,8|8,0:0|0:0,0:0:0:0:
147,120,11632,1,12,0:0:0:0:
98,203,11938,1,12,0:0:0:0:
153,282,12244,6,0,P|200:290|247:280,2,97,6|8|8,0:0|0:0|3:0,0:0:0:0:
55,288,13163,1,8,0:0:0:0:
55,288,13316,2,0,L|42:192,1,97,6|8,0:0|3:0,0:0:0:0:
34,143,13775,1,8,0:0:0:0:
80,57,14081,2,0,L|84:3,2,48.5,8|8|8,3:0|3:0|0:0,0:0:0:0:
131,139,14693,6,0,P|178:147|225:137,2,97,6|8|8,0:0|0:0|3:0,0:0:0:0:
34,143,15612,1,8,0:0:0:0:
34,143,15765,2,0,L|43:260,1,97,6|8,0:0|3:0,0:0:0:0:
47,287,16224,1,8,0:0:0:0:
130,336,16530,2,0,L|127:395,2,48.5,8|8|8,3:0|3:0|0:0,0:0:0:0:
162,244,17142,6,0,P|174:196|207:162,1,97,6|8,0:0|0:0,0:0:0:0:
301,139,17755,1,8,3:0:0:0:
249,57,18061,1,8,0:0:0:0:
249,57,18214,2,0,P|178:41|107:55,1,145.5,8|8,3:0|0:0,0:0:0:0:
22,101,18979,1,8,3:0:0:0:
64,188,19285,2,0,P|60:211|64:235,1,48.5,8|2,0:0|0:0,0:0:0:0:
79,281,19591,6,0,P|126:288|174:281,1,97,6|6,0:0|0:0,0:0:0:0:
249,218,20204,2,0,P|271:215|296:219,2,48.5,2|10|10,0:0|3:0|0:0,0:0:0:0:
277,125,20816,1,2,0:0:0:0:
367,87,21122,1,2,0:0:0:0:
431,158,21428,1,10,0:0:0:0:
381,241,21734,1,10,0:0:0:0:
296,219,22040,1,8,3:0:0:0:
63,312,24489,6,0,P|105:301|147:311,1,87.2999973358155,12|8,0:0|0:0,0:0:0:0:
221,358,25102,1,8,0:0:0:0:
295,310,25408,1,8,0:0:0:0:
369,358,25714,2,0,P|411:369|453:359,1,87.2999973358155,2|2,0:0|0:0,0:0:0:0:
412,281,26326,2,0,L|412:169,1,87.2999973358155,4|0,1:0|0:0,0:0:0:0:
452,114,26938,6,0,P|410:105|369:116,1,87.2999973358155,12|8,0:0|0:0,0:0:0:0:
323,193,27551,1,8,0:0:0:0:
249,145,27857,1,8,0:0:0:0:
175,193,28163,2,0,P|133:204|91:194,1,87.2999973358155,2|2,0:0|0:0,0:0:0:0:
8,164,28775,2,0,L|8:308,1,130.949996003723,4|0,1:0|0:0,0:0:0:0:
27,333,29387,6,0,P|69:322|111:332,1,87.2999973358155,12|8,0:0|0:0,0:0:0:0:
191,365,30000,1,8,0:0:0:0:
262,315,30306,2,0,L|262:267,1,43.6499986679078,8|8,0:0|3:0,0:0:0:0:
337,142,31071,5,8,0:0:0:0:
337,142,31224,2,0,P|313:146|289:143,1,43.6499986679078,14|10,0:0|0:0,0:0:0:0:
256,117,31530,1,10,0:0:0:0:
152,86,31836,6,0,P|131:129|134:177,1,97,6|8,0:0|0:0,0:0:0:0:
165,214,32296,2,0,P|185:257|182:305,1,97,2|0,0:0|0:0,0:0:0:0:
152,342,32755,1,8,0:0:0:0:
247,361,33061,6,0,L|372:352,1,97,6|8,0:0|0:0,0:0:0:0:
380,321,33520,2,0,L|505:312,1,97,2|8,0:0|3:0,0:0:0:0:
512,281,33979,1,8,0:0:0:0:
477,200,34285,6,0,L|477:112,1,87.2999973358155,12|8,0:0|0:0,0:0:0:0:
455,27,34898,1,8,0:0:0:0:
368,39,35204,1,8,0:0:0:0:
380,127,35510,2,0,L|292:127,1,87.2999973358155,6|2,0:0|0:0,0:0:0:0:
221,177,36122,2,0,P|204:137|210:94,1,87.2999973358155,12|2,0:0|0:0,0:0:0:0:
237,11,36734,6,0,L|149:11,1,87.2999973358155,12|8,0:0|0:0,0:0:0:0:
69,46,37347,1,8,0:0:0:0:
118,118,37653,1,8,0:0:0:0:
69,190,37959,2,0,L|75:294,1,87.2999973358155,6|2,0:0|0:0,0:0:0:0:
133,340,38571,2,0,P|196:341|235:292,1,130.949996003723,8|2,0:0|0:0,0:0:0:0:
238,249,39183,6,0,P|238:227|245:206,1,43.6499986679078,12|8,0:0|3:0,0:0:0:0:
318,159,39642,1,8,3:0:0:0:
318,159,39796,2,0,P|360:149|402:159,1,87.2999973358155,8|8,0:0|0:0,0:0:0:0:
433,189,40254,1,8,3:0:0:0:
466,360,40867,5,8,0:0:0:0:
466,360,41020,2,0,P|442:366|418:365,1,43.6499986679078,14|10,0:0|0:0,0:0:0:0:
383,343,41326,1,10,0:0:0:0:
273,347,41632,6,0,L|267:250,1,97,6|8,0:0|0:0,0:0:0:0:
300,214,42091,2,0,L|294:117,1,97,2|0,0:0|0:0,0:0:0:0:
258,83,42551,1,8,0:0:0:0:
192,11,42857,6,0,P|163:49|158:97,1,97,6|8,0:0|0:0,0:0:0:0:
182,139,43317,2,0,P|194:184|182:231,1,97,8|0,3:0|0:0,0:0:0:0:
147,263,43776,1,8,0:0:0:0:
197,334,44081,6,0,B|262:345|262:345|327:329,2,130.949996003723,6|2|8,0:0|0:0|3:0,0:0:0:0:
146,262,45306,2,0,B|82:251|82:251|19:269,2,130.949996003723,8|2|8,3:0|0:0|3:0,0:0:0:0:
194,190,46530,1,8,3:0:0:0:
147,117,46836,6,0,L|145:29,2,87.2999973358155,8|8|8,3:0|3:0|3:0,0:0:0:0:
118,149,47602,2,0,P|105:191|119:232,1,87.2999973358155,2|2,0:0|0:0,0:0:0:0:
176,295,48214,2,0,L|262:285,2,87.2999973358155,2|2|2,0:0|0:0|0:0,0:0:0:0:
151,330,48979,6,0,P|107:335|69:314,1,87.2999973358155,6|8,0:0|3:0,0:0:0:0:
4,245,49591,1,8,3:0:0:0:
38,155,49898,1,8,3:0:0:0:
119,206,50204,2,0,P|163:211|201:190,1,87.2999973358155,8|8,3:0|3:0,0:0:0:0:
216,146,50663,2,0,P|254:126|296:131,1,87.2999973358155,8|2,3:0|0:0,0:0:0:0:
359,203,51275,2,0,L|422:208,1,43.6499986679078,8|8,3:0|3:0,0:0:0:0:
496,186,51734,6,0,P|498:164|494:142,1,43.6499986679078,8|8,3:0|3:0,0:0:0:0:
479,97,52040,2,0,P|477:75|481:53,1,43.6499986679078,8|8,3:0|3:0,0:0:0:0:
496,8,52347,1,4,0:0:0:0:
400,14,52653,1,4,0:0:0:0:
303,95,53112,5,8,0:0:0:0:
303,95,53265,2,0,L|306:158,1,43.6499986679078,8|12,0:0|0:0,0:0:0:0:
414,247,53877,5,6,0:0:0:0:
348,318,54183,1,6,0:0:0:0:
251,321,54489,2,0,P|206:335|158:328,1,97,6|8,0:0|0:0,0:0:0:0:
108,335,54949,2,0,P|83:268|95:197,1,145.5,6|8,0:0|0:0,0:0:0:0:
150,118,55714,1,8,3:0:0:0:
150,118,55867,2,0,L|69:99,1,48.5,8|8,3:0|0:0,0:0:0:0:
43,30,56326,5,6,0:0:0:0:
139,16,56632,1,6,0:0:0:0:
220,68,56938,2,0,P|236:113|227:160,1,97,6|8,0:0|0:0,0:0:0:0:
204,203,57398,2,0,P|188:248|197:295,1,97,6|8,0:0|3:0,0:0:0:0:
220,338,57857,1,8,0:0:0:0:
314,315,58163,1,8,3:0:0:0:
314,315,58316,2,0,L|333:234,1,48.5,8|8,3:0|0:0,0:0:0:0:
377,186,58775,6,0,P|362:140|374:93,1,97,6|8,0:0|0:0,0:0:0:0:
394,50,59234,2,0,P|348:64|301:52,1,97,2|2,0:0|0:0,0:0:0:0:
206,31,59847,2,0,P|160:45|128:82,1,97,6|8,0:0|3:0,0:0:0:0:
106,124,60306,1,8,0:0:0:0:
106,124,60459,2,0,L|112:246,1,97,8|8,3:0|3:0,0:0:0:0:
135,262,60918,1,8,0:0:0:0:
213,318,61224,6,0,L|231:273,1,48.5,6|8,0:0|3:0,0:0:0:0:
275,251,61530,1,8,0:0:0:0:
275,251,61683,2,0,L|281:202,1,48.5,8|0,3:0|0:0,0:0:0:0:
261,158,61989,1,8,3:0:0:0:
340,102,62296,2,0,P|385:118|416:154,1,97,6|8,0:0|3:0,0:0:0:0:
410,254,62908,6,0,L|402:329,1,48.5,8|8,3:0|3:0,0:0:0:0:
362,326,63214,2,0,L|354:401,1,48.5,8|8,3:0|0:0,0:0:0:0:
269,331,63673,5,6,0:0:0:0:
173,314,63979,1,6,0:0:0:0:
77,297,64285,2,0,L|76:188,1,97,6|0,0:0|0:0,0:0:0:0:
57,155,64744,2,0,P|127:171|196:150,1,145.5,6|8,0:0|0:0,0:0:0:0:
265,82,65510,1,8,3:0:0:0:
265,82,65663,2,0,L|346:101,1,48.5,8|8,3:0|0:0,0:0:0:0:
407,110,66122,6,0,L|391:222,1,97,6|8,0:0|0:0,0:0:0:0:
330,279,66734,2,0,L|282:267,2,48.5,8|2|8,3:0|0:0|0:0,0:0:0:0:
376,291,67193,1,6,0:0:0:0:
442,361,67500,1,8,3:0:0:0:
508,291,67806,2,0,L|508:179,1,97,8|8,3:0|3:0,0:0:0:0:
442,122,68418,1,2,0:0:0:0:
442,122,68571,6,0,P|400:101|352:102,1,97,6|8,0:0|0:0,0:0:0:0:
278,167,69183,2,0,L|229:164,1,48.5,8|0,3:0|0:0,0:0:0:0:
186,142,69489,1,8,0:0:0:0:
186,142,69642,2,0,L|89:137,1,97,8|8,3:0|3:0,0:0:0:0:
55,45,70255,2,0,L|152:50,1,97,8|8,3:0|3:0,0:0:0:0:
196,30,70714,2,0,L|245:33,1,48.5,8|2,0:0|0:0,0:0:0:0:
288,51,71020,1,6,0:0:0:0:
389,82,71326,5,8,0:0:0:0:
389,82,71479,2,0,L|434:176,1,97,8|8,3:0|0:0,0:0:0:0:
350,222,72091,1,8,3:0:0:0:
269,166,72398,1,8,3:0:0:0:
262,265,72704,2,0,L|128:259,1,97,8|8,3:0|3:0,0:0:0:0:
77,302,73316,1,8,3:0:0:0:
77,302,73469,6,0,L|83:168,1,97,12|8,0:0|0:0,0:0:0:0:
106,111,74081,1,8,0:0:0:0:
199,83,74387,2,0,L|322:88,1,97,8|6,0:0|0:0,0:0:0:0:
357,270,75306,6,0,P|401:253|450:253,1,97,14|2,0:0|0:0,0:0:0:0:
496,269,75765,1,2,0:0:0:0:
496,269,75918,6,0,L|502:135,1,97,12|8,0:0|0:0,0:0:0:0:
472,79,76530,1,8,0:0:0:0:
392,134,76836,2,0,L|389:204,1,48.5,8|8,0:0|3:0,0:0:0:0:
