osu file format v14

[General]
AudioFilename: audio.mp3
AudioLeadIn: 0
PreviewTime: 61339
Countdown: 0
SampleSet: Soft
StackLeniency: 0.5
Mode: 0
LetterboxInBreaks: 0
WidescreenStoryboard: 1

[Editor]
Bookmarks: 144,10203,11761,13125,24228,25787,30462,41371,42735,55203,58514,61436,74099,80332,86566,91241,92800,95917,101566,106826,108190,120657,123969,126891,139553,145787,152021,159813,166047,172280,178514,184553,190982,197215,201891,203060,208125
DistanceSpacing: 1
BeatDivisor: 4
GridSize: 16
TimelineZoom: 1.6

[Metadata]
Title:Fly high
TitleUnicode:날아올라
Artist:Dreamcatcher
ArtistUnicode:드림캐쳐
Creator:Natsu
Version:Normal
Source:
Tags:지유 수아 시연 한동 유현 다미 가현 Ji-U Su-A SiYeon Handong YooHyun DaMi Gahyeon Happy Face Entertainment Prequel 1st mini album kpop k-pop rock
BeatmapID:1382795
BeatmapSetID:645657

[Difficulty]
HPDrainRate:4
CircleSize:3.5
OverallDifficulty:4
ApproachRate:5
SliderMultiplier:1.1
SliderTickRate:1

[Events]
//Background and Video events
0,0,"KakaoTalk_20170803_003304789.jpg",0,0
Video,0,"Dreamcatcher.avi"
//Break Periods
//Storyboard Layer 0 (Background)
//Storyboard Layer 1 (Fail)
//Storyboard Layer 2 (Pass)
//Storyboard Layer 3 (Foreground)
//Storyboard Sound Samples

[TimingPoints]
150,859.598853868195,4,2,1,5,1,0
579,750,4,2,1,5,1,0
954,674.157303370787,4,2,1,5,1,0
1291,631.578947368421,4,2,1,5,1,0
1606,535.714285714286,4,2,1,5,1,0
1873,458.015267175573,4,2,1,5,1,0
2102,588.235294117647,4,2,1,5,1,0
2396,625,4,2,1,5,1,0
3645,612.244897959184,4,2,1,5,1,0
4257,821.917808219178,4,2,1,5,1,0
4667,638.297872340426,4,2,1,5,1,0
4986,612.244897959184,4,2,1,5,1,0
5292,594.059405940594,4,2,1,5,1,0
5589,740.740740740741,4,2,1,5,1,0
5959,745.341614906832,4,2,1,5,1,0
6331,550.45871559633,4,2,1,5,1,0
6606,413.793103448276,4,2,1,5,1,0
7019,379.746835443038,4,2,1,5,1,0
7208,389.61038961039,4,2,1,5,1,0
7337,397.746835443038,4,2,1,5,1,0
7400,468.75,4,2,1,5,1,0
7478,428.571428571429,4,2,1,5,1,0
7549,666.666666666667,4,2,1,5,1,0
7660,483.870967741935,4,2,1,5,1,0
7740,566.037735849057,4,2,1,5,1,0
7834,631.578947368421,4,2,1,5,1,0
7939,588.235294117647,4,2,1,5,1,0
8037,625,4,2,1,5,1,0
8089,571.428571428571,4,2,1,5,1,0
8231,759.493670886076,4,2,1,5,1,0
8420,594.648166501487,4,2,1,5,1,0
10203,389.61038961039,4,2,1,10,1,0
11761,-100,4,2,1,30,0,0
12735,-100,4,2,1,60,0,0
24228,-100,4,2,1,70,0,0
24618,-100,4,2,1,50,0,0
25008,-100,4,2,1,70,0,0
25203,-100,4,2,1,50,0,0
25397,-100,4,2,1,70,0,0
25592,-100,4,2,1,50,0,0
25787,-100,4,2,1,70,0,0
25982,-100,4,2,1,60,0,0
26371,-100,4,2,1,70,0,0
26566,-100,4,2,1,60,0,0
26956,-100,4,2,1,70,0,0
27151,-100,4,2,1,60,0,0
27540,-100,4,2,1,70,0,0
27735,-100,4,2,1,60,0,0
28125,-100,4,2,1,70,0,0
28319,-100,4,2,1,60,0,0
28514,-100,4,2,1,50,0,0
29683,-100,4,2,1,30,0,0
30073,-100,4,2,1,50,0,0
30462,-111.111111111111,4,2,1,40,0,0
41371,-100,4,2,1,70,0,0
42735,-111.111111111111,4,2,1,50,0,0
55203,-100,4,2,1,60,0,0
58514,-100,4,2,1,70,0,0
61436,-100,4,2,1,75,0,1
74001,-100,4,2,1,75,0,0
74099,-100,4,2,1,75,0,1
80235,-100,4,2,1,10,0,0
80332,-100,4,2,1,75,0,1
83449,-100,4,2,1,80,0,1
84813,-100,4,2,1,75,0,1
86566,-100,4,2,1,60,0,0
91241,-200,4,2,1,70,0,0
91436,-100,4,2,1,70,0,0
91631,-100,4,2,1,50,0,0
91826,-100,4,2,1,70,0,0
92021,-100,4,2,1,70,0,0
92605,-100,4,2,1,50,0,0
92800,-100,4,2,1,70,0,0
92995,-100,4,2,1,60,0,0
93384,-100,4,2,1,70,0,0
93579,-100,4,2,1,60,0,0
93969,-100,4,2,1,70,0,0
94164,-100,4,2,1,60,0,0
94553,-100,4,2,1,70,0,0
94748,-100,4,2,1,60,0,0
95138,-100,4,2,1,70,0,0
95332,-100,4,2,1,50,0,0
95917,-111.111111111111,4,2,1,50,0,0
101566,-100,4,2,1,50,0,0
106826,-100,4,2,1,70,0,0
108190,-111.111111111111,4,2,1,50,0,0
120657,-100,4,2,1,60,0,0
123969,-100,4,2,1,70,0,0
125527,-100,4,2,1,40,0,0
125722,-100,4,2,1,70,0,0
126891,-100,4,2,1,75,0,1
139456,-100,4,2,1,75,0,0
139553,-100,4,2,1,75,0,1
145690,-100,4,2,1,10,0,0
145787,-100,4,2,1,75,0,1
148904,-100,4,2,1,80,0,1
150267,-100,4,2,1,75,0,1
152021,-100,4,2,1,60,0,0
158254,-111.111111111111,4,2,1,70,0,0
160203,-111.111111111111,4,2,1,50,0,0
166047,-100,4,2,1,75,0,1
169164,-100,4,2,1,80,0,1
170917,-100,4,2,1,75,0,1
172280,-111.111111111111,4,2,1,30,0,0
177540,-111.111111111111,4,2,1,50,0,0
178514,-111.111111111111,4,2,1,50,0,0
182897,-100,4,2,1,50,0,0
184358,-100,4,2,1,5,0,0
184553,-100,4,2,1,75,0,1
190884,-100,4,2,1,10,0,0
190982,-100,4,2,1,75,0,1
194099,-100,4,2,1,80,0,1
195462,-100,4,2,1,75,0,1
197215,-111.111111111111,4,2,1,30,0,0
208125,-111.111111111111,4,2,1,70,0,0
209293,-111.111111111111,4,2,1,5,0,0

[Colours]
Combo1 : 213,83,255
Combo2 : 255,64,69
Combo3 : 255,158,62
Combo4 : 255,255,83
Combo5 : 83,255,83
Combo6 : 114,222,254
Combo7 : 74,74,255

[HitObjects]
63,216,10203,6,0,P|111:287|118:152,1,330,2|0,0:0|0:0,0:0:0:0:
35,108,11761,1,4,0:1:0:0:
137,68,12151,1,4,0:1:0:0:
240,30,12540,2,0,L|233:143,1,110,4|8,0:1|0:0,0:0:0:0:
236,200,13125,5,12,0:1:0:0:
236,200,13319,2,0,L|232:265,2,55,12|2|12,0:0|0:0|0:0,0:0:0:0:
345,190,14099,2,0,P|393:210|454:187,2,110,8|8|10,0:1|0:0|0:1,0:0:0:0:
313,151,15073,1,2,0:0:0:0:
313,151,15267,2,0,L|313:90,2,55,8|2|8,0:0|0:0|0:0,0:0:0:0:
238,232,16047,5,8,0:0:0:0:
238,232,16241,2,0,L|238:312,2,55,2|14|2,0:0|0:0|0:0,0:0:0:0:
189,206,16826,2,0,L|189:143,1,55,8|2,0:0|0:0,0:0:0:0:
195,46,17410,1,2,0:0:0:0:
195,46,17605,1,8,0:0:0:0:
195,46,17800,2,0,P|244:61|309:41,1,110,2|2,0:0|0:0,0:0:0:0:
405,97,18579,1,2,0:0:0:0:
405,97,18774,2,0,L|423:155,2,55,10|2|10,0:1|0:0|0:0,0:0:0:0:
322,172,19553,6,0,L|337:241,2,55,12|2|8,0:0|0:0|0:0,0:0:0:0:
304,124,20138,1,2,0:0:0:0:
304,124,20332,2,0,P|247:140|188:125,1,110,8|8,0:1|0:0,0:0:0:0:
154,96,20917,1,2,0:0:0:0:
59,151,21306,2,0,L|71:215,1,55,2|8,0:0|0:0,0:0:0:0:
96,311,21891,2,0,P|153:295|212:310,1,110,8|8,0:1|0:0,0:0:0:0:
244,339,22475,6,0,L|260:217,1,110,2|2,0:0|0:0,0:0:0:0:
313,234,23060,2,0,L|329:112,1,110,8|8,0:0|0:1,0:0:0:0:
253,43,23839,2,0,L|237:165,1,110,8|8,0:0|0:1,0:0:0:0:
229,207,24423,6,0,P|196:201|166:209,1,55,6|0,0:1|0:0,0:0:0:0:
184,319,25008,2,0,P|217:325|247:316,1,55,6|0,0:1|0:0,0:0:0:0:
291,310,25397,2,0,P|320:305|345:311,1,55,6|0,0:1|0:0,0:0:0:0:
399,319,25787,6,0,L|407:253,1,55,12|8,0:0|0:0,0:0:0:0:
344,172,26371,2,0,L|337:226,1,55,12|8,0:0|0:0,0:0:0:0:
254,299,26956,2,0,L|262:233,1,55,12|8,0:0|0:0,0:0:0:0:
199,152,27540,2,0,L|192:206,1,55,12|8,0:0|0:0,0:0:0:0:
109,279,28125,2,0,L|117:213,1,55,12|8,0:0|0:0,0:0:0:0:
65,202,28514,6,0,P|60:175|66:148,1,55,4|8,0:0|0:0,0:0:0:0:
116,125,28904,2,0,P|122:98|117:70,1,55,8|8,0:0|0:0,0:0:0:0:
81,29,29293,1,12,0:1:0:0:
191,31,29683,2,0,P|243:47|307:28,1,110,2|4,0:0|0:1,0:0:0:0:
368,100,30462,6,0,L|362:206,1,98.9999969787599,12|8,0:0|0:0,0:0:0:0:
316,180,31047,2,0,L|309:285,1,98.9999969787599,2|2,0:0|0:0,0:0:0:0:
260,289,31631,2,0,L|254:352,1,49.4999984893799,8|2,0:0|0:0,0:0:0:0:
21,233,32995,6,0,L|25:183,1,49.4999984893799,2|8,0:0|0:0,0:0:0:0:
65,155,33384,2,0,P|110:167|169:147,1,98.9999969787599,2|2,0:0|0:0,0:0:0:0:
203,129,33969,2,0,L|206:72,1,49.4999984893799,8|2,0:0|0:0,0:0:0:0:
303,63,34553,2,0,L|306:14,2,49.4999984893799,2|8|2,0:0|0:0|0:0,0:0:0:0:
475,235,36112,6,0,L|471:296,1,49.4999984893799,2|8,0:0|0:0,0:0:0:0:
434,317,36501,2,0,P|384:304|334:320,1,98.9999969787599,2|0,0:0|0:0,0:0:0:0:
292,332,37086,2,0,P|267:337|240:330,1,49.4999984893799,8|2,0:0|0:0,0:0:0:0:
168,267,37670,6,0,L|172:206,1,49.4999984893799,2|8,0:0|0:0,0:0:0:0:
209,185,38059,2,0,P|259:198|309:182,1,98.9999969787599,2|0,0:0|0:0,0:0:0:0:
351,170,38644,2,0,P|375:164|403:172,1,49.4999984893799,8|2,0:0|0:0,0:0:0:0:
483,119,39228,6,0,L|479:58,1,49.4999984893799,2|8,0:0|0:0,0:0:0:0:
442,37,39618,2,0,P|392:50|342:34,1,98.9999969787599,2|0,0:0|0:0,0:0:0:0:
300,22,40202,2,0,P|275:16|248:24,1,49.4999984893799,8|2,0:0|0:0,0:0:0:0:
218,115,40787,2,0,P|242:120|270:113,1,49.4999984893799,2|8,0:0|0:0,0:0:0:0:
371,75,41371,5,12,0:0:0:0:
371,75,41566,1,12,0:0:0:0:
343,239,42151,1,12,0:0:0:0:
343,239,42346,1,12,0:0:0:0:
444,215,42735,5,2,0:0:0:0:
444,215,42930,2,0,L|453:327,1,98.9999969787599,12|8,0:0|0:0,0:0:0:0:
458,362,43514,1,2,0:0:0:0:
373,311,43904,2,0,L|368:251,2,49.4999984893799,2|8|2,0:0|0:0|0:0,0:0:0:0:
277,285,44683,2,0,L|274:227,2,49.4999984893799,2|8|2,0:0|0:0|0:0,0:0:0:0:
185,323,45462,6,0,L|182:264,1,49.4999984893799,2|8,0:0|0:0,0:0:0:0:
179,223,45852,2,0,P|129:239|72:219,1,98.9999969787599,2|0,0:0|0:0,0:0:0:0:
49,193,46436,2,0,L|44:131,1,49.4999984893799,8|2,0:0|0:0,0:0:0:0:
121,79,47021,2,0,P|167:63|214:74,1,98.9999969787599,2|2,0:0|0:0,0:0:0:0:
216,123,47605,2,0,P|169:138|122:127,1,98.9999969787599,8|8,0:1|0:0,0:0:0:0:
24,240,48579,6,0,L|37:300,1,49.4999984893799,2|8,0:0|0:0,0:0:0:0:
50,335,48969,2,0,P|96:319|143:330,1,98.9999969787599,2|0,0:0|0:0,0:0:0:0:
190,348,49553,2,0,L|200:299,1,49.4999984893799,8|2,0:0|0:0,0:0:0:0:
275,235,50138,2,0,L|285:283,1,49.4999984893799,2|8,0:0|0:0,0:0:0:0:
301,330,50527,2,0,P|347:314|394:325,1,98.9999969787599,2|0,0:0|0:0,0:0:0:0:
441,343,51112,2,0,L|451:294,1,49.4999984893799,8|2,0:0|0:0,0:0:0:0:
430,197,51696,6,0,L|441:134,1,49.4999984893799,2|8,0:0|0:0,0:0:0:0:
445,98,52086,2,0,P|398:113|351:102,1,98.9999969787599,2|0,0:0|0:0,0:0:0:0:
310,86,52670,1,8,0:0:0:0:
310,86,52865,2,0,L|289:196,1,98.9999969787599,2|2,0:0|0:0,0:0:0:0:
282,232,53449,1,8,0:0:0:0:
254,327,53839,2,0,P|207:342|160:331,1,98.9999969787599,8|8,0:1|0:0,0:0:0:0:
26,90,55397,6,0,L|19:19,2,55,12|8|8,0:0|0:0|0:0,0:0:0:0:
79,105,55982,2,0,L|84:159,1,55,8|8,0:0|0:0,0:0:0:0:
138,170,56371,2,0,L|143:224,1,55,8|8,0:0|0:0,0:0:0:0:
235,286,56956,6,0,L|240:231,1,55,12|8,0:0|0:0,0:0:0:0:
248,180,57345,1,8,0:0:0:0:
248,180,57540,2,0,P|297:196|359:179,1,110,8|8,0:0|0:0,0:0:0:0:
400,156,58125,1,8,0:0:0:0:
440,262,58514,5,4,0:1:0:0:
440,262,58709,1,4,0:1:0:0:
337,303,59099,1,4,0:1:0:0:
337,303,59293,2,0,L|260:310,1,55,4|12,0:1|0:0,0:0:0:0:
172,317,59878,6,0,P|184:258|164:210,1,110,12|4,0:0|0:1,0:0:0:0:
119,185,60462,1,4,0:1:0:0:
65,173,60657,1,4,0:1:0:0:
11,161,60852,1,4,0:0:0:0:
125,41,61436,6,0,B|202:78|202:19|290:43,1,165,6|8,0:1|0:0,0:0:0:0:
372,108,62410,2,0,L|360:174,1,55,8|2,0:1|0:0,0:0:0:0:
403,208,62800,1,8,0:0:0:0:
403,208,62995,2,0,L|391:271,1,55,2|8,0:0|0:1,0:0:0:0:
381,316,63384,2,0,B|297:293|297:352|220:315,1,165,2|10,0:0|0:1,0:0:0:0:
129,254,64358,6,0,L|119:192,1,55,8|2,0:0|0:0,0:0:0:0:
181,108,64943,2,0,L|172:45,2,55,2|8|2,0:0|0:0|0:0,0:0:0:0:
224,141,65527,2,0,L|233:196,1,55,8|2,0:1|0:0,0:0:0:0:
254,303,66112,1,2,0:0:0:0:
337,231,66501,1,2,0:0:0:0:
232,195,66891,2,0,B|155:158|155:217|67:193,1,165,2|8,0:0|0:0,0:0:0:0:
52,87,67865,6,0,P|103:70|158:84,1,110,6|8,0:0|0:0,0:0:0:0:
210,94,68449,2,0,P|262:109|315:92,1,110,2|2,0:0|0:0,0:0:0:0:
368,73,69034,1,8,0:0:0:0:
368,73,69228,2,0,L|382:196,1,110,2|0,0:0|0:0,0:0:0:0:
494,209,70008,1,2,0:0:0:0:
494,209,70202,2,0,L|508:332,1,110,8|10,0:1|0:0,0:0:0:0:
401,351,70982,6,0,L|389:280,2,55,4|0|8,0:0|0:0|0:0,0:0:0:0:
346,358,71566,2,0,P|284:348|226:370,1,110,4|2,0:0|0:0,0:0:0:0:
186,374,72151,2,0,L|168:255,1,110,12|8,0:0|0:1,0:0:0:0:
161,210,72735,2,0,B|238:247|238:188|326:212,1,165,6|8,0:1|0:0,0:0:0:0:
372,230,73514,2,0,L|382:164,1,55,6|8,0:1|0:0,0:0:0:0:
396,66,74099,6,0,P|340:82|280:60,1,110,6|8,0:1|0:0,0:0:0:0:
183,45,74878,2,0,L|194:99,1,55,8|2,0:1|0:0,0:0:0:0:
210,157,75267,1,8,0:0:0:0:
210,157,75462,2,0,P|151:146|96:168,1,110,2|2,0:0|0:0,0:0:0:0:
76,209,76047,2,0,L|87:265,1,55,8|2,0:0|0:0,0:0:0:0:
184,313,76631,6,0,L|171:243,1,55,2|8,0:0|0:0,0:0:0:0:
167,204,77021,2,0,B|244:241|244:182|332:206,1,165,2|8,0:0|0:0,0:0:0:0:
375,231,77800,2,0,P|420:248|491:224,1,110,2|2,0:0|0:0,0:0:0:0:
501,183,78384,2,0,L|501:123,1,55,10|2,0:0|0:0,0:0:0:0:
413,60,78969,2,0,L|413:121,1,55,2|8,0:0|0:0,0:0:0:0:
404,169,79358,2,0,B|327:132|327:191|239:167,1,165,2|12,0:0|0:0,0:0:0:0:
133,162,80332,6,0,L|142:218,1,55,4|8,0:1|0:0,0:0:0:0:
224,289,80917,2,0,L|292:279,1,55,4|0,0:1|0:0,0:0:0:0:
338,189,81501,2,0,L|327:117,1,55,4|8,0:1|0:0,0:0:0:0:
346,82,81891,2,0,P|379:83|413:65,2,55,4|8|8,0:1|0:0|0:0,0:0:0:0:
293,97,82475,2,0,P|260:94|226:109,1,55,4|0,0:1|0:0,0:0:0:0:
131,133,83060,1,12,0:1:0:0:
213,220,83449,5,4,0:1:0:0:
213,220,83644,1,8,0:0:0:0:
213,220,83839,2,0,P|228:272|209:333,2,110,8|8|12,0:0|0:0|0:0,0:0:0:0:
166,191,84813,2,0,L|105:191,1,55,8|8,0:0|0:0,0:0:0:0:
74,148,85203,2,0,P|87:91|60:41,2,110,12|8|8,0:0|0:0|0:0,0:0:0:0:
56,200,86177,1,12,0:0:0:0:
139,271,86566,6,0,L|204:268,1,55,12|2,0:0|0:0,0:0:0:0:
240,298,86956,2,0,L|299:295,2,55,8|2|8,0:0|0:0|0:1,0:0:0:0:
209,192,87735,2,0,P|194:137|215:79,2,110,8|8|8,0:0|0:1|0:0,0:0:0:0:
257,228,88709,1,2,0:0:0:0:
257,228,88904,2,0,L|380:224,1,110,8|8,0:1|0:0,0:0:0:0:
421,224,89488,6,0,P|410:278|440:333,1,110,2|2,0:0|0:0,0:0:0:0:
383,350,90073,2,0,L|328:353,1,55,8|2,0:0|0:0,0:0:0:0:
226,310,90657,2,0,L|155:314,2,55,2|8|2,0:0|0:0|0:0,0:0:0:0:
299,228,91436,6,0,P|291:201|295:174,1,55,6|0,0:1|0:0,0:0:0:0:
343,73,92021,2,0,L|284:63,1,55,6|8,0:1|0:1,0:0:0:0:
237,52,92410,2,0,P|232:79|236:106,1,55,6|0,0:1|0:0,0:0:0:0:
203,150,92800,6,0,L|198:206,1,55,12|8,0:0|0:0,0:0:0:0:
262,294,93384,2,0,L|266:239,1,55,12|8,0:0|0:0,0:0:0:0:
344,160,93969,2,0,L|339:216,1,55,12|8,0:0|0:0,0:0:0:0:
403,303,94553,2,0,L|407:248,1,55,12|8,0:0|0:0,0:0:0:0:
493,178,95138,2,0,L|488:232,1,55,12|8,0:1|0:1,0:0:0:0:
485,287,95527,1,12,0:1:0:0:
417,359,95917,6,0,P|385:363|362:357,1,49.4999984893799,12|2,0:0|0:0,0:0:0:0:
333,324,96306,2,0,P|305:320|273:328,1,49.4999984893799,8|2,0:0|0:0,0:0:0:0:
186,338,96891,2,0,P|155:343|123:334,2,49.4999984893799,2|8|2,0:0|0:0|0:0,0:0:0:0:
236,252,97670,2,0,L|244:189,1,49.4999984893799,2|8,0:0|0:0,0:0:0:0:
291,195,98059,2,0,L|297:144,1,49.4999984893799,2|0,0:0|0:0,0:0:0:0:
364,73,98644,6,0,P|389:78|419:72,2,49.4999984893799,8|2|8,0:0|0:0|0:1,0:0:0:0:
271,37,99423,2,0,P|243:34|215:40,1,49.4999984893799,8|2,0:0|0:0,0:0:0:0:
182,67,99813,2,0,P|154:71|123:66,1,49.4999984893799,8|2,0:1|0:0,0:0:0:0:
45,114,100397,2,0,L|53:182,1,49.4999984893799,2|8,0:0|0:1,0:0:0:0:
297,285,101566,6,0,L|306:359,2,55,2|8|2,0:0|0:0|0:0,0:0:0:0:
329,239,102151,2,0,P|368:249|420:229,2,82.5,6|2|2,0:0|0:0|0:0,0:0:0:0:
282,209,102930,1,8,0:1:0:0:
175,234,103319,2,0,P|170:204|180:170,1,55,6|2,0:0|0:0,0:0:0:0:
184,125,103709,2,0,L|85:125,2,82.5,8|2|2,0:1|0:0|0:1,0:0:0:0:
281,69,104683,2,0,P|288:39|277:3,2,55,2|8|2,0:0|0:0|0:0,0:0:0:0:
277,125,105267,5,8,0:1:0:0:
380,87,105657,2,0,P|407:81|443:88,2,55,8|2|8,0:0|0:0|0:1,0:0:0:0:
350,193,106436,2,0,L|343:270,1,55,8|2,0:0|0:0,0:0:0:0:
341,308,106826,5,12,0:0:0:0:
341,308,107021,1,12,0:0:0:0:
178,338,107606,1,12,0:0:0:0:
178,338,107801,1,12,0:0:0:0:
235,257,108190,5,2,0:0:0:0:
235,257,108385,2,0,P|247:200|231:154,1,98.9999969787599,12|8,0:0|0:0,0:0:0:0:
199,128,108969,1,2,0:0:0:0:
109,87,109358,2,0,L|50:87,2,49.4999984893799,2|8|2,0:0|0:0|0:0,0:0:0:0:
72,179,110137,2,0,L|10:179,2,49.4999984893799,2|8|2,0:0|0:0|0:0,0:0:0:0:
146,244,110917,6,0,L|200:242,1,49.4999984893799,2|8,0:0|0:0,0:0:0:0:
245,241,111306,2,0,P|229:291|252:348,1,98.9999969787599,2|0,0:0|0:0,0:0:0:0:
287,352,111891,2,0,L|347:349,1,49.4999984893799,8|2,0:0|0:0,0:0:0:0:
415,289,112475,2,0,P|399:243|410:196,1,98.9999969787599,2|2,0:0|0:0,0:0:0:0:
459,194,113059,2,0,P|474:241|463:288,1,98.9999969787599,8|8,0:1|0:0,0:0:0:0:
319,328,114033,6,0,L|257:326,1,49.4999984893799,2|8,0:0|0:0,0:0:0:0:
219,322,114423,2,0,P|235:276|224:229,1,98.9999969787599,2|0,0:0|0:0,0:0:0:0:
206,182,115008,2,0,L|255:172,1,49.4999984893799,8|2,0:0|0:0,0:0:0:0:
351,194,115592,2,0,L|413:192,1,49.4999984893799,2|8,0:0|0:0,0:0:0:0:
451,188,115982,2,0,P|435:142|446:95,1,98.9999969787599,2|0,0:0|0:0,0:0:0:0:
464,48,116566,2,0,L|415:38,1,49.4999984893799,8|2,0:0|0:0,0:0:0:0:
319,60,117150,6,0,P|288:64|252:55,1,49.4999984893799,2|8,0:0|0:0,0:0:0:0:
222,47,117540,2,0,L|199:154,1,98.9999969787599,2|0,0:0|0:0,0:0:0:0:
250,169,118124,1,8,0:0:0:0:
250,169,118319,2,0,L|229:279,1,98.9999969787599,2|2,0:0|0:0,0:0:0:0:
224,315,118903,1,8,0:0:0:0:
139,264,119293,2,0,P|92:249|45:260,1,98.9999969787599,8|8,0:1|0:0,0:0:0:0:
320,78,120851,6,0,L|313:7,2,55,12|8|8,0:0|0:0|0:0,0:0:0:0:
362,113,121436,2,0,L|367:167,1,55,8|8,0:0|0:0,0:0:0:0:
421,178,121826,2,0,L|426:232,1,55,8|8,0:0|0:0,0:0:0:0:
358,320,122410,6,0,P|327:313|295:321,1,55,8|8,0:0|0:0,0:0:0:0:
252,325,122799,1,8,0:0:0:0:
252,325,122994,2,0,P|268:276|251:214,1,110,8|8,0:0|0:0,0:0:0:0:
228,173,123579,1,8,0:0:0:0:
131,120,123968,5,4,0:1:0:0:
131,120,124163,1,4,0:1:0:0:
131,233,124553,1,4,0:1:0:0:
131,233,124748,2,0,L|138:310,1,55,4|12,0:1|0:0,0:0:0:0:
227,348,125332,6,0,P|286:360|334:340,1,110,12|4,0:0|0:1,0:0:0:0:
359,295,125916,1,4,0:1:0:0:
371,241,126111,1,4,0:1:0:0:
383,187,126306,1,12,0:0:0:0:
221,151,126891,6,0,B|110:165|110:165|66:134,1,165,6|8,0:1|0:0,0:0:0:0:
12,229,127865,2,0,L|23:298,1,55,8|2,0:1|0:0,0:0:0:0:
81,290,128254,1,8,0:0:0:0:
81,290,128449,2,0,L|95:353,1,55,2|8,0:0|0:1,0:0:0:0:
148,349,128839,2,0,B|259:335|259:335|302:365,1,165,2|10,0:0|0:1,0:0:0:0:
399,315,129813,6,0,L|389:253,1,55,8|2,0:0|0:0,0:0:0:0:
320,174,130397,2,0,L|311:111,2,55,2|8|2,0:0|0:0|0:0,0:0:0:0:
281,213,130982,2,0,L|290:268,1,55,8|2,0:1|0:0,0:0:0:0:
309,375,131566,1,2,0:0:0:0:
205,337,131955,1,2,0:0:0:0:
289,267,132345,2,0,B|400:281|400:281|443:250,1,165,2|8,0:0|0:0,0:0:0:0:
490,150,133319,6,0,P|507:99|493:44,1,110,6|8,0:0|0:0,0:0:0:0:
438,45,133903,2,0,P|423:97|440:150,1,110,2|2,0:0|0:0,0:0:0:0:
466,196,134488,1,8,0:0:0:0:
466,196,134683,2,0,L|466:319,1,110,2|0,0:0|0:0,0:0:0:0:
361,339,135462,1,2,0:0:0:0:
361,339,135657,2,0,P|301:323|238:353,1,110,8|10,0:1|0:0,0:0:0:0:
146,328,136436,6,0,L|155:382,2,55,4|0|8,0:0|0:0|0:0,0:0:0:0:
100,297,137020,2,0,L|82:176,1,110,4|2,0:0|0:0,0:0:0:0:
81,132,137605,2,0,P|141:141|194:119,1,110,12|8,0:0|0:1,0:0:0:0:
231,92,138190,2,0,B|342:78|342:78|385:108,1,165,6|8,0:0|0:0,0:0:0:0:
406,159,138969,2,0,P|399:185|406:215,1,55,12|8,0:1|0:0,0:0:0:0:
447,314,139553,6,0,P|391:298|331:320,1,110,6|8,0:1|0:0,0:0:0:0:
238,275,140332,2,0,L|227:221,1,55,8|2,0:1|0:0,0:0:0:0:
214,173,140721,1,8,0:0:0:0:
214,173,140916,2,0,P|155:184|100:162,1,110,2|2,0:0|0:0,0:0:0:0:
55,183,141501,2,0,L|66:239,1,55,8|2,0:0|0:0,0:0:0:0:
129,326,142085,6,0,L|142:256,1,55,2|8,0:0|0:0,0:0:0:0:
194,274,142475,2,0,B|305:288|305:288|348:257,1,165,2|8,0:0|0:0,0:0:0:0:
392,224,143254,2,0,P|375:179|399:108,1,110,2|2,0:0|0:0,0:0:0:0:
361,73,143839,2,0,L|301:73,1,55,10|2,0:0|0:0,0:0:0:0:
210,127,144423,2,0,L|134:130,1,55,2|8,0:0|0:0,0:0:0:0:
99,133,144813,2,0,B|113:244|113:244|82:287,1,165,2|12,0:0|0:0,0:0:0:0:
168,355,145787,6,0,P|198:359|229:348,1,55,4|8,0:1|0:0,0:0:0:0:
308,284,146371,2,0,P|313:256|300:224,1,55,4|0,0:1|0:0,0:0:0:0:
218,163,146956,2,0,P|189:159|156:166,1,55,4|8,0:1|0:0,0:0:0:0:
118,194,147345,2,0,P|124:222|115:257,2,55,4|8|8,0:1|0:0|0:0,0:0:0:0:
112,139,147930,2,0,P|105:104|111:76,1,55,4|0,0:1|0:0,0:0:0:0:
202,32,148514,1,12,0:1:0:0:
292,112,148903,5,12,0:1:0:0:
292,112,149098,1,8,0:0:0:0:
292,112,149293,2,0,P|344:127|405:108,2,110,8|8|12,0:0|0:0|0:0,0:0:0:0:
241,134,150267,2,0,L|231:204,1,55,8|8,0:0|0:0,0:0:0:0:
223,242,150657,2,0,P|166:229|116:256,2,110,12|8|8,0:0|0:0|0:0,0:0:0:0:
270,270,151631,1,12,0:0:0:0:
353,341,152020,6,0,P|392:350|444:336,1,82.5,8|8,0:0|0:0,0:0:0:0:
488,280,152605,2,0,B|478:226|478:226|494:167,1,110,8|8,0:0|0:0,0:0:0:0:
504,118,153190,2,0,P|471:119|433:113,1,55,8|8,0:0|0:0,0:0:0:0:
394,117,153579,6,0,P|403:156|389:208,1,82.5,8|8,0:0|0:0,0:0:0:0:
333,252,154164,2,0,B|279:242|279:242|220:258,1,110,8|8,0:0|0:0,0:0:0:0:
171,268,154749,2,0,P|172:235|166:197,1,55,12|0,0:1|0:0,0:0:0:0:
163,158,155138,6,0,P|202:149|254:163,1,82.5,8|8,0:0|0:0,0:0:0:0:
298,219,155723,2,0,B|288:273|288:273|304:332,1,110,8|8,0:0|0:0,0:0:0:0:
314,381,156306,2,0,P|281:379|243:386,1,55,8|8,0:0|0:0,0:0:0:0:
204,382,156696,6,0,P|213:343|199:291,1,82.5,8|8,0:0|0:0,0:0:0:0:
143,247,157281,2,0,B|89:257|89:257|30:241,1,110,8|8,0:0|0:0,0:0:0:0:
15,191,157866,2,0,P|17:163|15:136,1,55,8|8,0:0|0:0,0:0:0:0:
13,90,158254,5,12,0:0:0:0:
13,90,158449,2,0,P|62:102|118:83,1,98.9999969787599,4|8,0:1|0:0,0:0:0:0:
153,68,159034,1,12,0:1:0:0:
174,164,159423,1,12,0:1:0:0:
251,102,159813,6,0,P|299:92|361:106,1,98.9999969787599,12|8,0:0|0:0,0:0:0:0:
388,127,160397,2,0,L|389:225,1,98.9999969787599,2|2,0:0|0:0,0:0:0:0:
388,329,161177,1,2,0:0:0:0:
388,329,161371,2,0,P|336:316|286:332,1,98.9999969787599,8|8,0:0|0:0,0:0:0:0:
248,346,161956,1,2,0:0:0:0:
248,346,162151,2,0,L|234:293,1,49.4999984893799,8|2,0:1|0:0,0:0:0:0:
147,252,162735,2,0,L|135:301,1,49.4999984893799,2|8,0:0|0:1,0:0:0:0:
50,351,163319,6,0,L|34:281,1,49.4999984893799,8|2,0:0|0:0,0:0:0:0:
66,207,163904,2,0,L|53:155,1,49.4999984893799,2|8,0:0|0:0,0:0:0:0:
42,117,164293,1,2,0:0:0:0:
42,117,164488,2,0,P|87:131|148:101,2,98.9999969787599,8|8|8,0:1|0:0|0:1,0:0:0:0:
89,29,165657,2,0,P|118:19|151:20,1,49.4999984893799,8|2,0:0|0:0,0:0:0:0:
190,30,166047,6,0,L|206:94,1,55,4|8,0:1|0:0,0:0:0:0:
119,154,166631,2,0,L|132:207,1,55,4|0,0:1|0:0,0:0:0:0:
241,220,167215,2,0,L|257:284,1,55,4|8,0:1|0:0,0:0:0:0:
308,284,167605,2,0,L|324:348,1,55,4|8,0:1|0:0,0:0:0:0:
431,334,168190,2,0,L|417:280,1,55,4|0,0:1|0:0,0:0:0:0:
384,175,168774,1,4,0:1:0:0:
300,246,169164,5,12,0:1:0:0:
300,246,169359,1,8,0:0:0:0:
300,246,169553,2,0,P|241:263|195:247,2,110,8|8|8,0:0|0:0|0:0,0:0:0:0:
333,202,170527,2,0,L|337:145,1,55,8|12,0:0|0:0,0:0:0:0:
345,92,170917,2,0,P|397:106|452:92,1,110,12|8,0:1|0:0,0:0:0:0:
448,37,171501,2,0,P|396:23|341:37,1,110,12|12,0:1|0:0,0:0:0:0:
251,76,172280,6,0,P|200:90|147:76,1,98.9999969787599,12|2,0:0|0:0,0:0:0:0:
58,60,173060,2,0,L|43:7,2,49.4999984893799,2|2|2,0:0|0:0|0:0,0:0:0:0:
39,106,173644,2,0,L|65:213,1,98.9999969787599,2|2,0:0|0:0,0:0:0:0:
95,295,174423,2,0,P|116:292|148:295,1,49.4999984893799,2|0,0:0|0:0,0:0:0:0:
245,319,175008,5,2,0:0:0:0:
245,319,175203,2,0,L|270:207,2,98.9999969787599,2|0|0,0:0|0:0|0:0,0:0:0:0:
286,349,176177,2,0,P|309:343|346:353,1,49.4999984893799,2|2,0:0|0:0,0:0:0:0:
431,366,176761,2,0,L|446:263,1,98.9999969787599,2|2,0:0|0:0,0:0:0:0:
450,168,177540,2,0,P|381:193|311:172,1,148.49999546814,2|4,0:0|0:0,0:0:0:0:
228,117,178514,6,0,L|219:228,1,98.9999969787599,2|2,0:1|0:0,0:0:0:0:
212,264,179099,2,0,P|156:252|113:266,1,98.9999969787599,2|2,0:0|0:0,0:0:0:0:
72,274,179683,1,2,0:0:0:0:
72,274,179878,2,0,L|80:175,1,98.9999969787599,2|0,0:0|0:0,0:0:0:0:
149,104,180657,1,2,0:0:0:0:
149,104,180852,2,0,P|195:118|257:98,1,98.9999969787599,2|2,0:0|0:0,0:0:0:0:
333,64,181631,6,0,L|349:171,1,98.9999969787599,2|2,0:0|0:0,0:0:0:0:
351,211,182215,2,0,P|300:205|253:225,1,98.9999969787599,2|2,0:0|0:0,0:0:0:0:
211,291,182897,2,4,P|81:365|148:210,1,412.5,6|4,0:0|0:0,0:0:0:0:
189,204,184553,6,0,P|253:157|183:125,1,165,6|8,0:1|0:0,0:0:0:0:
98,145,185527,2,0,L|81:262,1,110,8|8,0:1|0:0,0:0:0:0:
132,275,186112,2,0,L|115:392,2,110,2|2|2,0:0|0:0|0:0,0:0:0:0:
217,206,187280,2,0,P|248:212|277:207,1,55,2|8,0:0|0:0,0:0:0:0:
379,190,187865,6,0,L|365:313,1,110,8|8,0:1|0:0,0:0:0:0:
356,353,188449,2,0,P|296:339|249:354,1,110,2|2,0:0|0:0,0:0:0:0:
201,377,189034,1,8,0:0:0:0:
201,377,189228,5,4,0:1:0:0:
102,328,189618,1,4,0:1:0:0:
182,253,190008,2,0,P|198:198|177:148,1,110,4|2,0:1|0:0,0:0:0:0:
137,114,190592,1,12,0:0:0:0:
237,68,190982,6,0,L|306:64,1,55,4|8,0:1|0:0,0:0:0:0:
372,139,191566,2,0,L|303:143,1,55,4|0,0:1|0:0,0:0:0:0:
250,229,192151,2,0,L|304:225,1,55,4|8,0:1|0:0,0:0:0:0:
349,259,192541,2,0,P|344:285|351:318,2,55,4|8|8,0:1|0:0|0:0,0:0:0:0:
350,203,193125,2,0,P|354:172|349:140,1,55,4|0,0:1|0:0,0:0:0:0:
348,37,193709,1,4,0:1:0:0:
256,98,194099,5,12,0:0:0:0:
256,98,194294,1,8,0:0:0:0:
256,98,194489,2,0,P|204:113|143:94,2,110,8|8|8,0:0|0:0|0:0,0:0:0:0:
297,134,195463,2,0,L|306:204,1,55,8|8,0:0|0:0,0:0:0:0:
312,243,195853,2,0,P|369:230|419:257,2,110,12|0|0,0:0|0:0|0:0,0:0:0:0:
278,286,196827,1,12,0:0:0:0:
193,235,197215,6,0,L|191:136,1,98.9999969787599,14|2,0:0|0:0,0:0:0:0:
195,86,197800,2,0,P|244:99|302:83,1,98.9999969787599,10|2,0:0|0:0,0:0:0:0:
335,68,198384,1,10,0:0:0:0:
422,115,198774,6,0,L|424:214,1,98.9999969787599,10|2,0:0|0:0,0:0:0:0:
420,264,199359,2,0,P|371:251|313:267,1,98.9999969787599,10|2,0:0|0:0,0:0:0:0:
280,282,199943,1,10,0:0:0:0:
194,330,200332,6,0,P|182:285|197:229,1,98.9999969787599,10|2,0:0|0:0,0:0:0:0:
235,208,200917,2,0,P|246:160|234:112,1,98.9999969787599,10|2,0:0|0:0,0:0:0:0:
205,73,201501,1,10,0:0:0:0:
117,26,201891,6,0,P|105:71|120:127,1,98.9999969787599,10|2,0:0|0:0,0:0:0:0:
158,148,202476,2,0,P|169:195|157:243,1,98.9999969787599,10|2,0:0|0:0,0:0:0:0:
128,283,203060,1,14,0:0:0:0:
195,355,203449,6,0,L|298:351,1,98.9999969787599,14|2,0:0|0:0,0:0:0:0:
343,350,204034,2,0,P|328:301|341:250,1,98.9999969787599,10|2,0:0|0:0,0:0:0:0:
372,219,204618,1,10,0:0:0:0:
303,147,205008,6,0,L|200:151,1,98.9999969787599,10|2,0:0|0:0,0:0:0:0:
155,152,205593,2,0,P|170:201|157:252,1,98.9999969787599,10|2,0:0|0:0,0:0:0:0:
126,283,206177,1,14,0:0:0:0:
207,338,206566,6,0,P|259:350|310:334,1,98.9999969787599,10|2,0:0|0:0,0:0:0:0:
324,293,207151,2,0,L|331:192,1,98.9999969787599,10|0,0:0|0:0,0:0:0:0:
335,144,207735,1,8,0:0:0:0:
248,106,208125,5,12,0:0:0:0:
248,106,208319,1,12,0:0:0:0:
182,180,208709,1,12,0:0:0:0:
182,180,208904,2,0,P|131:192|81:181,1,98.9999969787599,12|0,0:0|0:0,0:0:0:0:
