osu file format v14

[General]
AudioFilename: audio.mp3
AudioLeadIn: 0
PreviewTime: 61339
Countdown: 0
SampleSet: Soft
StackLeniency: 0.2
Mode: 0
LetterboxInBreaks: 0
WidescreenStoryboard: 1

[Editor]
Bookmarks: 144,10203,11761,13125,24228,25787,30462,41371,42735,55203,58514,61436,74099,80332,86566,91241,92800,95917,101566,106826,108190,120657,123969,126891,139553,145787,152021,159813,166047,172280,178514,184553,190982,197215,203060,208125
DistanceSpacing: 1.1
BeatDivisor: 4
GridSize: 16
TimelineZoom: 1.6

[Metadata]
Title:Fly high
TitleUnicode:날아올라
Artist:Dreamcatcher
ArtistUnicode:드림캐쳐
Creator:Natsu
Version:Insane
Source:
Tags:지유 수아 시연 한동 유현 다미 가현 Ji-U Su-A SiYeon Handong YooHyun DaMi Gahyeon Happy Face Entertainment Prequel 1st mini album kpop k-pop rock
BeatmapID:1375890
BeatmapSetID:645657

[Difficulty]
HPDrainRate:5.5
CircleSize:4
OverallDifficulty:8
ApproachRate:8.5
SliderMultiplier:1.6
SliderTickRate:1

[Events]
//Background and Video events
0,0,"KakaoTalk_20170803_003304789.jpg",0,0
Video,0,"Dreamcatcher.avi"
//Break Periods
//Storyboard Layer 0 (Background)
//Storyboard Layer 1 (Fail)
//Storyboard Layer 2 (Pass)
//Storyboard Layer 3 (Foreground)
//Storyboard Sound Samples

[TimingPoints]
150,859.598853868195,4,2,1,5,1,0
579,750,4,2,1,5,1,0
954,674.157303370787,4,2,1,5,1,0
1291,631.578947368421,4,2,1,5,1,0
1606,535.714285714286,4,2,1,5,1,0
1873,458.015267175573,4,2,1,5,1,0
2102,588.235294117647,4,2,1,5,1,0
2396,625,4,2,1,5,1,0
3645,612.244897959184,4,2,1,5,1,0
4257,821.917808219178,4,2,1,5,1,0
4667,638.297872340426,4,2,1,5,1,0
4986,612.244897959184,4,2,1,5,1,0
5292,594.059405940594,4,2,1,5,1,0
5589,740.740740740741,4,2,1,5,1,0
5959,745.341614906832,4,2,1,5,1,0
6331,550.45871559633,4,2,1,5,1,0
6606,413.793103448276,4,2,1,5,1,0
7019,379.746835443038,4,2,1,5,1,0
7208,389.61038961039,4,2,1,5,1,0
7337,397.746835443038,4,2,1,5,1,0
7400,468.75,4,2,1,5,1,0
7478,428.571428571429,4,2,1,5,1,0
7549,666.666666666667,4,2,1,5,1,0
7660,483.870967741935,4,2,1,5,1,0
7740,566.037735849057,4,2,1,5,1,0
7834,631.578947368421,4,2,1,5,1,0
7939,588.235294117647,4,2,1,5,1,0
8037,625,4,2,1,5,1,0
8089,571.428571428571,4,2,1,5,1,0
8231,759.493670886076,4,2,1,5,1,0
8420,594.648166501487,4,2,1,5,1,0
10203,389.61038961039,4,2,1,10,1,0
10397,-100,4,2,1,12,0,0
10592,-100,4,2,1,14,0,0
10787,-100,4,2,1,16,0,0
10982,-100,4,2,1,18,0,0
11177,-100,4,2,1,20,0,0
11371,-100,4,2,1,22,0,0
11566,-100,4,2,1,24,0,0
11664,-100,4,2,1,5,0,0
11761,-111.111111111111,4,2,1,30,0,0
12735,-83.3333333333333,4,2,1,60,0,0
13125,-100,4,2,1,60,0,0
24228,-200,4,2,1,70,0,0
24423,-66.6666666666667,4,2,1,70,0,0
24618,-66.6666666666667,4,2,1,50,0,0
24813,-200,4,2,1,70,0,0
25008,-66.6666666666667,4,2,1,70,0,0
25203,-66.6666666666667,4,2,1,50,0,0
25397,-66.6666666666667,4,2,1,70,0,0
25592,-66.6666666666667,4,2,1,50,0,0
25787,-66.6666666666667,4,2,1,70,0,0
25884,-66.6666666666667,4,2,1,10,0,0
25982,-100,4,2,1,70,0,0
26371,-66.6666666666667,4,2,1,70,0,0
26469,-66.6666666666667,4,2,1,10,0,0
26566,-100,4,2,1,60,0,0
26956,-66.6666666666667,4,2,1,70,0,0
27053,-66.6666666666667,4,2,1,10,0,0
27151,-100,4,2,1,60,0,0
27540,-66.6666666666667,4,2,1,70,0,0
27638,-66.6666666666667,4,2,1,10,0,0
27735,-100,4,2,1,60,0,0
28125,-66.6666666666667,4,2,1,70,0,0
28222,-66.6666666666667,4,2,1,10,0,0
28319,-100,4,2,1,60,0,0
28514,-100,4,2,1,50,0,0
29683,-200,4,2,1,30,0,0
29878,-200,4,2,1,40,0,0
30073,-66.6666666666667,4,2,1,50,0,0
30365,-66.6666666666667,4,2,1,10,0,0
30462,-125,4,2,1,40,0,0
41371,-66.6666666666667,4,2,1,70,0,0
41761,-66.6666666666667,4,2,1,50,0,0
42151,-66.6666666666667,4,2,1,70,0,0
42540,-66.6666666666667,4,2,1,50,0,0
42735,-111.111111111111,4,2,1,50,0,0
55203,-100,4,2,1,60,0,0
56761,-100,4,2,1,30,0,0
56956,-100,4,2,1,60,0,0
58319,-100,4,2,1,30,0,0
58514,-100,4,2,1,70,0,0
58904,-100,4,2,1,40,0,0
59099,-100,4,2,1,70,0,0
60073,-100,4,2,1,40,0,0
60267,-100,4,2,1,70,0,0
60852,-200,4,2,1,70,0,0
61241,-200,4,2,1,10,0,0
61436,-83.3333333333333,4,2,1,75,0,1
62800,-100,4,2,1,75,0,1
70982,-90.9090909090909,4,2,1,75,0,1
71371,-83.3333333333333,4,2,1,75,0,1
71956,-76.9230769230769,4,2,1,75,0,1
72735,-66.6666666666667,4,2,1,75,0,1
74001,-83.3333333333333,4,2,1,75,0,0
74099,-83.3333333333333,4,2,1,75,0,1
75267,-100,4,2,1,75,0,1
80235,-83.3333333333333,4,2,1,10,0,0
80332,-90.9090909090909,4,2,1,75,0,1
80917,-83.3333333333333,4,2,1,75,0,1
81501,-76.9230769230769,4,2,1,75,0,1
81891,-71.4285714285714,4,2,1,75,0,1
82475,-66.6666666666667,4,2,1,75,0,1
83060,-100,4,2,1,75,0,1
83449,-100,4,2,1,80,0,1
84813,-100,4,2,1,75,0,1
86469,-100,4,2,1,35,0,1
86566,-100,4,2,1,60,0,0
91241,-200,4,2,1,70,0,0
91436,-66.6666666666667,4,2,1,70,0,0
91631,-66.6666666666667,4,2,1,50,0,0
91826,-200,4,2,1,70,0,0
92021,-66.6666666666667,4,2,1,70,0,0
92215,-66.6666666666667,4,2,1,50,0,0
92410,-66.6666666666667,4,2,1,70,0,0
92605,-66.6666666666667,4,2,1,50,0,0
92800,-66.6666666666667,4,2,1,70,0,0
92897,-66.6666666666667,4,2,1,10,0,0
92995,-100,4,2,1,60,0,0
93384,-66.6666666666667,4,2,1,70,0,0
93482,-66.6666666666667,4,2,1,10,0,0
93579,-100,4,2,1,60,0,0
93969,-66.6666666666667,4,2,1,70,0,0
94066,-66.6666666666667,4,2,1,10,0,0
94164,-100,4,2,1,60,0,0
94553,-66.6666666666667,4,2,1,70,0,0
94651,-66.6666666666667,4,2,1,10,0,0
94748,-100,4,2,1,60,0,0
95138,-66.6666666666667,4,2,1,70,0,0
95332,-66.6666666666667,4,2,1,50,0,0
95819,-66.6666666666667,4,2,1,10,0,0
95917,-125,4,2,1,50,0,0
101566,-100,4,2,1,50,0,0
106826,-66.6666666666667,4,2,1,70,0,0
107215,-66.6666666666667,4,2,1,50,0,0
107605,-66.6666666666667,4,2,1,70,0,0
107995,-66.6666666666667,4,2,1,50,0,0
108190,-111.111111111111,4,2,1,50,0,0
120657,-100,4,2,1,60,0,0
122215,-100,4,2,1,30,0,0
122410,-100,4,2,1,60,0,0
123774,-100,4,2,1,30,0,0
123969,-100,4,2,1,70,0,0
124358,-100,4,2,1,40,0,0
124553,-100,4,2,1,70,0,0
125527,-100,4,2,1,40,0,0
125722,-100,4,2,1,70,0,0
126404,-100,4,2,1,30,0,0
126501,-100,4,2,1,35,0,0
126599,-100,4,2,1,40,0,0
126696,-100,4,2,1,45,0,0
126793,-100,4,2,1,50,0,0
126891,-83.3333333333333,4,2,1,75,0,1
128254,-100,4,2,1,75,0,1
136436,-90.9090909090909,4,2,1,75,0,1
136826,-83.3333333333333,4,2,1,75,0,1
137410,-76.9230769230769,4,2,1,75,0,1
138190,-66.6666666666667,4,2,1,75,0,1
139456,-66.6666666666667,4,2,1,75,0,0
139553,-83.3333333333333,4,2,1,75,0,1
140722,-100,4,2,1,75,0,1
145690,-100,4,2,1,10,0,0
145787,-90.9090909090909,4,2,1,75,0,1
146371,-83.3333333333333,4,2,1,75,0,1
146956,-76.9230769230769,4,2,1,75,0,1
147345,-71.4285714285714,4,2,1,75,0,1
147930,-66.6666666666667,4,2,1,75,0,1
148514,-100,4,2,1,75,0,1
148904,-100,4,2,1,80,0,1
150267,-100,4,2,1,75,0,1
151923,-100,4,2,1,35,0,1
152021,-100,4,2,1,60,0,0
158254,-90.9090909090909,4,2,1,70,0,0
159034,-83.3333333333333,4,2,1,70,0,0
159326,-83.3333333333333,4,2,1,10,0,0
159423,-76.9230769230769,4,2,1,70,0,0
159715,-76.9230769230769,4,2,1,10,0,0
159813,-71.4285714285714,4,2,1,70,0,0
160203,-111.111111111111,4,2,1,50,0,0
166047,-100,4,2,1,75,0,1
166631,-90.9090909090909,4,2,1,75,0,1
167215,-83.3333333333333,4,2,1,75,0,1
167605,-76.9230769230769,4,2,1,75,0,1
168190,-71.4285714285714,4,2,1,75,0,1
168774,-66.6666666666667,4,2,1,75,0,1
169164,-62.5,4,2,1,80,0,1
170917,-100,4,2,1,75,0,1
171891,-66.6666666666667,4,2,1,75,0,1
172183,-66.6666666666667,4,2,1,10,0,1
172280,-142.857142857143,4,2,1,30,0,0
177540,-117.647058823529,4,2,1,50,0,0
178125,-100,4,2,1,50,0,0
178417,-100,4,2,1,10,0,0
178514,-125,4,2,1,50,0,0
182897,-100,4,2,1,50,0,0
184358,-100,4,2,1,5,0,0
184553,-83.3333333333333,4,2,1,75,0,1
185917,-100,4,2,1,75,0,1
189228,-90.9090909090909,4,2,1,75,0,1
189423,-90.9090909090909,4,2,1,50,0,1
189618,-83.3333333333333,4,2,1,75,0,1
189813,-83.3333333333333,4,2,1,50,0,1
190008,-76.9230769230769,4,2,1,75,0,1
190203,-76.9230769230769,4,2,1,50,0,1
190397,-76.9230769230769,4,2,1,75,0,1
190884,-76.9230769230769,4,2,1,10,0,0
190982,-90.9090909090909,4,2,1,75,0,1
191566,-83.3333333333333,4,2,1,75,0,1
192151,-76.9230769230769,4,2,1,75,0,1
192540,-71.4285714285714,4,2,1,75,0,1
193125,-66.6666666666667,4,2,1,75,0,1
193709,-62.5,4,2,1,75,0,1
194099,-100,4,2,1,80,0,1
195462,-100,4,2,1,75,0,1
196826,-66.6666666666667,4,2,1,75,0,1
197118,-66.6666666666667,4,2,1,10,0,1
197215,-111.111111111111,4,2,1,30,0,0
208125,-111.111111111111,4,2,1,70,0,0
208514,-111.111111111111,4,2,1,30,0,0
208709,-111.111111111111,4,2,1,70,0,0
209293,-111.111111111111,4,2,1,5,0,0

[Colours]
Combo1 : 213,83,255
Combo2 : 255,64,69
Combo3 : 255,158,62
Combo4 : 255,255,83
Combo5 : 83,255,83
Combo6 : 114,222,254
Combo7 : 74,74,255

[HitObjects]
46,284,150,6,0,L|59:363,1,80,2|2,0:0|0:0,0:0:0:0:
33,205,954,2,0,L|46:284,1,80,2|2,0:0|0:0,0:0:0:0:
234,275,1606,6,0,L|247:354,1,80,2|2,0:0|0:0,0:0:0:0:
221,196,2102,2,0,L|234:275,1,80,2|2,0:0|0:0,0:0:0:0:
208,117,2708,2,0,L|221:196,1,80,2|2,0:0|0:0,0:0:0:0:
246,353,3645,6,0,P|311:316|408:348,1,160,2|2,0:0|0:0,0:0:0:0:
446,136,4667,6,0,L|433:57,1,80,2|2,0:0|0:0,0:0:0:0:
459,215,5292,2,0,L|446:136,1,80,2|2,0:0|0:0,0:0:0:0:
472,294,5959,2,0,L|459:215,1,80,2|2,0:0|0:0,0:0:0:0:
344,316,6606,6,0,L|329:232,1,80,2|0,0:0|0:0,0:0:0:0:
242,149,7019,2,0,L|229:70,1,80,2|0,0:0|0:0,0:0:0:0:
147,86,7400,6,0,B|138:111|138:111|154:134|154:134|146:159|146:159|162:182|162:182|153:208|153:208|169:230|169:230|161:256|161:256|177:278|177:278|169:304|169:304|185:326|185:326|189:415,1,284,2|2,0:0|0:0,0:0:0:0:
321,348,8420,6,0,P|388:325|248:270,1,400,2|2,0:0|0:0,0:0:0:0:
331,266,10203,5,2,0:0:0:0:
256,192,10300,12,0,11664,0:0:0:0:
83,159,11761,6,0,L|108:268,1,107.999996704102,4|0,0:1|0:0,0:0:0:0:
167,322,12151,2,0,L|191:216,1,107.999996704102,4|0,0:1|0:0,0:0:0:0:
257,171,12540,2,0,L|265:205,1,35.9999989013672,4|0,0:1|0:0,0:0:0:0:
296,288,12735,5,8,0:0:0:0:
296,288,12832,1,8,0:0:0:0:
296,288,12930,1,8,0:0:0:0:
427,68,13125,5,12,0:1:0:0:
499,212,13319,1,12,0:0:0:0:
339,202,13514,1,2,0:0:0:0:
427,68,13709,2,0,P|438:109|423:158,1,80,12|0,0:0|0:0,0:0:0:0:
269,266,14099,5,8,0:1:0:0:
165,206,14293,1,2,0:0:0:0:
269,146,14488,1,8,0:0:0:0:
349,284,14683,6,0,P|353:303|351:323,2,40,2|2|10,0:0|0:0|0:1,0:0:0:0:
269,146,15073,1,2,0:0:0:0:
165,206,15267,1,8,0:0:0:0:
269,266,15462,1,2,0:0:0:0:
345,130,15657,2,0,P|297:71|221:83,1,160,8|8,0:0|0:0,0:0:0:0:
71,240,16241,6,0,P|52:244|32:242,2,40,2|2|14,0:0|0:0|0:0,0:0:0:0:
169,169,16631,1,2,0:0:0:0:
188,286,16825,1,8,0:0:0:0:
282,210,17021,2,0,P|320:202|371:215,1,80,2|8,0:0|0:1,0:0:0:0:
188,286,17410,5,2,0:0:0:0:
169,169,17605,1,8,0:0:0:0:
71,240,17800,2,0,P|32:247|-18:235,1,80,2|8,0:0|0:1,0:0:0:0:
169,169,18190,2,0,P|208:161|247:168,1,80,2|8,0:0|0:0,0:0:0:0:
386,254,18579,5,2,0:0:0:0:
424,262,18676,1,2,0:0:0:0:
460,247,18773,1,10,0:1:0:0:
482,214,18871,1,2,0:0:0:0:
481,174,18968,1,2,0:0:0:0:
459,142,19066,1,2,0:0:0:0:
422,128,19164,2,0,P|396:127|371:134,3,40,10|0|2|0,0:0|0:0|0:0|0:0,0:0:0:0:
322,169,19553,6,0,L|324:74,2,80,12|2|8,0:0|0:0|0:0,0:0:0:0:
322,329,20138,1,2,0:0:0:0:
463,254,20333,1,8,0:1:0:0:
322,169,20528,1,2,0:0:0:0:
402,306,20722,1,8,0:0:0:0:
499,178,20917,6,0,P|506:140|496:101,1,80,2|8,0:0|0:1,0:0:0:0:
322,169,21306,2,0,P|314:207|324:246,1,80,2|8,0:0|0:0,0:0:0:0:
419,320,21696,1,2,0:0:0:0:
324,246,21891,2,0,P|244:221|171:252,1,160,8|8,0:1|0:0,0:0:0:0:
48,345,22475,6,0,P|53:370|47:395,2,40,2|2|10,0:0|0:0|0:1,0:0:0:0:
13,229,22865,1,2,0:0:0:0:
13,229,23060,2,0,P|51:238|102:224,1,80,8|2,0:0|0:0,0:0:0:0:
225,171,23449,2,0,P|187:162|136:176,1,80,8|2,0:1|0:0,0:0:0:0:
276,237,23839,2,0,P|308:165|241:89,1,160,8|8,0:0|0:1,0:0:0:0:
90,229,24423,6,0,L|107:351,1,120.000004577637,6|0,0:1|0:0,0:0:0:0:
219,173,24813,1,8,0:1:0:0:
219,173,25008,6,0,L|236:295,1,120.000004577637,6|0,0:1|0:0,0:0:0:0:
351,127,25397,6,0,L|368:249,1,120.000004577637,6|0,0:1|0:0,0:0:0:0:
512,354,25787,6,0,L|503:286,1,60.0000022888184,12|0,0:0|0:0,0:0:0:0:
489,209,25982,1,8,0:0:0:0:
489,209,26177,1,8,0:0:0:0:
434,348,26371,6,0,L|425:280,1,60.0000022888184,12|0,0:0|0:0,0:0:0:0:
411,203,26566,1,8,0:0:0:0:
411,203,26761,1,8,0:0:0:0:
357,342,26956,6,0,L|348:274,1,60.0000022888184,12|0,0:0|0:0,0:0:0:0:
334,197,27151,1,8,0:0:0:0:
334,197,27346,1,8,0:0:0:0:
279,336,27540,6,0,L|270:268,1,60.0000022888184,12|0,0:0|0:0,0:0:0:0:
256,191,27735,1,8,0:0:0:0:
256,191,27930,1,8,0:0:0:0:
201,329,28125,6,0,L|192:261,1,60.0000022888184,12|0,0:0|0:0,0:0:0:0:
178,184,28320,1,8,0:0:0:0:
178,184,28417,1,8,0:0:0:0:
178,184,28514,5,4,0:0:0:0:
265,71,28709,1,8,0:0:0:0:
128,111,28904,1,8,0:0:0:0:
262,159,29099,1,8,0:0:0:0:
182,41,29293,2,0,L|95:32,1,80,12|8,0:1|0:0,0:0:0:0:
21,206,29683,6,0,P|30:223|46:235,1,40,2|8,0:0|0:1,0:0:0:0:
46,235,30073,6,0,P|47:153|106:200,1,180.000006866455,4|0,0:1|0:0,0:0:0:0:
121,258,30462,6,0,P|179:278|246:256,1,128,12|8,0:0|0:0,0:0:0:0:
325,213,31047,2,0,L|334:276,1,64,2|8,0:0|0:1,0:0:0:0:
404,167,31436,5,2,0:0:0:0:
320,119,31631,1,8,0:0:0:0:
403,71,31826,1,2,0:0:0:0:
404,167,32021,2,0,L|425:299,2,128,8|8|8,0:1|0:0|0:1,0:0:0:0:
319,22,32995,5,2,0:0:0:0:
403,71,33190,1,8,0:0:0:0:
320,119,33384,2,0,L|320:188,2,64,2|8|2,0:0|0:1|0:0,0:0:0:0:
319,22,33969,1,8,0:0:0:0:
241,77,34163,2,0,P|204:83|167:74,1,64,2|8,0:0|0:1,0:0:0:0:
59,29,34553,5,2,0:0:0:0:
45,124,34748,1,8,0:0:0:0:
27,218,34943,1,2,0:0:0:0:
118,188,35138,2,0,P|179:173|238:194,2,128,8|8|8,0:1|0:0|0:1,0:0:0:0:
13,312,36112,5,2,0:0:0:0:
27,218,36307,1,8,0:0:0:0:
100,279,36501,2,0,P|159:300|220:284,1,128,2|0,0:0|0:0,0:0:0:0:
298,228,37086,1,8,0:0:0:0:
379,178,37280,2,0,L|392:246,1,64,2|8,0:0|0:1,0:0:0:0:
496,384,37670,5,2,0:0:0:0:
482,290,37865,1,8,0:0:0:0:
400,337,38059,2,0,P|340:358|279:342,1,128,2|0,0:0|0:0,0:0:0:0:
195,297,38644,1,8,0:0:0:0:
111,252,38839,2,0,L|98:320,1,64,2|8,0:0|0:1,0:0:0:0:
48,183,39228,5,2,0:0:0:0:
141,158,39423,1,8,0:0:0:0:
48,183,39618,2,0,P|27:117|50:52,1,128,2|0,0:0|0:0,0:0:0:0:
171,41,40203,5,8,0:0:0:0:
171,41,40397,2,0,P|202:48|236:41,1,64,2|8,0:0|0:1,0:0:0:0:
328,25,40787,1,2,0:0:0:0:
328,25,40982,2,0,P|359:17|393:25,1,64,8|2,0:0|0:0,0:0:0:0:
486,177,41371,5,12,0:0:0:0:
312,223,41566,2,0,B|327:343,1,120.000004577637,12|0,0:0|0:0,0:0:0:0:
420,200,41956,5,8,0:0:0:0:
420,200,42053,1,8,0:0:0:0:
420,200,42151,1,12,0:0:0:0:
238,235,42345,2,0,B|253:355,1,120.000004577637,12|0,0:0|0:0,0:0:0:0:
296,182,42735,5,2,0:0:0:0:
296,182,42930,2,0,P|230:158|167:207,1,143.999995605469,12|8,0:0|0:0,0:0:0:0:
86,260,43514,2,0,L|71:176,1,71.9999978027344,2|8,0:0|0:1,0:0:0:0:
41,48,43904,5,2,0:0:0:0:
119,121,44099,1,8,0:0:0:0:
188,38,44293,2,0,P|227:28|262:37,1,71.9999978027344,2|8,0:0|0:1,0:0:0:0:
305,185,44683,5,2,0:0:0:0:
227,112,44878,1,8,0:0:0:0:
158,195,45072,2,0,P|118:204|84:196,1,71.9999978027344,2|8,0:0|0:1,0:0:0:0:
227,112,45462,5,2,0:0:0:0:
305,185,45657,1,8,0:0:0:0:
373,102,45852,2,0,P|439:78|518:111,1,143.999995605469,2|0,0:0|0:0,0:0:0:0:
502,244,46436,1,8,0:0:0:0:
502,244,46631,2,0,L|511:330,1,71.9999978027344,2|8,0:0|0:1,0:0:0:0:
365,325,47021,6,0,P|331:317|296:325,1,71.9999978027344,2|8,0:0|0:0,0:0:0:0:
198,371,47410,1,2,0:0:0:0:
223,265,47605,2,0,L|226:184,1,71.9999978027344,8|2,0:1|0:0,0:0:0:0:
126,148,47995,2,0,L|120:291,1,143.999995605469,8|8,0:0|0:1,0:0:0:0:
296,325,48579,5,2,0:0:0:0:
400,296,48774,1,8,0:0:0:0:
321,221,48969,2,0,P|296:154|319:87,1,143.999995605469,2|0,0:0|0:0,0:0:0:0:
404,19,49553,1,8,0:0:0:0:
318,87,49748,2,0,P|283:94|235:84,1,71.9999978027344,2|8,0:0|0:1,0:0:0:0:
70,43,50138,5,2,0:0:0:0:
174,72,50333,1,8,0:0:0:0:
95,147,50528,2,0,P|70:213|93:280,1,143.999995605469,2|0,0:0|0:0,0:0:0:0:
178,349,51112,1,8,0:0:0:0:
93,280,51307,2,0,P|58:273|10:283,1,71.9999978027344,2|8,0:0|0:1,0:0:0:0:
178,349,51696,5,2,0:0:0:0:
172,241,51891,1,8,0:0:0:0:
262,299,52086,2,0,P|329:321|396:298,1,143.999995605469,2|0,0:0|0:0,0:0:0:0:
489,186,52670,5,8,0:0:0:0:
489,186,52865,2,0,L|502:261,1,71.9999978027344,2|8,0:0|0:1,0:0:0:0:
383,226,53254,1,2,0:0:0:0:
383,226,53449,2,0,L|396:301,1,71.9999978027344,8|0,0:0|0:0,0:0:0:0:
299,347,53839,2,0,L|273:201,3,143.999995605469,8|8|8|8,0:1|0:0|0:1|0:0,0:0:0:0:
241,48,55203,5,2,0:0:0:0:
207,162,55397,1,12,0:0:0:0:
173,182,55494,1,8,0:0:0:0:
134,190,55591,1,8,0:0:0:0:
94,182,55689,1,8,0:0:0:0:
61,161,55786,1,8,0:0:0:0:
25,45,55982,5,8,0:0:0:0:
131,100,56177,1,8,0:0:0:0:
241,48,56371,1,8,0:0:0:0:
241,48,56469,1,8,0:0:0:0:
241,48,56566,2,0,P|280:40|335:53,1,80,8|0,0:0|0:0,0:0:0:0:
457,125,56956,5,12,0:0:0:0:
319,205,57151,1,8,0:0:0:0:
319,46,57345,1,8,0:0:0:0:
500,202,57540,5,8,0:0:0:0:
362,282,57735,1,8,0:0:0:0:
362,123,57929,1,8,0:0:0:0:
500,202,58125,2,0,L|492:301,1,80,8|0,0:0|0:0,0:0:0:0:
336,366,58514,5,4,0:1:0:0:
356,124,58709,2,0,L|347:231,1,80,4|2,0:1|0:0,0:0:0:0:
336,366,59099,1,4,0:1:0:0:
356,124,59293,1,4,0:1:0:0:
341,288,59488,1,12,0:0:0:0:
341,288,59878,6,0,P|300:296|252:282,1,80,12|0,0:0|0:0,0:0:0:0:
127,110,60267,1,4,0:1:0:0:
127,319,60462,1,4,0:1:0:0:
304,215,60657,1,4,0:1:0:0:
54,157,60852,6,0,P|36:123|50:87,1,80,4|0,0:0|0:0,0:0:0:0:
50,87,61436,6,0,P|82:165|124:104,1,191.999994140625,6|8,0:1|0:1,0:0:0:0:
255,43,62021,2,0,P|300:31|346:41,1,95.9999970703126,8|0,0:0|0:0,0:0:0:0:
412,170,62410,2,0,P|366:182|320:172,1,95.9999970703126,8|2,0:1|0:0,0:0:0:0:
124,106,62800,5,8,0:0:0:0:
210,189,62995,2,0,P|221:227|212:265,1,80,2|8,0:0|0:1,0:0:0:0:
66,227,63384,2,0,P|104:216|142:225,1,80,2|8,0:0|0:0,0:0:0:0:
288,263,63774,2,0,P|250:274|212:265,1,80,2|10,0:0|0:1,0:0:0:0:
0,71,64358,5,8,0:0:0:0:
0,71,64553,2,0,L|26:165,1,80,2|8,0:0|0:1,0:0:0:0:
109,268,64943,1,2,0:0:0:0:
107,120,65138,1,8,0:0:0:0:
21,239,65332,1,2,0:0:0:0:
161,194,65527,1,8,0:1:0:0:
21,148,65722,2,0,L|0:71,1,80,2|8,0:0|0:0,0:0:0:0:
161,194,66112,6,0,L|140:271,1,80,2|8,0:0|0:1,0:0:0:0:
116,122,66501,2,0,P|152:107|191:113,1,80,2|8,0:0|0:0,0:0:0:0:
340,192,66891,2,0,L|319:269,1,80,2|8,0:0|0:1,0:0:0:0:
295,120,67280,2,0,P|331:105|370:111,1,80,2|8,0:0|0:0,0:0:0:0:
426,367,67865,6,0,P|387:376|349:366,1,80,6|0,0:0|0:0,0:0:0:0:
256,271,68254,1,8,0:0:0:0:
86,367,68449,2,0,P|124:376|162:366,1,80,2|8,0:0|0:1,0:0:0:0:
332,244,68839,5,2,0:0:0:0:
177,261,69034,1,8,0:0:0:0:
276,194,69228,1,2,0:0:0:0:
121,211,69423,2,0,P|93:150|133:66,1,160,8|8,0:1|0:0,0:0:0:0:
310,47,70008,5,2,0:0:0:0:
310,47,70203,2,0,P|348:38|387:47,1,80,8|0,0:1|0:0,0:0:0:0:
205,69,70592,2,0,P|166:77|128:69,1,80,10|2,0:0|0:0,0:0:0:0:
110,227,70982,6,0,L|127:339,1,88.000002685547,4|0,0:0|0:0,0:0:0:0:
244,363,71371,5,8,0:0:0:0:
230,269,71566,2,0,L|249:393,1,95.9999970703126,4|8,0:0|0:1,0:0:0:0:
32,384,71956,5,2,0:0:0:0:
0,179,72151,2,0,L|32:384,1,207.999990478516,12|8,0:0|0:1,0:0:0:0:
230,269,72735,6,0,P|286:250|343:266,1,120.000004577637,6|0,0:1|0:0,0:0:0:0:
485,380,73125,1,8,0:0:0:0:
485,380,73222,1,8,0:0:0:0:
485,380,73319,1,8,0:0:0:0:
395,128,73514,1,6,0:1:0:0:
293,343,73709,1,8,0:0:0:0:
293,343,73806,1,8,0:0:0:0:
293,343,73904,1,8,0:0:0:0:
139,181,74099,6,0,P|183:167|229:180,1,95.9999970703126,6|0,0:1|0:0,0:0:0:0:
188,356,74488,2,0,P|173:311|186:265,1,95.9999970703126,8|0,0:0|0:0,0:0:0:0:
358,308,74878,2,0,P|313:322|267:309,1,95.9999970703126,8|2,0:1|0:0,0:0:0:0:
139,181,75267,5,8,0:0:0:0:
266,149,75462,2,0,L|267:337,1,160,2|2,0:0|0:0,0:0:0:0:
360,384,76047,1,8,0:0:0:0:
435,291,76241,2,0,P|473:282|525:297,1,80,2|8,0:0|0:1,0:0:0:0:
360,384,76631,5,2,0:0:0:0:
337,236,76826,1,8,0:0:0:0:
262,330,77021,1,2,0:0:0:0:
435,291,77215,2,0,P|450:213|394:146,1,160,10|8,0:1|0:0,0:0:0:0:
231,190,77800,6,0,P|216:268|272:335,1,160,2|2,0:0|0:0,0:0:0:0:
378,304,78384,1,10,0:0:0:0:
378,304,78579,2,0,P|417:295|476:313,1,80,2|8,0:0|0:1,0:0:0:0:
261,329,78969,6,0,P|222:338|163:320,1,80,2|8,0:0|0:0,0:0:0:0:
67,297,79358,1,2,0:0:0:0:
151,212,79553,1,8,0:1:0:0:
183,330,79748,1,2,0:0:0:0:
67,297,79943,2,0,P|46:337|86:315,1,120,12|0,0:0|0:0,0:0:0:0:
103,225,80332,6,0,L|112:120,1,88.000002685547,4|8,0:1|0:0,0:0:0:0:
195,218,80722,1,8,0:0:0:0:
195,218,80917,6,0,L|204:103,1,95.9999970703126,4|0,0:1|0:0,0:0:0:0:
292,196,81306,1,8,0:0:0:0:
292,196,81501,6,0,L|301:74,1,103.999995239258,4|8,0:1|0:0,0:0:0:0:
389,185,81891,6,0,L|398:55,1,111.999996582031,4|8,0:1|0:0,0:0:0:0:
484,174,82280,1,8,0:0:0:0:
484,174,82475,6,0,L|493:37,1,120.000004577637,4|0,0:1|0:0,0:0:0:0:
389,185,82865,1,8,0:0:0:0:
303,102,83060,5,12,0:1:0:0:
269,81,83157,1,8,0:0:0:0:
229,74,83254,1,8,0:0:0:0:
191,83,83352,1,8,0:0:0:0:
158,106,83449,5,4,0:1:0:0:
115,260,83644,1,8,0:0:0:0:
270,221,83839,1,8,0:0:0:0:
154,89,84034,1,8,0:0:0:0:
101,272,84229,1,8,0:0:0:0:
287,225,84424,1,8,0:0:0:0:
149,71,84618,1,12,0:0:0:0:
88,288,84813,6,0,L|52:318,2,40,8|8|8,0:0|0:0|0:0,0:0:0:0:
305,231,85203,2,0,L|356:243,2,40,12|8|8,0:0|0:0|0:0,0:0:0:0:
149,71,85592,2,0,L|138:16,2,40,8|8|12,0:0|0:0|0:0,0:0:0:0:
189,268,85982,1,8,0:0:0:0:
189,268,86079,1,8,0:0:0:0:
189,268,86177,2,0,L|165:148,1,120,12|0,0:0|0:0,0:0:0:0:
149,71,86566,5,12,0:0:0:0:
300,117,86760,1,2,0:0:0:0:
182,226,86955,1,8,0:0:0:0:
149,71,87150,2,0,P|108:63|63:74,1,80,2|8,0:0|0:1,0:0:0:0:
145,311,87735,6,0,P|186:319|231:308,1,80,8|2,0:0|0:0,0:0:0:0:
336,270,88125,1,8,0:1:0:0:
411,162,88319,1,2,0:0:0:0:
287,205,88514,1,8,0:0:0:0:
413,243,88709,1,2,0:0:0:0:
333,138,88904,2,0,P|259:125|205:194,1,160,8|8,0:1|0:0,0:0:0:0:
167,342,89488,6,0,P|140:345|109:336,2,40,2|2|10,0:0|0:0|0:1,0:0:0:0:
261,266,89878,1,2,0:0:0:0:
310,375,90073,1,8,0:0:0:0:
382,280,90267,2,0,P|419:271|467:284,1,80,2|8,0:0|0:1,0:0:0:0:
310,375,90657,5,2,0:0:0:0:
261,266,90852,1,8,0:0:0:0:
167,342,91047,2,0,P|125:351|83:340,1,80,2|8,0:0|0:1,0:0:0:0:
109,152,91436,6,0,L|126:274,1,120.000004577637,6|0,0:1|0:0,0:0:0:0:
238,96,91826,1,8,0:1:0:0:
238,96,92021,6,0,L|255:218,1,120.000004577637,6|0,0:1|0:0,0:0:0:0:
370,50,92410,6,0,L|387:172,1,120.000004577637,6|0,0:1|0:0,0:0:0:0:
351,369,92800,6,0,L|342:301,1,60.0000022888184,12|0,0:0|0:0,0:0:0:0:
328,224,92995,1,8,0:0:0:0:
328,224,93190,1,8,0:0:0:0:
273,363,93384,6,0,L|264:295,1,60.0000022888184,12|0,0:0|0:0,0:0:0:0:
250,218,93579,1,8,0:0:0:0:
250,218,93774,1,8,0:0:0:0:
196,357,93969,6,0,L|187:289,1,60.0000022888184,12|0,0:0|0:0,0:0:0:0:
173,212,94164,1,8,0:0:0:0:
173,212,94359,1,8,0:0:0:0:
118,351,94553,6,0,L|109:283,1,60.0000022888184,12|0,0:0|0:0,0:0:0:0:
95,206,94748,1,8,0:0:0:0:
40,346,94943,1,8,0:0:0:0:
40,346,95040,1,8,0:0:0:0:
40,346,95138,6,0,L|31:278,1,60.0000022888184,12|0,0:1|0:0,0:0:0:0:
21,193,95332,5,8,0:1:0:0:
21,193,95430,1,8,0:1:0:0:
21,193,95527,2,0,P|49:137|93:208,1,180.000006866455,12|0,0:1|0:0,0:0:0:0:
118,278,95917,6,0,L|182:278,1,64,12|2,0:0|0:0,0:0:0:0:
264,327,96307,1,8,0:0:0:0:
332,259,96502,2,0,P|337:227|328:197,1,64,2|8,0:0|0:1,0:0:0:0:
236,110,96891,5,2,0:0:0:0:
329,86,97086,1,8,0:0:0:0:
423,67,97281,2,0,L|420:139,1,64,2|8,0:0|0:1,0:0:0:0:
405,258,97670,5,2,0:0:0:0:
312,282,97865,1,8,0:0:0:0:
218,301,98060,2,0,L|221:229,1,64,2|0,0:0|0:0,0:0:0:0:
227,14,98644,5,8,0:0:0:0:
146,66,98839,1,2,0:0:0:0:
54,36,99034,2,0,P|48:65|59:104,1,64,8|0,0:1|0:0,0:0:0:0:
116,211,99423,5,8,0:0:0:0:
204,247,99618,1,2,0:0:0:0:
129,307,99813,1,8,0:1:0:0:
116,211,100008,2,0,P|122:182|111:143,1,64,2|8,0:0|0:0,0:0:0:0:
34,50,100397,5,2,0:0:0:0:
34,50,100592,2,0,L|181:35,2,128,8|8|8,0:1|0:0|0:1,0:0:0:0:
55,168,101566,5,2,0:0:0:0:
173,149,101761,1,8,0:0:0:0:
192,267,101956,1,2,0:0:0:0:
74,287,102151,1,6,0:0:0:0:
59,172,102345,5,2,0:0:0:0:
59,172,102443,2,0,L|69:121,1,40,2|8,0:0|0:0,0:0:0:0:
86,61,102638,1,2,0:0:0:0:
86,61,102735,2,0,P|123:70|179:55,1,80,2|8,0:0|0:1,0:0:0:0:
417,152,103319,5,6,0:0:0:0:
322,225,103514,1,2,0:0:0:0:
432,271,103709,1,8,0:1:0:0:
421,155,103904,5,2,0:0:0:0:
421,155,104002,2,0,L|411:104,1,40,2|8,0:0|0:0,0:0:0:0:
395,44,104197,1,2,0:0:0:0:
395,44,104294,2,0,P|358:53|302:38,1,80,2|8,0:0|0:1,0:0:0:0:
202,74,104683,5,2,0:0:0:0:
230,190,104878,1,8,0:0:0:0:
346,160,105073,1,2,0:0:0:0:
317,45,105267,2,0,P|354:36|407:49,1,80,8|0,0:1|0:0,0:0:0:0:
492,197,105657,5,8,0:0:0:0:
507,78,105852,1,2,0:0:0:0:
397,124,106047,2,0,P|360:133|307:120,1,80,8|0,0:1|0:0,0:0:0:0:
208,78,106437,1,8,0:0:0:0:
215,197,106632,1,2,0:0:0:0:
41,151,106826,5,12,0:0:0:0:
215,197,107021,2,0,B|200:317,1,120.000004577637,12|0,0:0|0:0,0:0:0:0:
139,152,107411,5,8,0:0:0:0:
139,152,107508,1,8,0:0:0:0:
139,152,107606,1,12,0:0:0:0:
309,181,107800,2,0,B|294:301,1,120.000004577637,12|0,0:0|0:0,0:0:0:0:
112,293,108190,5,2,0:0:0:0:
112,293,108384,2,0,L|128:385,2,71.9999978027344,12|2|8,0:0|0:0|0:0,0:0:0:0:
18,237,108969,2,0,L|2:145,1,71.9999978027344,2|8,0:0|0:1,0:0:0:0:
0,23,109359,5,2,0:0:0:0:
80,94,109554,1,8,0:0:0:0:
179,53,109748,2,0,P|189:92|180:127,1,71.9999978027344,2|8,0:0|0:1,0:0:0:0:
47,171,110138,5,2,0:0:0:0:
127,242,110333,1,8,0:0:0:0:
226,201,110527,2,0,P|236:240|227:275,1,71.9999978027344,2|8,0:0|0:1,0:0:0:0:
127,242,110917,5,2,0:0:0:0:
140,134,111112,1,8,0:0:0:0:
226,201,111307,2,0,P|292:225|371:192,1,143.999995605469,2|0,0:0|0:0,0:0:0:0:
445,137,111891,1,8,0:0:0:0:
445,137,112086,2,0,L|461:229,1,71.9999978027344,2|8,0:0|0:1,0:0:0:0:
489,347,112476,6,0,P|455:339|420:347,1,71.9999978027344,2|8,0:0|0:0,0:0:0:0:
313,370,112865,1,2,0:0:0:0:
364,273,113060,2,0,P|367:238|356:204,1,71.9999978027344,8|2,0:1|0:0,0:0:0:0:
279,127,113450,2,0,L|455:120,1,143.999995605469,8|8,0:0|0:1,0:0:0:0:
512,241,114034,5,2,0:0:0:0:
483,345,114229,1,8,0:0:0:0:
408,266,114424,2,0,P|341:241|274:264,1,143.999995605469,2|0,0:0|0:0,0:0:0:0:
182,319,115008,1,8,0:0:0:0:
182,319,115203,2,0,L|164:236,1,71.9999978027344,2|8,0:0|0:1,0:0:0:0:
62,146,115592,5,2,0:0:0:0:
91,250,115787,1,8,0:0:0:0:
166,171,115982,2,0,P|233:146|300:169,1,143.999995605469,2|0,0:0|0:0,0:0:0:0:
392,224,116566,1,8,0:0:0:0:
392,224,116761,2,0,L|410:141,1,71.9999978027344,2|8,0:0|0:1,0:0:0:0:
512,53,117151,5,2,0:0:0:0:
483,157,117346,1,8,0:0:0:0:
408,78,117541,2,0,P|341:53|274:76,1,143.999995605469,2|0,0:0|0:0,0:0:0:0:
221,210,118125,5,8,0:0:0:0:
221,210,118320,2,0,L|234:285,1,71.9999978027344,2|8,0:0|0:1,0:0:0:0:
115,250,118709,1,2,0:0:0:0:
115,250,118904,2,0,L|128:325,1,71.9999978027344,8|0,0:0|0:0,0:0:0:0:
31,371,119294,2,0,L|5:225,3,143.999995605469,8|8|8|8,0:1|0:0|0:1|0:0,0:0:0:0:
128,123,120657,5,2,0:0:0:0:
176,231,120851,1,12,0:0:0:0:
210,251,120948,1,8,0:0:0:0:
249,259,121047,1,8,0:0:0:0:
289,251,121143,1,8,0:0:0:0:
322,230,121240,1,8,0:0:0:0:
390,130,121436,5,8,0:0:0:0:
445,236,121631,1,8,0:0:0:0:
330,237,121825,1,8,0:0:0:0:
330,237,121923,1,8,0:0:0:0:
330,237,122020,2,0,L|314:331,1,80,8|0,0:0|0:0,0:0:0:0:
101,305,122410,5,8,0:0:0:0:
239,225,122605,1,8,0:0:0:0:
239,384,122799,1,8,0:0:0:0:
58,228,122994,5,8,0:0:0:0:
196,148,123189,1,8,0:0:0:0:
196,307,123383,1,8,0:0:0:0:
58,228,123579,2,0,L|66:129,1,80,8|0,0:0|0:0,0:0:0:0:
222,64,123968,5,4,0:1:0:0:
196,307,124163,2,0,L|205:200,1,80,4|2,0:1|0:0,0:0:0:0:
222,64,124553,1,4,0:1:0:0:
196,307,124747,1,4,0:1:0:0:
214,147,124942,1,12,0:0:0:0:
214,147,125332,6,0,P|255:139|303:153,1,80,12|0,0:0|0:0,0:0:0:0:
431,320,125721,1,4,0:1:0:0:
431,111,125916,1,4,0:1:0:0:
252,217,126111,1,4,0:1:0:0:
431,320,126306,6,0,P|433:303|430:283,11,20,12|0|0|0|0|0|0|0|0|0|0|0,0:0|0:0|0:0|0:0|0:0|0:0|0:0|0:0|0:0|0:0|0:0|0:0,0:0:0:0:
431,320,126890,6,0,P|378:268|370:338,1,160,6|8,0:1|0:1,0:0:0:0:
217,358,127475,2,0,P|172:370|126:360,1,95.9999970703126,8|0,0:0|0:0,0:0:0:0:
24,255,127865,2,0,P|70:243|116:253,1,95.9999970703126,8|2,0:1|0:0,0:0:0:0:
285,308,128254,5,8,0:0:0:0:
203,219,128449,2,0,P|192:181|201:143,1,80,2|8,0:0|0:1,0:0:0:0:
335,80,128839,2,0,P|346:118|337:156,1,80,2|8,0:0|0:0,0:0:0:0:
241,284,129228,2,0,P|203:295|165:286,1,80,2|10,0:0|0:1,0:0:0:0:
0,17,129812,5,8,0:0:0:0:
0,17,130008,2,0,L|26:111,1,80,2|8,0:0|0:1,0:0:0:0:
65,206,130397,1,2,0:0:0:0:
125,74,130592,1,8,0:0:0:0:
156,190,130787,1,2,0:0:0:0:
216,58,130982,1,8,0:1:0:0:
245,173,131176,2,0,L|237:263,1,80,2|8,0:0|0:0,0:0:0:0:
57,285,131566,6,0,L|65:195,1,80,2|8,0:0|0:1,0:0:0:0:
140,66,131956,2,0,P|176:51|215:57,1,80,2|8,0:0|0:0,0:0:0:0:
361,124,132345,2,0,L|353:214,1,80,2|8,0:0|0:1,0:0:0:0:
278,343,132735,2,0,P|242:358|203:352,1,80,2|8,0:0|0:0,0:0:0:0:
0,140,133319,6,0,P|36:125|75:131,1,80,6|0,0:0|0:0,0:0:0:0:
179,191,133708,1,8,0:0:0:0:
255,98,133904,2,0,L|259:14,1,80,2|8,0:0|0:1,0:0:0:0:
179,191,134293,5,2,0:0:0:0:
334,208,134488,1,8,0:0:0:0:
227,262,134682,1,2,0:0:0:0:
382,279,134877,2,0,P|417:214|376:133,1,160,8|8,0:1|0:0,0:0:0:0:
227,94,135462,5,2,0:0:0:0:
227,94,135657,2,0,P|215:131|231:183,1,80,8|0,0:1|0:0,0:0:0:0:
385,139,136047,2,0,P|348:127|296:143,1,80,10|2,0:0|0:0,0:0:0:0:
134,227,136436,6,0,L|117:339,1,88.000002685547,4|0,0:0|0:0,0:0:0:0:
0,363,136825,5,8,0:0:0:0:
14,269,137020,2,0,L|-5:393,1,95.9999970703126,4|8,0:0|0:1,0:0:0:0:
212,384,137410,5,2,0:0:0:0:
244,179,137605,2,0,L|212:384,1,207.999990478516,12|8,0:0|0:1,0:0:0:0:
131,182,138190,6,0,P|187:163|244:179,1,120.000004577637,6|0,0:0|0:0,0:0:0:0:
388,289,138579,1,8,0:0:0:0:
388,289,138676,1,8,0:0:0:0:
388,289,138773,1,8,0:0:0:0:
298,37,138968,1,12,0:1:0:0:
196,252,139163,1,8,0:0:0:0:
196,252,139260,1,8,0:0:0:0:
196,252,139358,1,8,0:0:0:0:
407,146,139553,6,0,P|363:132|317:145,1,95.9999970703126,6|0,0:1|0:0,0:0:0:0:
196,252,139943,2,0,P|240:266|286:253,1,95.9999970703126,8|2,0:0|0:0,0:0:0:0:
473,192,140332,2,0,P|487:148|474:102,1,95.9999970703126,8|2,0:1|0:0,0:0:0:0:
308,23,140721,5,8,0:0:0:0:
216,101,140916,2,0,P|192:164|233:262,1,160,2|2,0:0|0:0,0:0:0:0:
330,298,141501,1,8,0:0:0:0:
369,185,141696,2,0,P|331:176|279:191,1,80,2|8,0:0|0:1,0:0:0:0:
140,289,142085,5,2,0:0:0:0:
117,141,142280,1,8,0:0:0:0:
38,231,142475,1,2,0:0:0:0:
211,192,142670,2,0,P|226:114|170:47,1,160,10|8,0:1|0:0,0:0:0:0:
136,213,143254,6,0,L|300:208,1,160,2|2,0:0|0:0,0:0:0:0:
385,288,143838,1,10,0:0:0:0:
385,288,144033,2,0,L|286:290,1,80,2|8,0:0|0:1,0:0:0:0:
137,290,144423,6,0,P|128:251|146:192,1,80,2|8,0:0|0:0,0:0:0:0:
169,96,144812,1,2,0:0:0:0:
254,180,145007,1,8,0:1:0:0:
136,212,145202,1,2,0:0:0:0:
169,96,145397,2,0,P|129:75|151:115,1,120,12|0,0:0|0:0,0:0:0:0:
233,137,145787,6,0,L|338:146,1,88.000002685547,4|8,0:1|0:0,0:0:0:0:
475,181,146176,1,8,0:0:0:0:
475,181,146371,6,0,L|360:190,1,95.9999970703126,4|0,0:1|0:0,0:0:0:0:
229,238,146760,1,8,0:0:0:0:
229,238,146956,6,0,L|351:247,1,103.999995239258,4|8,0:1|0:0,0:0:0:0:
503,283,147345,6,0,L|373:292,1,111.999996582031,4|8,0:1|0:0,0:0:0:0:
227,344,147734,1,8,0:0:0:0:
227,344,147930,6,0,L|364:353,1,120.000004577637,4|0,0:1|0:0,0:0:0:0:
503,283,148319,1,8,0:0:0:0:
392,236,148514,5,12,0:1:0:0:
371,202,148611,1,8,0:0:0:0:
364,162,148708,1,8,0:0:0:0:
373,124,148806,1,8,0:0:0:0:
401,97,148903,5,12,0:1:0:0:
247,142,149098,1,8,0:0:0:0:
362,252,149293,1,8,0:0:0:0:
413,84,149488,1,8,0:0:0:0:
230,136,149683,1,8,0:0:0:0:
368,269,149878,1,8,0:0:0:0:
425,70,150072,1,12,0:0:0:0:
209,134,150267,6,0,L|178:99,2,40,8|8|8,0:0|0:0|0:0,0:0:0:0:
372,287,150657,2,0,L|360:339,2,40,12|8|8,0:0|0:0|0:0,0:0:0:0:
425,70,151046,2,0,L|476:56,2,40,8|8|12,0:0|0:0|0:0,0:0:0:0:
217,142,151436,1,8,0:0:0:0:
217,142,151533,1,8,0:0:0:0:
217,142,151631,2,0,L|338:164,1,120,12|0,0:0|0:0,0:0:0:0:
389,228,152021,5,8,0:0:0:0:
349,234,152118,1,8,0:0:0:0:
310,241,152215,1,8,0:0:0:0:
270,248,152313,1,8,0:0:0:0:
270,248,152605,6,0,L|262:339,2,80,8|8|8,0:0|0:0|0:0,0:0:0:0:
389,228,153190,2,0,L|397:137,1,80,8|8,0:0|0:0,0:0:0:0:
241,112,153579,5,8,0:0:0:0:
202,119,153676,1,8,0:0:0:0:
163,126,153773,1,8,0:0:0:0:
123,132,153871,1,8,0:0:0:0:
123,132,154163,6,0,L|114:222,2,80,8|8|8,0:0|0:0|0:0,0:0:0:0:
241,112,154748,2,0,L|250:17,1,80,12|0,0:1|0:0,0:0:0:0:
350,171,155138,5,8,0:0:0:0:
310,177,155235,1,8,0:0:0:0:
271,184,155332,1,8,0:0:0:0:
231,191,155430,1,8,0:0:0:0:
231,191,155722,6,0,L|222:281,2,80,8|8|8,0:0|0:0|0:0,0:0:0:0:
350,171,156307,2,0,L|358:80,1,80,8|8,0:0|0:0,0:0:0:0:
458,230,156696,5,8,0:0:0:0:
418,236,156793,1,8,0:0:0:0:
379,243,156890,1,8,0:0:0:0:
339,250,156988,1,8,0:0:0:0:
339,250,157280,6,0,L|330:340,1,80,8|8,0:0|0:0,0:0:0:0:
466,237,157670,1,8,0:0:0:0:
466,237,157767,1,8,0:0:0:0:
466,237,157865,2,0,L|474:146,1,80,8|8,0:0|0:0,0:0:0:0:
332,54,158254,5,12,0:0:0:0:
332,54,158449,2,0,L|309:230,1,176.000005371094,4|8,0:1|0:0,0:0:0:0:
297,304,158936,1,8,0:0:0:0:
297,304,159034,6,0,P|211:279|147:308,1,143.999995605469,12|0,0:1|0:0,0:0:0:0:
103,355,159423,6,0,P|41:358|100:333,1,155.999992858887,12|0,0:1|0:0,0:0:0:0:
162,296,159813,6,0,P|172:239|143:185,1,111.999996582031,12|0,0:0|0:0,0:0:0:0:
33,90,160203,5,8,0:0:0:0:
126,37,160397,2,0,P|160:27|195:33,1,71.9999978027344,2|8,0:0|0:1,0:0:0:0:
281,100,160787,2,0,P|316:105|350:96,1,71.9999978027344,2|8,0:0|0:0,0:0:0:0:
447,46,161177,1,2,0:0:0:0:
447,46,161371,2,0,L|425:198,1,143.999995605469,8|8,0:0|0:0,0:0:0:0:
401,330,161956,5,2,0:0:0:0:
359,230,162151,1,8,0:1:0:0:
290,313,162345,2,0,P|256:321|221:316,1,71.9999978027344,2|8,0:0|0:0,0:0:0:0:
131,254,162735,2,0,P|95:248|61:257,1,71.9999978027344,2|8,0:0|0:1,0:0:0:0:
221,316,163319,5,8,0:0:0:0:
271,220,163514,2,0,P|279:183|267:145,1,71.9999978027344,2|8,0:0|0:1,0:0:0:0:
188,78,163904,1,2,0:0:0:0:
197,185,164099,1,8,0:0:0:0:
98,141,164293,2,0,P|61:134|17:150,2,71.9999978027344,2|8|2,0:0|0:1|0:0,0:0:0:0:
197,185,164878,2,0,P|253:206|341:181,1,143.999995605469,8|8,0:0|0:1,0:0:0:0:
457,99,165462,5,2,0:0:0:0:
350,115,165657,1,8,0:0:0:0:
387,13,165852,1,2,0:0:0:0:
457,99,166047,6,0,L|467:199,1,80,4|8,0:1|0:0,0:0:0:0:
483,313,166436,1,8,0:0:0:0:
483,313,166631,6,0,P|434:309|390:330,1,88.000002685547,4|0,0:1|0:0,0:0:0:0:
257,373,167021,1,8,0:0:0:0:
257,373,167215,6,0,L|238:270,1,95.9999970703126,4|8,0:1|0:0,0:0:0:0:
209,104,167605,6,0,P|263:112|319:83,1,103.999995239258,4|8,0:1|0:0,0:0:0:0:
474,28,167995,1,8,0:0:0:0:
474,28,168189,6,0,L|494:139,1,103.999995239258,4|0,0:1|0:0,0:0:0:0:
512,321,168579,1,8,0:0:0:0:
512,321,168774,6,0,P|458:306|378:351,1,120.000004577637,4|0,0:1|0:0,0:0:0:0:
230,349,169164,5,12,0:1:0:0:
187,195,169359,1,8,0:0:0:0:
342,234,169554,1,8,0:0:0:0:
226,366,169749,1,8,0:0:0:0:
173,183,169944,1,0,0:0:0:0:
359,230,170139,1,0,0:0:0:0:
221,384,170333,1,8,0:0:0:0:
162,169,170527,1,8,0:0:0:0:
377,224,170722,1,12,0:0:0:0:
182,286,170917,6,0,L|134:290,3,40,12|8|8|8,0:1|0:0|0:0|0:0,0:0:0:0:
101,294,171306,1,8,0:0:0:0:
142,181,171501,1,12,0:1:0:0:
158,144,171598,1,8,0:0:0:0:
154,105,171695,1,8,0:0:0:0:
132,72,171793,1,8,0:0:0:0:
96,55,171891,2,0,P|24:90|87:125,1,180.000006866455,12|0,0:0|0:0,0:0:0:0:
154,105,172280,6,0,L|218:101,1,55.9999982910157,12|0,0:0|0:0,0:0:0:0:
294,94,172670,1,2,0:0:0:0:
260,258,173060,1,2,0:0:0:0:
274,175,173254,1,2,0:0:0:0:
294,94,173449,5,2,0:0:0:0:
355,151,173644,2,0,P|405:163|474:141,1,111.999996582031,2|2,0:0|0:0,0:0:0:0:
347,25,174423,2,0,P|297:13|228:35,1,111.999996582031,2|0,0:0|0:0,0:0:0:0:
176,84,175008,5,2,0:0:0:0:
176,84,175203,2,0,L|192:207,1,111.999996582031,2|2,0:0|0:0,0:0:0:0:
207,277,175787,1,2,0:0:0:0:
270,221,175982,1,2,0:0:0:0:
287,303,176177,1,2,0:0:0:0:
207,277,176371,1,2,0:0:0:0:
372,245,176761,6,0,L|432:239,1,55.9999982910157,2|0,0:0|0:0,0:0:0:0:
471,167,177151,2,0,L|411:161,1,55.9999982910157,2|0,0:0|0:0,0:0:0:0:
313,148,177540,6,0,P|336:86|295:5,1,136.000002593994,2|8,0:0|0:1,0:0:0:0:
222,105,178125,6,0,P|259:73|211:81,1,120,4|0,0:0|0:0,0:0:0:0:
151,112,178514,6,0,L|142:244,1,128,2|2,0:1|0:0,0:0:0:0:
228,283,179099,2,0,L|231:215,1,64,2|0,0:0|0:0,0:0:0:0:
323,194,179488,1,2,0:0:0:0:
416,172,179683,1,2,0:0:0:0:
510,152,179878,2,0,L|504:294,1,128,2|0,0:0|0:0,0:0:0:0:
329,358,180657,5,2,0:0:0:0:
329,358,180852,2,0,L|334:230,1,128,2|2,0:0|0:0,0:0:0:0:
186,107,181631,2,0,L|180:234,1,128,2|2,0:0|0:0,0:0:0:0:
255,295,182215,2,0,L|260:167,1,128,2|2,0:0|0:0,0:0:0:0:
259,167,182897,6,4,P|129:241|255:82,1,600,6|4,0:0|0:0,0:0:0:0:
167,171,184553,6,0,P|123:96|195:130,1,191.999994140625,6|8,0:1|0:1,0:0:0:0:
280,213,185138,2,0,P|326:225|372:215,1,95.9999970703126,8|0,0:0|0:0,0:0:0:0:
472,111,185527,2,0,P|425:98|379:108,1,95.9999970703126,8|2,0:1|0:0,0:0:0:0:
222,163,185917,5,8,0:0:0:0:
137,248,186112,2,0,P|128:285|142:332,1,80,2|8,0:0|0:1,0:0:0:0:
283,286,186501,2,0,P|246:277|199:291,1,80,2|8,0:0|0:0,0:0:0:0:
354,329,186891,2,0,P|363:290|354:252,1,80,2|8,0:0|0:1,0:0:0:0:
279,105,187280,5,2,0:0:0:0:
377,173,187475,2,0,P|417:185|462:172,1,80,8|0,0:0|0:0,0:0:0:0:
503,123,187767,1,2,0:0:0:0:
503,123,187865,2,0,L|482:310,1,160,8|8,0:1|0:0,0:0:0:0:
329,331,188449,6,0,P|291:323|252:332,1,80,2|8,0:0|0:1,0:0:0:0:
140,377,188839,1,2,0:0:0:0:
69,279,189034,1,8,0:0:0:0:
200,263,189229,6,0,P|211:219|196:174,1,88.000002685547,4|0,0:1|0:0,0:0:0:0:
74,106,189618,6,0,B|188:96,1,95.9999970703126,4|0,0:1|0:0,0:0:0:0:
326,84,190008,6,0,P|313:131|339:192,2,103.999995239258,4|0|2,0:1|0:0|0:0,0:0:0:0:
477,117,190592,6,0,P|431:157|439:96,1,155.999992858887,12|0,0:0|0:0,0:0:0:0:
470,21,190982,6,0,L|362:31,1,88.000002685547,4|8,0:1|0:0,0:0:0:0:
230,75,191371,1,8,0:0:0:0:
230,75,191566,6,0,L|349:85,1,95.9999970703126,4|0,0:1|0:0,0:0:0:0:
482,131,191956,1,8,0:0:0:0:
482,131,192151,6,0,L|356:142,1,103.999995239258,4|8,0:1|0:0,0:0:0:0:
227,191,192540,6,0,L|354:203,1,111.999996582031,4|8,0:1|0:0,0:0:0:0:
503,249,192930,1,8,0:0:0:0:
503,249,193125,6,0,L|372:262,1,120.000004577637,4|0,0:1|0:0,0:0:0:0:
211,309,193514,1,8,0:0:0:0:
211,309,193709,6,0,L|350:322,1,128,4|0,0:1|0:0,0:0:0:0:
213,165,194099,5,12,0:0:0:0:
113,289,194294,1,8,0:0:0:0:
271,314,194489,1,8,0:0:0:0:
215,147,194684,1,8,0:0:0:0:
95,295,194879,1,8,0:0:0:0:
285,324,195074,1,8,0:0:0:0:
218,129,195268,1,8,0:0:0:0:
77,305,195463,6,0,L|31:299,2,40,8|8|8,0:0|0:0|0:0,0:0:0:0:
299,337,195853,2,0,L|321:383,2,40,12|0|8,0:0|0:0|0:0,0:0:0:0:
218,129,196241,5,12,0:0:0:0:
181,243,196436,1,12,0:0:0:0:
218,255,196533,1,8,0:0:0:0:
258,251,196630,1,8,0:0:0:0:
293,232,196728,1,8,0:0:0:0:
318,200,196826,2,0,P|313:132|213:136,1,180.000006866455,12|0,0:0|0:0,0:0:0:0:
172,200,197215,5,14,0:0:0:0:
145,276,197410,1,2,0:0:0:0:
93,215,197605,1,2,0:0:0:0:
172,200,197800,2,0,P|207:192|251:203,2,71.9999978027344,10|2|2,0:0|0:0|0:0,0:0:0:0:
93,215,198384,2,0,P|57:222|14:212,1,71.9999978027344,10|2,0:0|0:0,0:0:0:0:
145,124,198774,5,10,0:0:0:0:
172,200,198969,1,2,0:0:0:0:
224,139,199164,1,2,0:0:0:0:
145,124,199359,2,0,L|137:47,2,71.9999978027344,10|2|2,0:0|0:0|0:0,0:0:0:0:
224,139,199943,2,0,P|259:132|305:141,1,71.9999978027344,10|2,0:0|0:0,0:0:0:0:
410,214,200332,5,10,0:0:0:0:
383,290,200527,1,2,0:0:0:0:
331,229,200722,1,2,0:0:0:0:
410,214,200917,2,0,P|416:176|402:136,2,71.9999978027344,10|2|2,0:0|0:0|0:0,0:0:0:0:
331,229,201501,2,0,L|251:233,1,71.9999978027344,10|2,0:0|0:0,0:0:0:0:
107,241,201891,5,10,0:0:0:0:
31,214,202086,1,2,0:0:0:0:
92,162,202281,1,2,0:0:0:0:
107,241,202476,2,0,P|114:276|104:320,2,71.9999978027344,10|2|2,0:0|0:0|0:0,0:0:0:0:
92,162,203060,2,0,P|84:126|95:83,1,71.9999978027344,14|2,0:0|0:0,0:0:0:0:
245,113,203449,5,14,0:0:0:0:
218,189,203644,1,2,0:0:0:0:
166,128,203839,1,2,0:0:0:0:
245,113,204034,2,0,L|325:101,2,71.9999978027344,10|2|2,0:0|0:0|0:0,0:0:0:0:
166,128,204618,2,0,P|168:91|153:56,1,71.9999978027344,10|2,0:0|0:0,0:0:0:0:
117,193,205008,5,10,0:0:0:0:
144,269,205203,1,2,0:0:0:0:
196,208,205398,1,2,0:0:0:0:
117,193,205593,2,0,P|78:187|38:199,2,71.9999978027344,10|0|2,0:0|0:0|0:0,0:0:0:0:
196,208,206177,2,0,P|234:216|276:204,1,71.9999978027344,14|2,0:0|0:0,0:0:0:0:
386,153,206566,5,10,0:0:0:0:
454,127,206761,1,2,0:0:0:0:
499,183,206956,1,2,0:0:0:0:
459,243,207151,1,10,0:0:0:0:
390,225,207345,2,0,B|322:249|313:193|233:227,1,143.999995605469,2|8,0:0|0:0,0:0:0:0:
12,364,208125,5,12,0:0:0:0:
133,203,208319,2,0,L|124:284,1,71.9999978027344,12|0,0:0|0:0,0:0:0:0:
12,364,208709,5,12,0:0:0:0:
133,203,208904,2,0,L|115:358,1,143.999995605469,12|0,0:0|0:0,0:0:0:0:
