osu file format v14

[General]
AudioFilename: audio.mp3
AudioLeadIn: 0
PreviewTime: 61339
Countdown: 0
SampleSet: Soft
StackLeniency: 0.5
Mode: 0
LetterboxInBreaks: 0
WidescreenStoryboard: 1

[Editor]
Bookmarks: 144,10203,11761,13125,24228,25787,30462,41371,42735,55203,58514,61436,74099,80332,86566,91241,92800,95917,101566,106826,108190,120657,123969,126891,139553,145787,152021,159813,166047,172280,178514,184553,190982,197215,201891,203060,208125
DistanceSpacing: 1.3
BeatDivisor: 4
GridSize: 16
TimelineZoom: 1.6

[Metadata]
Title:Fly high
TitleUnicode:날아올라
Artist:Dreamcatcher
ArtistUnicode:드림캐쳐
Creator:Natsu
Version:Hard
Source:
Tags:지유 수아 시연 한동 유현 다미 가현 Ji-U Su-A SiYeon Handong YooHyun DaMi Gahyeon Happy Face Entertainment Prequel 1st mini album kpop k-pop rock
BeatmapID:1376531
BeatmapSetID:645657

[Difficulty]
HPDrainRate:5
CircleSize:4
OverallDifficulty:6
ApproachRate:7.5
SliderMultiplier:1.4
SliderTickRate:1

[Events]
//Background and Video events
0,0,"KakaoTalk_20170803_003304789.jpg",0,0
Video,0,"Dreamcatcher.avi"
//Break Periods
//Storyboard Layer 0 (Background)
//Storyboard Layer 1 (Fail)
//Storyboard Layer 2 (Pass)
//Storyboard Layer 3 (Foreground)
//Storyboard Sound Samples

[TimingPoints]
150,859.598853868195,4,2,1,5,1,0
579,750,4,2,1,5,1,0
954,674.157303370787,4,2,1,5,1,0
1291,631.578947368421,4,2,1,5,1,0
1606,535.714285714286,4,2,1,5,1,0
1873,458.015267175573,4,2,1,5,1,0
2102,588.235294117647,4,2,1,5,1,0
2396,625,4,2,1,5,1,0
3645,612.244897959184,4,2,1,5,1,0
4257,821.917808219178,4,2,1,5,1,0
4667,638.297872340426,4,2,1,5,1,0
4986,612.244897959184,4,2,1,5,1,0
5292,594.059405940594,4,2,1,5,1,0
5589,740.740740740741,4,2,1,5,1,0
5959,745.341614906832,4,2,1,5,1,0
6331,550.45871559633,4,2,1,5,1,0
6606,413.793103448276,4,2,1,5,1,0
7019,379.746835443038,4,2,1,5,1,0
7208,389.61038961039,4,2,1,5,1,0
7337,397.746835443038,4,2,1,5,1,0
7400,468.75,4,2,1,5,1,0
7478,428.571428571429,4,2,1,5,1,0
7549,666.666666666667,4,2,1,5,1,0
7660,483.870967741935,4,2,1,5,1,0
7740,566.037735849057,4,2,1,5,1,0
7834,631.578947368421,4,2,1,5,1,0
7939,588.235294117647,4,2,1,5,1,0
8037,625,4,2,1,5,1,0
8089,571.428571428571,4,2,1,5,1,0
8231,759.493670886076,4,2,1,5,1,0
8420,594.648166501487,4,2,1,5,1,0
10203,389.61038961039,4,2,1,10,1,0
10397,-100,4,2,1,12,0,0
10592,-100,4,2,1,14,0,0
10787,-100,4,2,1,16,0,0
10982,-100,4,2,1,18,0,0
11177,-100,4,2,1,20,0,0
11371,-100,4,2,1,22,0,0
11761,-111.111111111111,4,2,1,30,0,0
12735,-111.111111111111,4,2,1,60,0,0
13125,-100,4,2,1,60,0,0
24228,-200,4,2,1,70,0,0
24423,-76.9230769230769,4,2,1,70,0,0
24618,-76.9230769230769,4,2,1,50,0,0
24813,-76.9230769230769,4,2,1,70,0,0
25203,-76.9230769230769,4,2,1,50,0,0
25397,-76.9230769230769,4,2,1,70,0,0
25592,-76.9230769230769,4,2,1,50,0,0
25787,-100,4,2,1,70,0,0
25982,-100,4,2,1,60,0,0
26371,-100,4,2,1,70,0,0
26566,-100,4,2,1,60,0,0
26956,-100,4,2,1,70,0,0
27151,-100,4,2,1,60,0,0
27540,-100,4,2,1,70,0,0
27735,-100,4,2,1,60,0,0
28125,-100,4,2,1,70,0,0
28319,-100,4,2,1,60,0,0
28514,-100,4,2,1,50,0,0
29683,-100,4,2,1,30,0,0
30073,-100,4,2,1,50,0,0
30462,-125,4,2,1,40,0,0
41371,-100,4,2,1,70,0,0
42735,-111.111111111111,4,2,1,50,0,0
55203,-100,4,2,1,60,0,0
58514,-100,4,2,1,70,0,0
60073,-100,4,2,1,40,0,0
60267,-100,4,2,1,70,0,0
61436,-100,4,2,1,75,0,1
70982,-90.9090909090909,4,2,1,75,0,1
71371,-83.3333333333333,4,2,1,75,0,1
71956,-76.9230769230769,4,2,1,75,0,1
72735,-71.4285714285714,4,2,1,75,0,1
74001,-100,4,2,1,75,0,0
74099,-100,4,2,1,75,0,1
80235,-100,4,2,1,10,0,0
80332,-100,4,2,1,75,0,1
80917,-90.9090909090909,4,2,1,75,0,1
81501,-83.3333333333333,4,2,1,75,0,1
81891,-76.9230769230769,4,2,1,75,0,1
82475,-71.4285714285714,4,2,1,75,0,1
83060,-100,4,2,1,75,0,1
83449,-100,4,2,1,80,0,1
84813,-100,4,2,1,75,0,1
86566,-100,4,2,1,60,0,0
91241,-200,4,2,1,70,0,0
91436,-76.9230769230769,4,2,1,70,0,0
91631,-76.9230769230769,4,2,1,50,0,0
91826,-76.9230769230769,4,2,1,70,0,0
92021,-76.9230769230769,4,2,1,70,0,0
92215,-76.9230769230769,4,2,1,50,0,0
92410,-76.9230769230769,4,2,1,70,0,0
92605,-76.9230769230769,4,2,1,50,0,0
92800,-100,4,2,1,70,0,0
92995,-100,4,2,1,60,0,0
93384,-100,4,2,1,70,0,0
93579,-100,4,2,1,60,0,0
93969,-100,4,2,1,70,0,0
94164,-100,4,2,1,60,0,0
94553,-100,4,2,1,70,0,0
94748,-100,4,2,1,60,0,0
95138,-100,4,2,1,70,0,0
95332,-100,4,2,1,50,0,0
95917,-125,4,2,1,50,0,0
101566,-100,4,2,1,50,0,0
106826,-100,4,2,1,70,0,0
108190,-111.111111111111,4,2,1,50,0,0
120657,-100,4,2,1,60,0,0
123969,-100,4,2,1,70,0,0
125527,-100,4,2,1,40,0,0
125722,-100,4,2,1,70,0,0
126891,-100,4,2,1,75,0,1
136436,-90.9090909090909,4,2,1,75,0,1
136826,-83.3333333333333,4,2,1,75,0,1
137410,-76.9230769230769,4,2,1,75,0,1
138190,-71.4285714285714,4,2,1,75,0,1
139456,-66.6666666666667,4,2,1,75,0,0
139553,-100,4,2,1,75,0,1
145690,-100,4,2,1,10,0,0
145787,-100,4,2,1,75,0,1
146371,-90.9090909090909,4,2,1,75,0,1
146956,-83.3333333333333,4,2,1,75,0,1
147345,-76.9230769230769,4,2,1,75,0,1
147930,-71.4285714285714,4,2,1,75,0,1
148514,-100,4,2,1,75,0,1
148904,-100,4,2,1,80,0,1
150267,-100,4,2,1,75,0,1
152021,-100,4,2,1,60,0,0
158254,-90.9090909090909,4,2,1,70,0,0
159034,-83.3333333333333,4,2,1,70,0,0
159423,-76.9230769230769,4,2,1,70,0,0
159813,-71.4285714285714,4,2,1,70,0,0
160203,-111.111111111111,4,2,1,50,0,0
166047,-100,4,2,1,75,0,1
166631,-90.9090909090909,4,2,1,75,0,1
167215,-83.3333333333333,4,2,1,75,0,1
167605,-76.9230769230769,4,2,1,75,0,1
168190,-71.4285714285714,4,2,1,75,0,1
168774,-66.6666666666667,4,2,1,75,0,1
169164,-100,4,2,1,80,0,1
170917,-100,4,2,1,75,0,1
172280,-142.857142857143,4,2,1,30,0,0
177540,-142.857142857143,4,2,1,50,0,0
178514,-125,4,2,1,50,0,0
182897,-100,4,2,1,50,0,0
184358,-100,4,2,1,5,0,0
184553,-100,4,2,1,75,0,1
189228,-90.9090909090909,4,2,1,75,0,1
189423,-90.9090909090909,4,2,1,50,0,1
189618,-83.3333333333333,4,2,1,75,0,1
189813,-83.3333333333333,4,2,1,50,0,1
190008,-76.9230769230769,4,2,1,75,0,1
190884,-100,4,2,1,10,0,0
190982,-100,4,2,1,75,0,1
191566,-90.9090909090909,4,2,1,75,0,1
192151,-83.3333333333333,4,2,1,75,0,1
192540,-76.9230769230769,4,2,1,75,0,1
193125,-71.4285714285714,4,2,1,75,0,1
193709,-66.6666666666667,4,2,1,75,0,1
194099,-100,4,2,1,80,0,1
195462,-100,4,2,1,75,0,1
196826,-100,4,2,1,75,0,1
197215,-111.111111111111,4,2,1,30,0,0
208125,-111.111111111111,4,2,1,70,0,0
209293,-111.111111111111,4,2,1,5,0,0

[Colours]
Combo1 : 213,83,255
Combo2 : 255,64,69
Combo3 : 255,158,62
Combo4 : 255,255,83
Combo5 : 83,255,83
Combo6 : 114,222,254
Combo7 : 74,74,255

[HitObjects]
38,185,150,6,0,L|51:264,1,70,2|2,0:0|0:0,0:0:0:0:
117,179,954,2,0,L|130:258,1,70,2|2,0:0|0:0,0:0:0:0:
206,320,1606,6,0,L|217:250,1,70,2|2,0:0|0:0,0:0:0:0:
290,260,2102,2,0,L|301:190,1,70,2|2,0:0|0:0,0:0:0:0:
374,137,2708,2,0,L|385:206,1,70,2|2,0:0|0:0,0:0:0:0:
256,340,3645,6,0,P|191:321|128:349,1,140,2|2,0:0|0:0,0:0:0:0:
40,272,4667,6,0,L|28:197,1,70,2|2,0:0|0:0,0:0:0:0:
117,232,5292,2,0,L|105:157,1,70,2|2,0:0|0:0,0:0:0:0:
192,190,5959,2,0,L|180:115,1,70,2|2,0:0|0:0,0:0:0:0:
277,16,6606,6,0,L|290:90,1,70,2|0,0:0|0:0,0:0:0:0:
372,140,7019,2,0,L|384:219,1,70,2|0,0:0|0:0,0:0:0:0:
323,262,7400,6,0,B|296:250|296:250|272:264|272:264|246:252|246:252|222:266|222:266|196:255|196:255|171:269|171:269|146:258|146:258|121:272|121:272|95:260|95:260,1,248,2|2,0:0|0:0,0:0:0:0:
60,194,8420,6,0,P|70:56|164:157,1,350,2|2,0:0|0:0,0:0:0:0:
96,127,10203,5,2,0:0:0:0:
256,192,10300,12,0,11371,0:0:0:0:
87,142,11761,6,0,L|101:203,1,62.9999980773926,4|0,0:1|0:0,0:0:0:0:
174,163,12151,2,0,L|188:224,1,62.9999980773926,4|0,0:1|0:0,0:0:0:0:
212,302,12540,1,4,0:1:0:0:
270,245,12735,2,0,L|300:237,2,31.4999990386963,8|8|8,0:0|0:0|0:0,0:0:0:0:
137,280,13125,5,12,0:1:0:0:
94,361,13319,1,12,0:0:0:0:
14,318,13514,1,2,0:0:0:0:
61,242,13709,1,12,0:0:0:0:
61,242,14099,2,0,P|55:200|63:167,2,70,8|2|8,0:1|0:0|0:0,0:0:0:0:
145,208,14683,6,0,L|209:202,2,35,2|2|10,0:0|0:0|0:1,0:0:0:0:
181,291,15073,2,0,L|260:283,2,70,2|8|2,0:0|0:0|0:0,0:0:0:0:
230,367,15657,2,0,L|378:351,1,140,8|8,0:0|0:0,0:0:0:0:
448,306,16241,6,0,L|464:357,2,35,2|2|14,0:0|0:0|0:0,0:0:0:0:
410,222,16631,1,2,0:0:0:0:
335,274,16826,2,0,P|298:283|262:274,1,70,8|2,0:0|0:0,0:0:0:0:
98,207,17410,5,2,0:0:0:0:
98,207,17605,1,8,0:0:0:0:
98,207,17800,2,0,L|111:285,1,70,2|8,0:0|0:1,0:0:0:0:
179,334,18190,2,0,L|190:264,1,70,2|8,0:0|0:0,0:0:0:0:
262,209,18579,5,2,0:0:0:0:
262,209,18676,1,2,0:0:0:0:
262,209,18774,2,0,L|276:256,3,35,10|2|2|2,0:1|0:0|0:0|0:0,0:0:0:0:
317,249,19164,2,0,L|331:296,3,35,10|0|2|0,0:0|0:0|0:0|0:0,0:0:0:0:
371,288,19553,6,0,L|393:367,2,70,12|2|8,0:0|0:0|0:0,0:0:0:0:
461,301,20138,2,0,L|483:380,2,70,2|8|2,0:0|0:1|0:0,0:0:0:0:
428,215,20722,1,8,0:0:0:0:
371,288,20917,6,0,P|337:295|302:289,1,70,2|8,0:0|0:1,0:0:0:0:
224,242,21306,2,0,P|189:236|155:243,1,70,2|8,0:0|0:0,0:0:0:0:
82,298,21696,1,2,0:0:0:0:
82,298,21891,2,0,L|61:156,1,140,8|8,0:1|0:0,0:0:0:0:
136,107,22475,6,0,L|128:55,2,35,2|2|10,0:0|0:0|0:1,0:0:0:0:
157,202,22865,1,2,0:0:0:0:
157,202,23060,2,0,P|221:172|291:187,1,140,8|8,0:0|0:1,0:0:0:0:
391,333,23839,2,0,P|327:363|257:348,1,140,8|8,0:0|0:1,0:0:0:0:
166,279,24423,6,0,L|181:377,2,90.9999958343508,6|0|8,0:1|0:0|0:1,0:0:0:0:
239,185,25008,2,0,L|253:274,1,90.9999958343508,6|0,0:1|0:0,0:0:0:0:
351,341,25397,2,0,L|336:251,1,90.9999958343508,6|0,0:1|0:0,0:0:0:0:
403,188,25787,5,12,0:0:0:0:
403,188,25982,2,0,L|391:112,1,70,8|8,0:0|0:0,0:0:0:0:
320,175,26371,5,12,0:0:0:0:
320,175,26566,2,0,L|308:99,1,70,8|8,0:0|0:0,0:0:0:0:
233,157,26956,5,12,0:0:0:0:
233,157,27151,2,0,L|221:81,1,70,8|8,0:0|0:0,0:0:0:0:
150,144,27540,5,12,0:0:0:0:
150,144,27735,2,0,L|138:68,1,70,8|8,0:0|0:0,0:0:0:0:
69,134,28125,6,0,L|57:58,1,70,12|8,0:0|0:0,0:0:0:0:
42,201,28514,5,4,0:0:0:0:
42,292,28709,1,8,0:0:0:0:
128,320,28904,1,8,0:0:0:0:
181,246,29099,1,8,0:0:0:0:
132,178,29293,1,12,0:1:0:0:
132,178,29683,5,2,0:0:0:0:
311,148,30073,1,4,0:1:0:0:
311,148,30462,6,0,P|295:197|318:257,1,112,12|8,0:0|0:0,0:0:0:0:
386,282,31047,2,0,L|460:270,1,56,2|8,0:0|0:1,0:0:0:0:
476,202,31436,1,2,0:0:0:0:
476,202,31631,1,8,0:0:0:0:
476,202,31826,2,0,L|402:190,1,56,2|8,0:0|0:1,0:0:0:0:
34,124,32995,5,2,0:0:0:0:
34,124,33190,1,8,0:0:0:0:
34,124,33385,2,0,L|108:136,1,56,2|8,0:0|0:1,0:0:0:0:
208,235,33969,1,8,0:0:0:0:
208,235,34164,2,0,L|134:247,1,56,2|8,0:0|0:1,0:0:0:0:
115,313,34553,1,2,0:0:0:0:
115,313,34748,1,8,0:0:0:0:
115,313,34943,2,0,L|189:325,1,56,2|8,0:0|0:1,0:0:0:0:
494,373,36112,5,2,0:0:0:0:
494,373,36307,1,8,0:0:0:0:
494,373,36501,2,0,P|476:317|493:261,1,112,2|0,0:0|0:0,0:0:0:0:
435,208,37086,2,0,L|374:203,1,56,8|2,0:0|0:0,0:0:0:0:
222,207,37670,5,2,0:0:0:0:
222,207,37865,1,8,0:0:0:0:
222,207,38059,2,0,P|240:263|223:319,1,112,2|0,0:0|0:0,0:0:0:0:
281,372,38644,2,0,L|342:377,1,56,8|2,0:0|0:0,0:0:0:0:
475,302,39228,5,2,0:0:0:0:
475,302,39423,1,8,0:0:0:0:
475,302,39618,2,0,P|457:246|474:190,1,112,2|0,0:0|0:0,0:0:0:0:
416,137,40202,2,0,L|355:132,1,56,8|2,0:0|0:0,0:0:0:0:
204,111,40787,1,2,0:0:0:0:
228,191,40982,1,8,0:0:0:0:
228,191,41371,5,12,0:0:0:0:
89,240,41566,1,12,0:0:0:0:
96,248,41956,5,8,0:0:0:0:
96,248,42053,1,8,0:0:0:0:
96,248,42151,1,12,0:0:0:0:
47,109,42346,1,12,0:0:0:0:
47,109,42735,5,2,0:0:0:0:
115,153,42930,2,0,P|169:171|243:148,1,125.999996154785,12|8,0:0|0:0,0:0:0:0:
300,105,43514,1,2,0:0:0:0:
300,105,43904,5,2,0:0:0:0:
318,184,44099,1,8,0:0:0:0:
340,268,44293,1,2,0:0:0:0:
340,268,44683,5,2,0:0:0:0:
260,285,44878,1,8,0:0:0:0:
183,307,45072,1,2,0:0:0:0:
183,307,45462,5,2,0:0:0:0:
161,223,45656,1,8,0:0:0:0:
143,144,45852,2,0,P|198:151|241:224,1,125.999996154785,2|0,0:0|0:0,0:0:0:0:
260,285,46436,2,0,L|329:267,1,62.9999980773926,8|2,0:0|0:0,0:0:0:0:
480,228,47021,6,0,P|472:194|480:158,1,62.9999980773926,2|8,0:0|0:0,0:0:0:0:
506,90,47410,1,2,0:0:0:0:
424,101,47605,2,0,B|364:127|364:81|301:100,1,125.999996154785,8|8,0:1|0:0,0:0:0:0:
71,185,48579,5,2,0:0:0:0:
147,156,48774,1,8,0:0:0:0:
130,236,48969,2,0,P|115:301|138:354,1,125.999996154785,2|0,0:0|0:0,0:0:0:0:
219,346,49553,2,0,P|254:340|290:350,1,62.9999980773926,8|2,0:0|0:0,0:0:0:0:
444,355,50138,5,2,0:0:0:0:
368,384,50333,1,8,0:0:0:0:
385,304,50528,2,0,P|400:239|377:186,1,125.999996154785,2|0,0:0|0:0,0:0:0:0:
296,194,51112,2,0,P|261:200|225:190,1,62.9999980773926,8|2,0:0|0:0,0:0:0:0:
109,88,51696,5,2,0:0:0:0:
185,59,51891,1,8,0:0:0:0:
168,139,52086,2,0,P|153:204|176:257,1,125.999996154785,2|0,0:0|0:0,0:0:0:0:
260,275,52670,5,8,0:0:0:0:
260,275,52865,2,0,L|334:272,1,62.9999980773926,2|8,0:0|0:1,0:0:0:0:
391,317,53254,1,2,0:0:0:0:
389,238,53449,1,8,0:0:0:0:
389,238,53839,2,0,L|377:101,3,125.999996154785,8|8|8|8,0:1|0:0|0:1|0:0,0:0:0:0:
364,21,55203,5,2,0:0:0:0:
300,85,55397,2,0,L|264:94,3,35,12|8|8|8,0:0|0:0|0:0|0:0,0:0:0:0:
232,103,55787,1,8,0:0:0:0:
190,183,55982,2,0,P|182:216|192:258,1,70,8|8,0:0|0:0,0:0:0:0:
266,317,56371,1,8,0:0:0:0:
266,317,56469,1,8,0:0:0:0:
266,317,56566,1,8,0:0:0:0:
441,267,56956,5,12,0:0:0:0:
355,235,57151,1,8,0:0:0:0:
423,176,57345,1,8,0:0:0:0:
441,267,57540,2,0,L|454:349,2,70,8|8|8,0:0|0:0|0:0,0:0:0:0:
427,180,58125,1,8,0:0:0:0:
427,180,58514,5,4,0:1:0:0:
301,245,58709,1,4,0:1:0:0:
301,245,59099,5,4,0:1:0:0:
417,322,59293,1,4,0:1:0:0:
427,180,59488,1,12,0:0:0:0:
427,180,59878,6,0,L|349:176,1,70,12|0,0:0|0:0,0:0:0:0:
230,118,60267,1,4,0:1:0:0:
269,253,60462,1,4,0:1:0:0:
135,292,60657,1,4,0:1:0:0:
96,157,60852,1,4,0:0:0:0:
96,157,61436,6,0,P|160:184|233:150,1,140,6|8,0:1|0:1,0:0:0:0:
285,94,62021,2,0,P|319:84|353:91,1,70,8|0,0:0|0:0,0:0:0:0:
394,173,62410,2,0,P|360:182|326:175,1,70,8|2,0:1|0:0,0:0:0:0:
285,94,62800,5,8,0:0:0:0:
244,175,62995,2,0,L|227:246,1,70,2|8,0:0|0:1,0:0:0:0:
157,301,63384,2,0,L|140:232,1,70,2|8,0:0|0:0,0:0:0:0:
73,171,63774,2,0,L|56:239,1,70,2|10,0:0|0:1,0:0:0:0:
183,370,64358,5,8,0:0:0:0:
256,317,64553,2,0,P|291:309|325:317,1,70,2|8,0:0|0:1,0:0:0:0:
408,355,64943,2,0,P|442:362|476:354,2,70,2|8|2,0:0|0:0|0:0,0:0:0:0:
439,269,65527,1,8,0:1:0:0:
461,185,65722,1,2,0:0:0:0:
461,185,66112,6,0,P|426:194|382:181,1,70,2|8,0:0|0:1,0:0:0:0:
315,140,66501,2,0,P|280:133|247:142,1,70,2|8,0:0|0:0,0:0:0:0:
156,181,66891,2,0,P|149:268|229:232,1,210,2|8,0:0|0:0,0:0:0:0:
319,74,67865,6,0,L|311:228,1,140,6|8,0:0|0:0,0:0:0:0:
397,243,68449,2,0,L|404:103,1,140,2|2,0:0|0:0,0:0:0:0:
319,74,69034,1,8,0:0:0:0:
232,45,69228,1,2,0:0:0:0:
165,106,69423,6,0,P|140:169|168:231,1,140,8|8,0:1|0:0,0:0:0:0:
256,256,70008,1,2,0:0:0:0:
343,231,70203,2,0,P|371:169|347:106,1,140,8|10,0:1|0:0,0:0:0:0:
159,33,70982,6,0,L|82:42,1,77.0000023498536,4|0,0:0|0:0,0:0:0:0:
6,121,71371,5,8,0:0:0:0:
6,121,71566,2,0,L|96:131,1,83.9999974365235,4|8,0:0|0:1,0:0:0:0:
191,204,71956,5,2,0:0:0:0:
191,204,72151,2,0,L|6:224,1,181.999991668702,12|8,0:0|0:1,0:0:0:0:
103,310,72735,6,0,L|239:324,1,97.9999970092774,6|0,0:1|0:0,0:0:0:0:
327,335,73125,2,0,P|322:359|331:387,2,48.9999985046387,8|8|8,0:0|0:0|0:0,0:0:0:0:
386,192,73514,1,6,0:1:0:0:
445,335,73709,2,0,P|450:359|441:387,2,48.9999985046387,8|8|8,0:0|0:0|0:0,0:0:0:0:
386,192,74099,6,0,P|351:201|309:187,1,70,6|0,0:1|0:0,0:0:0:0:
353,108,74488,2,0,P|388:99|430:113,1,70,8|0,0:0|0:0,0:0:0:0:
481,174,74878,2,0,L|493:244,1,70,8|2,0:1|0:0,0:0:0:0:
508,332,75267,5,8,0:0:0:0:
423,298,75462,2,0,P|351:283|291:312,1,140,2|2,0:0|0:0,0:0:0:0:
223,370,76047,1,8,0:0:0:0:
207,286,76241,1,2,0:0:0:0:
207,286,76631,5,2,0:0:0:0:
142,222,76826,2,0,P|106:217|64:229,1,70,8|2,0:0|0:0,0:0:0:0:
2,281,77215,2,0,L|-1:137,1,140,10|8,0:1|0:0,0:0:0:0:
6,49,77800,6,0,P|68:75|140:48,1,140,2|2,0:0|0:0,0:0:0:0:
221,27,78384,2,0,P|255:19|292:28,1,70,10|2,0:0|0:0,0:0:0:0:
396,174,78969,6,0,P|362:182|325:173,1,70,2|8,0:0|0:0,0:0:0:0:
244,139,79358,2,0,P|236:173|244:207,1,70,2|8,0:0|0:1,0:0:0:0:
282,289,79748,2,0,P|248:297|214:289,1,70,2|12,0:0|0:0,0:0:0:0:
43,184,80332,6,0,L|27:94,2,70,4|8|8,0:1|0:0|0:0,0:0:0:0:
124,175,80917,6,0,L|106:77,2,77.0000023498536,4|0|8,0:1|0:0|0:0,0:0:0:0:
204,162,81501,6,0,L|185:59,1,83.9999974365235,4|8,0:1|0:0,0:0:0:0:
268,60,81891,6,0,L|284:153,2,90.9999958343508,4|8|8,0:1|0:0|0:0,0:0:0:0:
346,40,82475,6,0,L|362:141,1,97.9999970092774,4|0,0:1|0:0,0:0:0:0:
391,316,83060,6,0,L|384:267,3,35,12|8|8|8,0:1|0:0|0:0|0:0,0:0:0:0:
378,247,83449,5,4,0:1:0:0:
304,146,83644,1,8,0:0:0:0:
423,184,83839,1,8,0:0:0:0:
304,223,84034,1,8,0:0:0:0:
378,122,84228,2,0,P|386:85|369:43,2,70,8|8|12,0:0|0:0|0:0,0:0:0:0:
291,91,84813,6,0,L|256:94,2,35,8|8|8,0:0|0:0|0:0,0:0:0:0:
273,180,85203,2,0,L|238:183,2,35,12|8|8,0:0|0:0|0:0,0:0:0:0:
255,269,85592,2,0,L|220:272,2,35,8|8|12,0:0|0:0|0:0,0:0:0:0:
237,358,85982,2,0,L|202:361,2,35,8|8|12,0:0|0:0|0:0,0:0:0:0:
398,272,86566,5,12,0:0:0:0:
374,361,86760,1,2,0:0:0:0:
462,384,86955,1,8,0:0:0:0:
485,297,87151,2,0,L|506:205,1,70,2|8,0:0|0:1,0:0:0:0:
402,74,87735,6,0,P|369:82|335:76,1,70,8|2,0:0|0:0,0:0:0:0:
248,48,88125,2,0,P|213:41|180:50,2,70,8|2|8,0:1|0:0|0:0,0:0:0:0:
335,76,88709,1,2,0:0:0:0:
267,136,88904,2,0,P|245:202|274:263,1,140,8|8,0:1|0:0,0:0:0:0:
347,315,89488,6,0,L|349:356,2,35,2|2|10,0:0|0:0|0:1,0:0:0:0:
345,223,89878,1,2,0:0:0:0:
421,271,90073,2,0,P|456:279|493:271,1,70,8|2,0:0|0:0,0:0:0:0:
485,90,90657,2,0,P|449:81|413:90,2,70,2|8|2,0:0|0:0|0:0,0:0:0:0:
343,279,91436,6,0,L|328:377,2,90.9999958343508,6|0|8,0:1|0:0|0:1,0:0:0:0:
253,200,92021,2,0,L|239:289,1,90.9999958343508,6|0,0:1|0:0,0:0:0:0:
129,335,92410,2,0,L|144:245,1,90.9999958343508,6|0,0:1|0:0,0:0:0:0:
162,155,92800,5,12,0:0:0:0:
162,155,92995,2,0,L|174:79,1,70,8|8,0:0|0:0,0:0:0:0:
245,142,93384,5,12,0:0:0:0:
245,142,93579,2,0,L|257:66,1,70,8|8,0:0|0:0,0:0:0:0:
332,124,93969,5,12,0:0:0:0:
332,124,94164,2,0,L|344:48,1,70,8|8,0:0|0:0,0:0:0:0:
415,111,94553,5,12,0:0:0:0:
415,111,94748,2,0,L|427:35,1,70,8|8,0:0|0:0,0:0:0:0:
495,102,95138,5,12,0:1:0:0:
495,102,95332,2,0,L|501:56,2,35,8|8|12,0:1|0:1|0:1,0:0:0:0:
462,244,95917,6,0,L|401:237,1,56,12|2,0:0|0:0,0:0:0:0:
390,314,96306,2,0,L|329:307,1,56,8|2,0:0|0:0,0:0:0:0:
179,281,96891,5,2,0:0:0:0:
205,207,97086,1,8,0:0:0:0:
235,136,97280,1,2,0:0:0:0:
235,136,97670,6,0,L|290:142,1,56,2|8,0:0|0:0,0:0:0:0:
307,66,98059,2,0,L|362:72,1,56,2|0,0:0|0:0,0:0:0:0:
495,157,98644,5,8,0:0:0:0:
469,231,98839,1,2,0:0:0:0:
441,306,99033,1,8,0:1:0:0:
441,306,99423,6,0,L|385:299,1,56,8|2,0:0|0:0,0:0:0:0:
369,376,99813,2,0,L|313:369,1,56,8|2,0:1|0:0,0:0:0:0:
157,348,100397,5,2,0:0:0:0:
157,348,100592,2,0,P|175:290|153:239,2,112,8|8|8,0:1|0:0|0:1,0:0:0:0:
82,295,101566,6,0,P|48:303|4:291,2,70,2|8|2,0:0|0:0|0:0,0:0:0:0:
47,210,102151,1,6,0:0:0:0:
129,171,102345,1,2,0:0:0:0:
129,171,102443,2,0,P|136:132|123:94,1,70,2|2,0:0|0:0,0:0:0:0:
108,61,102735,2,0,L|196:52,1,70,2|8,0:0|0:1,0:0:0:0:
343,128,103319,6,0,P|349:162|341:195,1,70,6|2,0:0|0:0,0:0:0:0:
256,160,103709,1,8,0:1:0:0:
217,242,103903,1,2,0:0:0:0:
217,242,104001,2,0,P|178:249|140:236,1,70,2|2,0:0|0:0,0:0:0:0:
107,221,104293,2,0,L|98:309,1,70,2|8,0:0|0:1,0:0:0:0:
89,381,104683,5,2,0:0:0:0:
169,339,104878,2,0,P|205:331|254:346,1,70,8|2,0:0|0:0,0:0:0:0:
328,370,105267,1,8,0:1:0:0:
328,370,105657,5,8,0:0:0:0:
345,280,105852,1,2,0:0:0:0:
367,195,106047,1,8,0:1:0:0:
367,195,106436,2,0,P|330:201|289:190,1,70,8|2,0:0|0:0,0:0:0:0:
175,115,106826,5,12,0:0:0:0:
126,254,107021,1,12,0:0:0:0:
133,262,107411,5,8,0:0:0:0:
133,262,107508,1,8,0:0:0:0:
133,262,107606,1,12,0:0:0:0:
272,311,107801,1,12,0:0:0:0:
272,311,108190,5,2,0:0:0:0:
325,249,108385,2,0,P|383:219|453:254,1,125.999996154785,12|8,0:0|0:0,0:0:0:0:
392,307,108969,1,2,0:0:0:0:
392,307,109359,5,2,0:0:0:0:
308,329,109553,1,8,0:0:0:0:
233,355,109748,1,2,0:0:0:0:
233,355,110138,5,2,0:0:0:0:
216,275,110333,1,8,0:0:0:0:
198,199,110527,1,2,0:0:0:0:
198,199,110917,5,2,0:0:0:0:
282,177,111111,1,8,0:0:0:0:
361,159,111307,2,0,P|354:214|281:257,1,125.999996154785,2|0,0:0|0:0,0:0:0:0:
224,284,111891,2,0,L|244:357,1,62.9999980773926,8|2,0:0|0:0,0:0:0:0:
402,371,112475,6,0,L|385:310,1,62.9999980773926,2|8,0:0|0:0,0:0:0:0:
431,241,112865,1,2,0:0:0:0:
349,233,113060,2,0,B|289:207|289:253|226:234,1,125.999996154785,8|8,0:1|0:0,0:0:0:0:
22,96,114034,5,2,0:0:0:0:
98,67,114229,1,8,0:0:0:0:
81,147,114424,2,0,L|66:281,1,125.999996154785,2|0,0:0|0:0,0:0:0:0:
143,301,115008,2,0,L|150:237,1,62.9999980773926,8|2,0:0|0:0,0:0:0:0:
192,80,115592,5,2,0:0:0:0:
268,51,115787,1,8,0:0:0:0:
251,131,115982,2,0,L|236:265,1,125.999996154785,2|0,0:0|0:0,0:0:0:0:
313,285,116566,2,0,L|320:221,1,62.9999980773926,8|2,0:0|0:0,0:0:0:0:
366,64,117151,5,2,0:0:0:0:
442,35,117346,1,8,0:0:0:0:
425,115,117541,2,0,L|410:249,1,125.999996154785,2|0,0:0|0:0,0:0:0:0:
402,325,118125,5,8,0:0:0:0:
402,325,118320,2,0,P|367:318|330:326,1,62.9999980773926,2|8,0:0|0:1,0:0:0:0:
271,367,118709,1,2,0:0:0:0:
273,288,118904,1,8,0:0:0:0:
273,288,119294,2,0,L|285:151,3,125.999996154785,8|8|8|8,0:1|0:0|0:1|0:0,0:0:0:0:
294,71,120658,5,2,0:0:0:0:
214,114,120852,2,0,L|176:115,3,35,12|8|8|8,0:0|0:0|0:0|0:0,0:0:0:0:
144,116,121242,1,8,0:0:0:0:
60,80,121437,2,0,P|52:113|62:155,1,70,8|8,0:0|0:0,0:0:0:0:
135,213,121826,1,8,0:0:0:0:
135,213,121924,1,8,0:0:0:0:
135,213,122021,1,8,0:0:0:0:
266,86,122411,5,8,0:0:0:0:
252,173,122606,1,8,0:0:0:0:
180,118,122800,1,8,0:0:0:0:
266,86,122995,2,0,L|279:4,2,70,8|8|8,0:0|0:0|0:0,0:0:0:0:
257,177,123580,1,8,0:0:0:0:
257,177,123969,5,4,0:1:0:0:
383,242,124164,1,4,0:1:0:0:
383,242,124554,5,4,0:1:0:0:
267,319,124748,1,4,0:1:0:0:
257,177,124943,1,12,0:0:0:0:
257,177,125333,6,0,L|173:193,1,70,12|0,0:0|0:0,0:0:0:0:
51,215,125722,1,4,0:1:0:0:
74,352,125917,1,4,0:1:0:0:
212,328,126112,1,4,0:1:0:0:
188,190,126307,1,12,0:0:0:0:
188,190,126891,6,0,P|252:217|325:183,1,140,6|8,0:1|0:1,0:0:0:0:
401,163,127476,2,0,L|420:233,1,70,8|0,0:0|0:0,0:0:0:0:
457,313,127865,2,0,P|423:322|389:315,1,70,8|2,0:1|0:0,0:0:0:0:
312,273,128255,5,8,0:0:0:0:
242,214,128450,2,0,P|204:205|169:214,1,70,2|8,0:0|0:1,0:0:0:0:
106,273,128839,2,0,L|89:204,1,70,2|8,0:0|0:0,0:0:0:0:
27,137,129229,2,0,L|10:205,1,70,2|10,0:0|0:1,0:0:0:0:
98,364,129813,5,8,0:0:0:0:
180,326,130008,2,0,P|215:318|249:326,1,70,2|8,0:0|0:1,0:0:0:0:
326,279,130398,2,0,L|337:203,2,70,2|8|2,0:0|0:0|0:0,0:0:0:0:
326,370,130982,1,8,0:1:0:0:
252,330,131177,1,2,0:0:0:0:
252,330,131567,6,0,P|214:323|180:333,1,70,2|8,0:0|0:1,0:0:0:0:
93,319,131956,2,0,L|84:246,1,70,2|8,0:0|0:0,0:0:0:0:
87,158,132346,2,0,P|80:245|160:209,1,210,2|8,0:0|0:0,0:0:0:0:
294,87,133320,6,0,P|359:64|425:86,1,140,6|8,0:0|0:0,0:0:0:0:
430,177,133904,2,0,P|365:199|299:177,1,140,2|2,0:0|0:0,0:0:0:0:
219,133,134489,1,8,0:0:0:0:
294,87,134683,1,2,0:0:0:0:
299,177,134878,6,0,P|324:240|296:302,1,140,8|8,0:1|0:0,0:0:0:0:
204,301,135463,1,2,0:0:0:0:
204,301,135658,2,0,P|176:239|200:176,1,140,8|10,0:1|0:0,0:0:0:0:
352,44,136437,6,0,L|429:53,1,77.0000023498536,4|0,0:0|0:0,0:0:0:0:
505,132,136826,5,8,0:0:0:0:
505,132,137021,2,0,L|415:142,1,83.9999974365235,4|8,0:0|0:1,0:0:0:0:
320,215,137411,5,2,0:0:0:0:
320,215,137606,2,0,L|505:235,1,181.999991668702,12|8,0:0|0:1,0:0:0:0:
399,312,138190,6,0,L|263:326,1,97.9999970092774,6|0,0:0|0:0,0:0:0:0:
175,337,138580,2,0,P|180:361|171:389,2,48.9999985046387,8|8|8,0:0|0:0|0:0,0:0:0:0:
116,194,138969,1,12,0:1:0:0:
57,337,139164,2,0,P|52:361|61:389,2,48.9999985046387,8|8|8,0:0|0:0|0:0,0:0:0:0:
116,194,139554,6,0,L|111:119,1,70,6|0,0:1|0:0,0:0:0:0:
193,163,139943,2,0,L|231:96,1,70,8|2,0:0|0:0,0:0:0:0:
274,180,140333,2,0,L|343:148,1,70,8|2,0:1|0:0,0:0:0:0:
422,116,140722,5,8,0:0:0:0:
483,48,140917,2,0,P|512:103|483:183,1,140,2|2,0:0|0:0,0:0:0:0:
411,220,141502,1,8,0:0:0:0:
326,246,141696,1,2,0:0:0:0:
326,246,142086,5,2,0:0:0:0:
352,158,142281,2,0,P|357:122|345:80,1,70,8|2,0:0|0:0,0:0:0:0:
266,127,142670,2,0,L|126:129,1,140,10|8,0:1|0:0,0:0:0:0:
34,132,143255,6,0,P|60:194|33:266,1,140,2|2,0:0|0:0,0:0:0:0:
7,346,143839,2,0,L|79:339,1,70,10|2,0:0|0:0,0:0:0:0:
258,317,144424,6,0,P|250:283|259:246,1,70,2|8,0:0|0:0,0:0:0:0:
341,284,144813,2,0,P|375:292|409:284,1,70,2|8,0:0|0:1,0:0:0:0:
493,317,145203,2,0,P|501:283|493:249,1,70,2|12,0:0|0:0,0:0:0:0:
379,107,145787,6,0,L|361:17,2,70,4|8|8,0:1|0:0|0:0,0:0:0:0:
300,128,146372,6,0,L|281:30,2,77.0000023498536,4|0|8,0:1|0:0|0:0,0:0:0:0:
220,144,146956,6,0,L|200:41,1,83.9999974365235,4|8,0:1|0:0,0:0:0:0:
124,72,147346,6,0,L|142:164,2,90.9999958343508,4|8|8,0:1|0:0|0:0,0:0:0:0:
44,81,147930,6,0,L|65:181,1,97.9999970092774,4|0,0:1|0:0,0:0:0:0:
112,353,148515,6,0,L|159:337,3,35,12|8|8|8,0:1|0:0|0:0|0:0,0:0:0:0:
178,328,148904,5,12,0:1:0:0:
264,238,149099,1,8,0:0:0:0:
247,362,149294,1,8,0:0:0:0:
188,251,149489,1,8,0:0:0:0:
301,306,149683,2,0,P|338:307|377:283,2,70,8|8|12,0:0|0:0|0:0,0:0:0:0:
317,215,150268,6,0,L|314:180,2,35,8|8|8,0:0|0:0|0:0,0:0:0:0:
228,197,150658,2,0,L|225:162,2,35,12|8|8,0:0|0:0|0:0,0:0:0:0:
139,179,151047,2,0,L|136:144,2,35,8|8|12,0:0|0:0|0:0,0:0:0:0:
50,161,151437,2,0,L|47:126,2,35,8|8|12,0:0|0:0|0:0,0:0:0:0:
166,301,152021,6,0,L|213:295,3,35,8|8|8|8,0:0|0:0|0:0|0:0,0:0:0:0:
326,349,152605,2,0,L|416:339,2,70,8|8|8,0:0|0:0|0:0,0:0:0:0:
283,267,153190,2,0,P|273:232|283:191,1,70,8|8,0:0|0:0,0:0:0:0:
300,110,153579,6,0,L|253:116,3,35,8|8|8|8,0:0|0:0|0:0|0:0,0:0:0:0:
140,62,154163,2,0,L|50:72,2,70,8|8|8,0:0|0:0|0:0,0:0:0:0:
183,144,154748,2,0,P|192:178|183:220,1,70,12|0,0:1|0:0,0:0:0:0:
161,299,155138,6,0,L|208:293,3,35,8|8|8|8,0:0|0:0|0:0|0:0,0:0:0:0:
321,347,155722,2,0,L|411:337,2,70,8|8|8,0:0|0:0|0:0,0:0:0:0:
278,265,156307,2,0,P|268:230|278:189,1,70,8|8,0:0|0:0,0:0:0:0:
314,115,156696,6,0,L|372:106,3,35,8|8|8|8,0:0|0:0|0:0|0:0,0:0:0:0:
442,208,157280,2,0,L|524:201,1,70,8|8,0:0|0:0,0:0:0:0:
498,111,157670,1,8,0:0:0:0:
498,111,157767,1,8,0:0:0:0:
498,111,157865,2,0,P|487:72|498:30,1,70,8|8,0:0|0:0,0:0:0:0:
392,34,158254,5,12,0:0:0:0:
392,34,158449,2,0,P|316:59|236:38,1,154.000004699707,4|8,0:1|0:0,0:0:0:0:
212,36,158936,1,8,0:0:0:0:
212,36,159034,6,0,L|204:137,1,83.9999974365235,12|0,0:1|0:0,0:0:0:0:
196,237,159423,6,0,P|241:227|300:244,1,90.9999958343508,12|0,0:1|0:0,0:0:0:0:
357,339,159813,6,0,P|438:343|398:274,1,195.999994018555,12|8,0:0|0:0,0:0:0:0:
284,235,160397,6,0,L|271:99,2,125.999996154785,2|2|2,0:0|0:0|0:0,0:0:0:0:
207,264,161371,2,0,L|192:138,1,125.999996154785,8|8,0:0|0:0,0:0:0:0:
187,63,161956,5,2,0:0:0:0:
187,63,162151,1,8,0:1:0:0:
187,63,162345,2,0,P|224:66|259:57,1,62.9999980773926,2|8,0:0|0:0,0:0:0:0:
329,43,162735,2,0,P|359:37|391:40,1,62.9999980773926,2|8,0:0|0:1,0:0:0:0:
500,167,163319,5,8,0:0:0:0:
500,167,163514,2,0,L|493:232,1,62.9999980773926,2|8,0:0|0:1,0:0:0:0:
415,202,163904,2,0,L|407:266,1,62.9999980773926,2|8,0:0|0:0,0:0:0:0:
392,345,164293,2,0,P|327:328|267:347,1,125.999996154785,2|2,0:0|0:0,0:0:0:0:
193,368,164878,2,0,L|174:232,1,125.999996154785,8|8,0:0|0:1,0:0:0:0:
164,161,165462,5,2,0:0:0:0:
239,192,165657,1,8,0:0:0:0:
175,243,165852,1,2,0:0:0:0:
83,170,166047,6,0,L|67:80,2,70,4|8|8,0:1|0:0|0:0,0:0:0:0:
164,161,166632,6,0,L|146:63,2,77.0000023498536,4|0|8,0:1|0:0|0:0,0:0:0:0:
244,148,167216,6,0,L|225:45,1,83.9999974365235,4|8,0:1|0:0,0:0:0:0:
308,46,167606,6,0,L|324:139,2,90.9999958343508,4|8|8,0:1|0:0|0:0,0:0:0:0:
386,26,168190,6,0,L|402:127,2,97.9999970092774,4|0|8,0:1|0:0|0:0,0:0:0:0:
466,11,168774,6,0,L|483:118,1,105.000004005432,4|0,0:1|0:0,0:0:0:0:
500,228,169164,5,12,0:1:0:0:
381,267,169359,1,8,0:0:0:0:
499,306,169554,1,8,0:0:0:0:
426,204,169749,1,8,0:0:0:0:
426,330,169943,2,0,P|396:342|352:336,1,70,8|8,0:0|0:0,0:0:0:0:
243,285,170332,2,0,P|208:281|176:293,1,70,8|8,0:0|0:0,0:0:0:0:
279,354,170722,1,12,0:0:0:0:
381,267,170917,6,0,L|389:227,3,35,12|8|8|8,0:1|0:0|0:0|0:0,0:0:0:0:
393,199,171306,1,8,0:0:0:0:
303,184,171501,2,0,L|295:144,3,35,12|8|8|8,0:1|0:0|0:0|0:0,0:0:0:0:
291,116,171890,1,12,0:0:0:0:
159,181,172280,6,0,P|108:196|58:177,1,97.9999970092774,12|2,0:0|0:0,0:0:0:0:
23,324,173060,2,0,L|31:385,2,48.9999985046387,2|2|2,0:0|0:0|0:0,0:0:0:0:
95,309,173644,6,0,P|140:323|195:304,1,97.9999970092774,2|2,0:0|0:0,0:0:0:0:
243,173,174423,2,0,P|198:159|143:178,1,97.9999970092774,2|0,0:0|0:0,0:0:0:0:
81,198,175008,5,2,0:0:0:0:
81,198,175203,2,0,L|55:94,1,97.9999970092774,2|2,0:0|0:0,0:0:0:0:
122,68,175787,2,0,P|152:70|178:62,1,48.9999985046387,2|2,0:0|0:0,0:0:0:0:
241,48,176177,2,0,P|264:42|288:46,1,48.9999985046387,2|2,0:0|0:0,0:0:0:0:
392,150,176761,6,0,P|382:194|407:254,1,97.9999970092774,2|2,0:0|0:0,0:0:0:0:
484,362,177540,2,0,P|507:300|439:321,1,146.999995513916,2|4,0:0|0:0,0:0:0:0:
301,356,178514,6,0,P|245:373|191:356,1,112,2|2,0:1|0:0,0:0:0:0:
139,303,179099,2,0,L|150:233,1,56,2|0,0:0|0:0,0:0:0:0:
71,230,179488,2,0,L|82:160,1,56,2|2,0:0|0:0,0:0:0:0:
97,97,179878,2,0,P|153:114|207:97,1,112,2|0,0:0|0:0,0:0:0:0:
352,51,180657,5,2,0:0:0:0:
352,51,180852,2,0,L|345:174,1,112,2|2,0:0|0:0,0:0:0:0:
334,319,181631,2,0,P|275:303|219:323,1,112,2|2,0:0|0:0,0:0:0:0:
154,346,182215,2,0,L|141:219,1,112,2|2,0:0|0:0,0:0:0:0:
270,160,182897,6,4,P|140:234|227:47,1,525,6|4,0:0|0:0,0:0:0:0:
187,157,184553,6,0,P|142:118|195:119,1,140,6|8,0:1|0:1,0:0:0:0:
284,90,185138,2,0,L|377:98,1,70,8|0,0:0|0:0,0:0:0:0:
409,167,185527,2,0,L|316:175,1,70,8|2,0:1|0:0,0:0:0:0:
248,185,185917,5,8,0:0:0:0:
163,235,186112,2,0,P|154:272|167:318,1,70,2|8,0:0|0:1,0:0:0:0:
243,354,186501,2,0,L|92:353,1,140,2|2,0:0|0:0,0:0:0:0:
35,183,187280,5,2,0:0:0:0:
122,228,187475,2,0,P|170:244|235:223,1,105,8|2,0:0|0:0,0:0:0:0:
264,206,187865,2,0,L|249:349,1,140,8|8,0:1|0:0,0:0:0:0:
339,384,188449,2,0,L|353:244,1,140,2|2,0:0|0:0,0:0:0:0:
366,146,189034,1,8,0:0:0:0:
438,215,189229,6,0,P|478:225|525:212,1,77.0000023498536,4|0,0:1|0:0,0:0:0:0:
512,107,189618,6,0,P|472:97|421:111,1,83.9999974365235,4|0,0:1|0:0,0:0:0:0:
328,166,190008,6,0,P|233:198|155:164,1,181.999991668702,4|2,0:1|0:0,0:0:0:0:
69,94,190592,1,12,0:0:0:0:
81,275,190982,6,0,L|98:364,2,70,4|8|8,0:1|0:0|0:0,0:0:0:0:
160,254,191567,6,0,L|178:351,2,77.0000023498536,4|0|8,0:1|0:0|0:0,0:0:0:0:
239,237,192151,6,0,L|258:339,1,83.9999974365235,4|8,0:1|0:0,0:0:0:0:
336,310,192541,6,0,L|317:217,2,90.9999958343508,4|8|8,0:1|0:0|0:0,0:0:0:0:
416,300,193125,6,0,L|394:199,2,97.9999970092774,4|0|8,0:1|0:0|0:0,0:0:0:0:
496,286,193709,6,0,L|473:180,1,105.000004005432,4|0,0:1|0:0,0:0:0:0:
489,29,194099,5,12,0:0:0:0:
370,68,194294,1,8,0:0:0:0:
488,107,194489,1,8,0:0:0:0:
415,5,194684,1,8,0:0:0:0:
415,131,194878,2,0,P|385:143|341:137,2,70,8|8|8,0:0|0:0|0:0,0:0:0:0:
490,194,195463,6,0,L|490:235,2,35,8|8|8,0:0|0:0|0:0,0:0:0:0:
419,252,195853,2,0,L|419:300,2,35,12|0|8,0:0|0:0|0:0,0:0:0:0:
337,211,196241,1,12,0:0:0:0:
258,256,196436,2,0,L|258:304,3,35,12|8|8|8,0:0|0:0|0:0|0:0,0:0:0:0:
256,326,196826,1,12,0:0:0:0:
101,271,197215,6,0,P|67:265|31:274,2,62.9999980773926,14|2|2,0:0|0:0|0:0,0:0:0:0:
177,239,197800,2,0,P|183:273|174:309,2,62.9999980773926,10|2|2,0:0|0:0|0:0,0:0:0:0:
148,162,198384,2,0,P|178:156|209:162,1,62.9999980773926,10|2,0:0|0:0,0:0:0:0:
286,193,198774,6,0,P|292:159|283:123,2,62.9999980773926,10|2|2,0:0|0:0|0:0,0:0:0:0:
318,269,199359,2,0,P|284:275|248:266,2,62.9999980773926,10|2|2,0:0|0:0|0:0,0:0:0:0:
394,301,199943,2,0,P|400:270|395:240,1,62.9999980773926,10|2,0:0|0:0,0:0:0:0:
364,164,200332,6,0,P|398:158|434:167,2,62.9999980773926,10|2|2,0:0|0:0|0:0,0:0:0:0:
288,132,200917,2,0,P|282:166|291:202,2,62.9999980773926,10|2|2,0:0|0:0|0:0,0:0:0:0:
317,55,201501,2,0,P|286:49|255:55,1,62.9999980773926,10|2,0:0|0:0,0:0:0:0:
179,88,201891,6,0,P|173:54|182:18,2,62.9999980773926,10|2|2,0:0|0:0|0:0,0:0:0:0:
147,164,202476,2,0,P|181:170|217:161,2,62.9999980773926,10|2|2,0:0|0:0|0:0,0:0:0:0:
70,135,203060,2,0,P|64:165|70:196,1,62.9999980773926,14|2,0:0|0:0,0:0:0:0:
102,272,203449,6,0,P|68:278|32:269,2,62.9999980773926,14|2|2,0:0|0:0|0:0,0:0:0:0:
178,242,204034,2,0,P|184:273|178:304,2,62.9999980773926,10|2|2,0:0|0:0|0:0,0:0:0:0:
148,165,204618,2,0,P|178:159|209:165,1,62.9999980773926,10|2,0:0|0:0,0:0:0:0:
286,134,205008,6,0,P|292:168|283:204,2,62.9999980773926,10|2|2,0:0|0:0|0:0,0:0:0:0:
318,58,205593,2,0,P|284:52|248:61,2,62.9999980773926,10|0|2,0:0|0:0|0:0,0:0:0:0:
394,25,206177,2,0,P|400:56|395:87,1,62.9999980773926,14|2,0:0|0:0,0:0:0:0:
367,164,206566,6,0,P|401:170|437:161,2,62.9999980773926,10|2|2,0:0|0:0|0:0,0:0:0:0:
291,196,207151,2,0,P|285:162|294:126,2,62.9999980773926,10|2|0,0:0|0:0|0:0,0:0:0:0:
320,273,207735,2,0,P|289:278|258:272,1,62.9999980773926,8|2,0:0|0:0,0:0:0:0:
148,189,208125,5,12,0:0:0:0:
117,313,208319,1,12,0:0:0:0:
117,313,208709,5,12,0:0:0:0:
148,189,208904,2,0,P|201:205|281:181,1,125.999996154785,12|0,0:0|0:0,0:0:0:0:
