osu file format v14

[General]
AudioFilename: audio.mp3
AudioLeadIn: 0
PreviewTime: 61456
Countdown: 0
SampleSet: Soft
StackLeniency: 0.7
Mode: 0
LetterboxInBreaks: 0
WidescreenStoryboard: 0

[Editor]
DistanceSpacing: 1
BeatDivisor: 2
GridSize: 8
TimelineZoom: 1

[Metadata]
Title:Fly High
TitleUnicode:날아올라
Artist:Dreamcatcher
ArtistUnicode:드림캐쳐
Creator:dingo424
Version:Normal
Source:
Tags:Dreamcatcher Prequel 날아올라 Fly high 지유 수아 시연 한동 유현 다미 가현 JiU SuA Siyeon Handong Yoohyeon Dami Gahyeon
BeatmapID:1368953
BeatmapSetID:646052

[Difficulty]
HPDrainRate:4
CircleSize:3.5
OverallDifficulty:4
ApproachRate:5
SliderMultiplier:1.2
SliderTickRate:1

[Events]
//Background and Video events
Video,0,"Dreamcatcher(드림캐쳐) '날아올라 (Fly high)' MV - YouTube (1080p).avi.avi"
0,0,"20447237_686006801598462_2001213087_o.png",0,0
//Break Periods
2,86396,91620
//Storyboard Layer 0 (Background)
//Storyboard Layer 1 (Fail)
//Storyboard Layer 2 (Pass)
//Storyboard Layer 3 (Foreground)
//Storyboard Sound Samples

[TimingPoints]
11781,389.61038961039,4,2,0,50,1,0
25807,-90.9090909090909,4,2,0,60,0,0
29703,-100,4,2,0,50,0,0
41391,-90.9090909090909,4,2,0,60,0,0
42755,-100,4,2,0,50,0,0
55223,-90.9090909090909,4,2,0,61,0,0
58534,-100,4,2,0,50,0,0
61456,-90.9090909090909,4,2,0,65,0,1
72560,-90.9090909090909,4,2,0,50,0,1
74119,-90.9090909090909,4,2,0,65,0,1
80352,-90.9090909090909,4,2,0,75,0,1
86586,-100,4,2,0,50,0,0
92820,-90.9090909090909,4,2,0,50,0,0
95158,-100,4,2,0,50,0,0
101586,-90.9090909090909,4,2,0,50,0,0
106846,-90.9090909090909,4,2,0,50,0,0
108210,-100,4,2,0,50,0,0
120677,-90.9090909090909,4,2,0,50,0,0
123989,-100,4,2,0,50,0,0
126910,-90.9090909090909,4,2,0,60,0,1
138015,-90.9090909090909,4,2,0,50,0,1
139573,-90.9090909090909,4,2,0,60,0,1
145807,-90.9090909090909,4,2,0,65,0,1
152040,-90.9090909090909,4,2,0,60,0,0
159638,-100,4,2,0,50,0,0
166067,-90.9090909090909,4,2,0,60,0,0
172301,-111.111111111111,4,2,0,30,0,0
178534,-111.111111111111,4,2,0,40,0,0
181651,-100,4,2,0,50,0,0
184573,-90.9090909090909,4,2,0,65,0,1
191002,-90.9090909090909,4,2,0,75,0,1
197235,-100,4,2,0,35,0,0
208145,-100,4,2,0,45,0,0

[Colours]
Combo1 : 128,0,0
Combo2 : 128,0,255
Combo3 : 128,128,255
Combo4 : 0,0,128

[HitObjects]
240,120,11781,6,4,P|288:104|360:128,1,120
296,248,12560,2,4,P|248:264|176:240,1,120
128,216,13145,6,0,B|176:136|96:128|144:40,1,180,0|8,0:0|0:0,0:0:0:0:
240,104,14119,2,0,P|298:120|367:86,1,120,0|8,0:0|0:0,0:0:0:0:
368,40,14703,2,0,P|426:23|495:57,1,120
424,152,15482,1,0,0:0:0:0:
424,152,15677,2,0,P|368:176|312:152,1,120,0|8,0:0|0:0,0:0:0:0:
296,96,16261,2,0,B|214:50|209:131|119:86,1,180,0|8,0:0|0:0,0:0:0:0:
24,24,17235,6,0,P|0:80|28:152,1,120,0|8,0:0|0:0,0:0:0:0:
32,192,17819,2,0,P|89:212|160:181,1,120
256,144,18599,1,0,0:0:0:0:
256,144,18794,2,0,P|272:224|232:272,1,120,0|8,0:0|0:0,0:0:0:0:
208,288,19378,1,0,0:0:0:0:
206,287,19573,2,0,P|148:305|78:271,1,120,0|8,0:0|0:0,0:0:0:0:
39,178,20352,6,0,P|22:119|57:50,1,120,0|8,0:0|0:0,0:0:0:0:
99,46,20937,2,0,P|186:34|227:65,1,120
149,151,21716,1,0,0:0:0:0:
149,151,21910,2,0,P|133:209|169:278,1,120,0|8,0:0|0:0,0:0:0:0:
207,290,22495,2,0,B|295:322|295:258|383:288,1,180,0|8,0:0|0:0,0:0:0:0:
502,295,23469,6,0,L|503:390,2,60
500,234,24053,1,0,0:0:0:0:
421,143,24443,2,0,L|421:41,2,60,2|0|0,0:0|0:0|0:0,0:0:0:0:
385,191,25027,2,2,P|327:208|257:173,1,120
153,131,25807,6,4,B|118:238|191:210|145:333,2,198.000006042481
337,58,27560,1,4,0:0:0:0:
393,247,28144,2,4,P|328:269|265:236,1,132.00000402832
155,306,28923,2,4,P|131:242|163:178,1,132.00000402832,0|4,0:0|0:0,0:0:0:0:
262,132,29703,6,4,P|276:198|236:257,1,120,0|0,0:0|0:0,0:0:0:0:
194,347,30482,2,0,P|259:367|321:332,1,120,0|2,0:0|0:0,0:0:0:0:
354,315,31067,1,0,0:0:0:0:
434,225,31456,1,0,0:0:0:0:
434,225,31651,2,0,L|432:119,1,60,2|0,0:0|0:0,0:0:0:0:
408,110,32040,2,0,P|350:91|274:127,1,120,0|2,0:0|0:0,0:0:0:0:
355,197,32820,1,0,0:0:0:0:
355,197,33015,6,0,L|354:304,1,60,0|2,0:0|0:0,0:0:0:0:
307,294,33404,2,0,B|236:339|205:265|122:314,1,180,0|2,0:0|0:0,0:0:0:0:
79,280,34183,2,4,P|57:223|91:146,1,120,0|0,0:0|0:0,0:0:0:0:
114,124,34768,1,2,0:0:0:0:
114,124,34963,1,0,0:0:0:0:
244,0,35547,5,2,0:0:0:0:
246,125,35937,1,0,0:0:0:0:
246,125,36132,2,0,L|246:202,1,60,0|2,0:0|0:0,0:0:0:0:
214,235,36521,2,4,P|148:253|87:215,1,120,0|0,0:0|0:0,0:0:0:0:
51,203,37106,2,0,L|50:127,1,60,2|0,0:0|0:0,0:0:0:0:
52,22,37690,6,0,L|133:22,1,60,0|2,0:0|0:0,0:0:0:0:
172,23,38079,2,4,P|188:81|151:156,1,120,0|0,0:0|0:0,0:0:0:0:
127,164,38664,2,0,L|127:267,1,60,2|0,0:0|0:0,0:0:0:0:
235,276,39249,2,0,L|235:200,1,60,0|2,0:0|0:0,0:0:0:0:
233,155,39638,2,0,B|318:120|336:187|415:149,1,180,0|2,0:0|0:0,0:0:0:0:
466,167,40417,2,4,P|490:231|458:292,1,120,0|0,0:0|0:0,0:0:0:0:
420,302,41002,1,2,0:0:0:0:
291,333,41391,6,4,L|290:224,1,66.0000020141602
234,76,42171,2,4,L|234:192,1,66.0000020141602
231,262,42755,5,0,0:0:0:0:
231,262,42949,2,4,P|173:280|97:244,1,120,0|2,0:0|0:0,0:0:0:0:
80,216,43534,2,4,P|63:148|98:71,1,120,0|0,0:0|0:0,0:0:0:0:
123,62,44119,1,2,0:0:0:0:
123,62,44313,1,0,0:0:0:0:
302,52,44703,2,0,L|405:53,2,60,0|2|0,0:0|0:0|0:0,0:0:0:0:
284,170,45482,6,0,L|205:171,1,60,0|2,0:0|0:0,0:0:0:0:
164,159,45872,2,0,B|122:245|201:244|155:333,1,180,0|2,0:0|0:0,0:0:0:0:
211,353,46651,2,4,P|269:371|345:335,1,120,0|0,0:0|0:0,0:0:0:0:
441,329,47430,2,0,B|479:246|400:246|442:154,1,180,0|2,0:0|0:0,0:0:0:0:
435,36,48404,5,0,0:0:0:0:
435,36,48599,2,0,L|359:36,1,60,0|2,0:0|0:0,0:0:0:0:
346,89,48989,2,0,B|256:128|253:63|161:96,1,180,0|2,0:0|0:0,0:0:0:0:
115,117,49768,1,0,0:0:0:0:
116,237,50158,6,0,L|197:237,1,60,0|2,0:0|0:0,0:0:0:0:
208,287,50547,2,0,B|298:326|301:261|393:294,1,180,0|2,0:0|0:0,0:0:0:0:
443,292,51326,2,4,P|459:233|422:158,1,120,0|0,0:0|0:0,0:0:0:0:
497,72,52105,2,4,P|439:51|362:85,1,120,0|0,0:0|0:0,0:0:0:0:
342,110,52690,5,2,0:0:0:0:
342,110,52884,2,4,P|283:124|209:85,1,120,0|0,0:0|0:0,0:0:0:0:
176,75,53469,1,2,0:0:0:0:
67,126,53858,2,4,P|50:67|87:-7,2,120,0|2|0,0:0|0:0|0:0,0:0:0:0:
130,228,55028,1,2,0:0:0:0:
130,228,55223,5,0,0:0:0:0:
130,228,55417,2,0,B|170:280|170:280|260:304,1,132.00000402832,0|8,0:0|0:0,0:0:0:0:
359,256,56196,2,0,B|319:204|319:204|229:180,1,132.00000402832,0|8,0:0|0:0,0:0:0:0:
124,164,56975,2,0,B|60:148|60:148|2:76,2,132.00000402832,0|8|0,0:0|0:0|0:0,0:0:0:0:
157,35,58145,1,8,0:0:0:0:
276,36,58534,5,0,0:0:0:0:
276,36,58729,2,0,L|352:36,1,60,0|2,0:0|0:0,0:0:0:0:
396,38,59118,1,0,0:0:0:0:
396,38,59313,2,4,P|412:96|375:171,1,120,0|2,0:0|0:0,0:0:0:0:
344,186,59897,2,4,P|328:244|365:319,1,120,0|0,0:0|0:0,0:0:0:0:
326,356,60482,2,2,L|239:356,1,60
205,356,60871,1,2,0:0:0:0:
16,295,61456,6,0,B|67:201|-20:202|29:83,1,198.000006042481,0|8,0:0|0:0,0:0:0:0:
144,152,62430,1,0,0:0:0:0:
144,152,62625,2,0,L|232:151,1,66.0000020141602,0|8,0:0|0:0,0:0:0:0:
275,155,63014,2,0,P|297:216|266:282,1,132.00000402832
156,339,63793,2,0,P|134:278|165:212,1,132.00000402832
186,158,64378,6,0,L|186:63,1,66.0000020141602,8|0,0:0|0:0,0:0:0:0:
309,43,64963,1,0,0:0:0:0:
309,43,65157,2,0,P|301:86|327:130,1,66.0000020141602,8|0,0:0|0:0,0:0:0:0:
350,157,65547,2,0,P|358:200|332:244,1,66.0000020141602
407,340,66131,2,0,P|346:362|280:330,1,132.00000402832
161,381,66910,2,0,P|138:319|170:254,1,132.00000402832
109,69,67884,6,0,P|170:47|236:78,1,132.00000402832,0|8,0:0|0:0,0:0:0:0:
272,122,68469,1,0,0:0:0:0:
339,235,68859,2,0,L|340:322,1,66.0000020141602,0|8,0:0|0:0,0:0:0:0:
281,332,69249,2,0,B|188:370|187:290|78:334,1,198.000006042481,0|8,0:0|0:0,0:0:0:0:
22,331,70028,1,0,0:0:0:0:
22,331,70222,2,0,P|0:270|31:204,1,132.00000402832,0|8,0:0|0:0,0:0:0:0:
139,275,71002,2,0,L|218:275,2,66.0000020141602,0|0|8,0:0|0:0|0:0,0:0:0:0:
83,239,71586,2,0,B|121:146|41:145|85:36,1,198.000006042481,0|8,0:0|0:0,0:0:0:0:
203,96,72560,5,0,0:0:0:0:
203,96,72755,2,0,P|263:118|330:87,1,132.00000402832,4|0,0:0|0:0,0:0:0:0:
362,40,73339,2,4,P|422:18|488:49,1,132.00000402832,4|4,2:0|0:0,0:0:0:0:
420,159,74118,6,0,P|441:219|411:285,1,132.00000402832,0|8,2:0|0:0,0:0:0:0:
299,218,74897,2,0,P|239:239|173:209,1,132.00000402832,0|8,2:0|0:0,0:0:0:0:
126,174,75482,1,0,0:0:0:0:
68,55,75871,2,0,P|128:33|194:64,1,132.00000402832,0|0,2:0|0:0,0:0:0:0:
282,150,76651,5,0,0:0:0:0:
282,150,76845,2,0,P|303:210|273:276,1,132.00000402832,8|0,2:0|0:0,0:0:0:0:
163,335,77625,2,0,P|140:275|172:209,1,132.00000402832,8|0,2:0|0:0,0:0:0:0:
231,99,78404,2,0,L|327:99,1,66.0000020141602,8|0,0:0|0:0,0:0:0:0:
429,103,78989,1,0,0:0:0:0:
485,221,79378,2,0,P|425:243|359:212,1,132.00000402832,0|0,2:0|0:0,0:0:0:0:
223,79,80352,6,4,B|134:119|134:40|17:85,2,198.000006042481
355,71,81911,1,4,0:0:0:0:
355,203,82301,2,0,L|355:299,1,66.0000020141602,0|4,0:0|0:0,0:0:0:0:
156,266,83080,2,0,L|156:186,1,66.0000020141602,4|0,0:0|0:0,0:0:0:0:
161,134,83469,2,0,P|257:118|297:158,1,132.00000402832,4|4,0:0|0:0,0:0:0:0:
281,266,84249,1,4,0:0:0:0:
412,278,84638,5,0,0:0:0:0:
412,278,84832,2,0,B|372:189|451:189|406:72,1,198.000006042481
352,53,85612,2,0,P|256:37|216:77,1,132.00000402832
197,112,86196,1,0,0:0:0:0:
152,120,92820,6,4,B|256:80|256:152|360:112,2,198.000006042481
207,239,94378,6,0,L|207:336,1,66.0000020141602,0|4,0:0|0:0,0:0:0:0:
334,339,94963,1,0,0:0:0:0:
333,338,95157,6,0,P|352:273|319:208,1,132.00000402832,0|2,0:0|0:0,0:0:0:0:
241,134,95937,1,0,0:0:0:0:
241,134,96131,2,0,P|221:199|256:261,1,120
321,332,96911,2,0,L|416:330,1,60,0|2,0:0|0:0,0:0:0:0:
430,297,97300,2,0,P|449:231|415:169,1,120
374,165,97885,2,0,L|279:167,1,60,2|0,0:0|0:0,0:0:0:0:
152,246,98664,6,0,L|253:245,1,60,2|0,0:0|0:0,0:0:0:0:
264,197,99053,2,0,P|284:132|249:70,2,120,0|2|0,0:0|0:0|0:0,0:0:0:0:
154,147,100223,1,2,0:0:0:0:
49,88,100612,2,0,P|28:152|64:215,2,120,0|2|0,0:0|0:0|0:0,0:0:0:0:
98,44,101586,6,0,L|188:45,1,66.0000020141602,0|2,0:0|0:0,0:0:0:0:
230,42,101976,1,0,0:0:0:0:
230,42,102170,2,0,P|293:19|351:43,1,132.00000402832,0|2,0:0|0:0,0:0:0:0:
367,106,102755,2,0,P|390:168|366:226,1,132.00000402832
313,266,103340,5,2,0:0:0:0:
313,266,103534,1,0,0:0:0:0:
313,266,103729,2,0,L|210:267,1,66.0000020141602
180,266,104118,2,0,P|157:202|181:145,1,132.00000402832,2|0,0:0|0:0,0:0:0:0:
233,105,104703,5,0,0:0:0:0:
233,105,104898,2,2,L|336:106,1,66.0000020141602,2|0,0:0|0:0,0:0:0:0:
364,113,105287,2,0,P|386:176|362:233,1,132.00000402832,0|2,0:0|0:0,0:0:0:0:
309,271,105871,1,0,0:0:0:0:
309,271,106066,2,0,P|248:294|188:271,1,132.00000402832,0|2,0:0|0:0,0:0:0:0:
132,236,106651,1,0,0:0:0:0:
132,236,106846,6,4,B|134:127,1,66.0000020141602
315,91,107625,2,4,L|316:183,1,66.0000020141602
323,277,108210,6,0,L|252:277,1,60
204,276,108599,2,0,L|204:185,1,60,0|2,0:0|0:0,0:0:0:0:
192,156,108988,2,0,P|126:136|64:171,1,120
77,203,109573,2,0,L|77:298,1,60,2|0,0:0|0:0,0:0:0:0:
174,333,110158,2,0,L|174:228,1,60,0|2,0:0|0:0,0:0:0:0:
177,213,110547,1,0,0:0:0:0:
178,93,110936,6,0,L|275:92,1,60,0|2,0:0|0:0,0:0:0:0:
298,93,111326,2,0,P|318:158|283:220,1,120
249,219,111911,2,0,L|157:219,1,60,2|0,0:0|0:0,0:0:0:0:
190,339,112495,2,0,L|291:339,1,60,0|2,0:0|0:0,0:0:0:0:
309,336,112884,2,0,B|344:251|277:233|314:154,1,180,0|2,0:0|0:0,0:0:0:0:
421,209,113858,5,0,0:0:0:0:
421,209,114054,2,0,L|421:145,1,60,0|2,0:0|0:0,0:0:0:0:
424,89,114443,2,0,B|339:54|321:121|242:83,1,180,0|2,0:0|0:0,0:0:0:0:
188,79,115223,1,0,0:0:0:0:
68,88,115612,6,0,L|68:152,1,60,0|2,0:0|0:0,0:0:0:0:
69,208,116001,2,0,B|154:243|172:176|251:214,1,180,0|2,0:0|0:0,0:0:0:0:
295,243,116781,1,0,0:0:0:0:
381,326,117171,1,0,0:0:0:0:
410,209,117560,2,0,L|409:147,1,60
404,28,118145,5,2,0:0:0:0:
404,28,118339,2,0,P|339:8|277:43,1,120
246,64,118924,1,2,0:0:0:0:
303,169,119313,2,0,P|237:189|176:154,2,120,0|2|0,0:0|0:0|0:0,0:0:0:0:
385,81,120482,1,2,0:0:0:0:
385,81,120677,5,0,0:0:0:0:
385,81,120871,2,0,B|424:133|424:133|424:226,1,132.00000402832,0|8,0:0|0:0,0:0:0:0:
324,286,121651,2,0,B|285:233|285:233|286:140,1,132.00000402832,0|8,0:0|0:0,0:0:0:0:
283,34,122430,1,0,0:0:0:0:
283,34,122625,2,0,L|179:34,1,66.0000020141602,0|8,0:0|0:0,0:0:0:0:
150,36,123015,2,0,B|150:114|150:114|128:164|128:164|129:234,1,198.000006042481,0|8,0:0|0:0,0:0:0:0:
148,347,123989,5,0,0:0:0:0:
148,347,124184,2,0,L|240:346,1,60,0|2,0:0|0:0,0:0:0:0:
268,344,124573,1,0,0:0:0:0:
268,344,124768,2,4,P|284:286|247:211,1,120,0|2,0:0|0:0,0:0:0:0:
222,189,125352,2,4,P|206:131|243:56,1,120,0|2,0:0|0:0,0:0:0:0:
284,67,125936,2,2,L|385:68,1,60
404,71,126327,1,2,0:0:0:0:
413,268,126911,6,0,B|325:316|324:232|208:277,1,198.000006042481,0|8,0:0|0:0,0:0:0:0:
90,286,127885,1,0,0:0:0:0:
90,286,128080,2,0,L|90:200,1,66.0000020141602,0|8,0:0|0:0,0:0:0:0:
87,153,128469,2,0,P|148:131|214:162,1,132.00000402832
296,253,129248,2,0,P|357:275|423:244,1,132.00000402832
425,184,129833,6,0,L|426:109,1,66.0000020141602,8|0,0:0|0:0,0:0:0:0:
293,113,130417,1,0,0:0:0:0:
293,113,130612,2,0,P|287:151|306:199,1,66.0000020141602,8|0,0:0|0:0,0:0:0:0:
321,237,131001,2,0,P|327:275|308:323,1,66.0000020141602
189,320,131586,2,0,P|128:342|62:311,1,132.00000402832
4,201,132365,2,0,P|65:179|131:210,1,132.00000402832
278,328,133339,6,0,P|339:350|405:319,1,132.00000402832,0|8,0:0|0:0,0:0:0:0:
459,299,133924,1,0,0:0:0:0:
457,166,134314,2,0,L|456:82,1,66.0000020141602,0|8,0:0|0:0,0:0:0:0:
412,50,134703,2,0,B|319:12|318:92|209:48,1,198.000006042481,0|8,0:0|0:0,0:0:0:0:
154,43,135482,1,0,0:0:0:0:
154,43,135677,2,0,P|132:104|163:170,1,132.00000402832,0|8,0:0|0:0,0:0:0:0:
288,168,136456,2,0,B|384:168,2,66.0000020141602,0|0|8,0:0|0:0|0:0,0:0:0:0:
263,229,137040,2,0,B|170:191|169:271|60:227,1,198.000006042481,0|8,0:0|0:0,0:0:0:0:
128,111,138015,5,0,0:0:0:0:
128,111,138209,2,0,P|189:89|255:120,1,132.00000402832,4|0,0:0|0:0,0:0:0:0:
287,166,138793,2,4,P|348:187|414:156,1,132.00000402832
477,49,139573,6,0,P|416:28|350:59,1,132.00000402832,0|8,0:0|0:0,0:0:0:0:
407,169,140352,2,0,P|346:190|280:159,1,132.00000402832,0|8,0:0|0:0,0:0:0:0:
232,126,140937,1,0,0:0:0:0:
114,67,141326,2,0,P|93:128|124:194,1,132.00000402832
212,280,142106,5,0,0:0:0:0:
212,280,142300,2,0,P|233:219|202:153,1,132.00000402832,8|0,0:0|0:0,0:0:0:0:
151,39,143079,2,0,P|211:16|278:46,1,132.00000402832,8|0,0:0|0:0,0:0:0:0:
380,116,143859,2,0,L|380:201,1,66.0000020141602,8|0,0:0|0:0,0:0:0:0:
381,314,144443,1,0,0:0:0:0:
262,370,144832,2,0,P|241:309|272:243,1,132.00000402832
275,51,145806,6,4,B|364:11|364:90|481:45,2,198.000006042481
150,95,147365,1,4,0:0:0:0:
150,227,147755,2,0,L|151:313,1,66.0000020141602,0|4,0:0|0:0,0:0:0:0:
348,294,148534,2,0,L|349:213,1,66.0000020141602,4|0,0:0|0:0,0:0:0:0:
348,161,148923,2,0,P|252:145|212:185,1,132.00000402832,4|4,0:0|0:0,0:0:0:0:
130,249,149703,1,4,0:0:0:0:
253,296,150092,5,0,0:0:0:0:
253,296,150287,2,0,B|342:256|342:335|459:290,1,198.000006042481
447,228,151066,2,0,P|463:132|423:92,1,132.00000402832
402,59,151651,1,0,0:0:0:0:
269,59,152041,5,0,0:0:0:0:
269,59,152235,2,0,B|245:125|245:125|278:200,1,132.00000402832
307,232,152820,1,0,0:0:0:0:
307,232,153015,2,0,L|387:232,2,66.0000020141602
294,296,153599,1,0,0:0:0:0:
294,296,153793,2,0,B|228:320|228:320|152:287,1,132.00000402832
135,242,154378,2,0,L|136:154,1,66.0000020141602
136,109,154768,1,8,0:0:0:0:
267,101,155158,5,0,0:0:0:0:
267,101,155352,2,0,B|332:77|332:77|408:110,1,132.00000402832
393,168,155937,2,0,B|386:208|386:208|409:256,1,66.0000020141602
457,258,156326,2,0,B|475:294|475:294|467:346,1,66.0000020141602
407,334,156716,1,0,0:0:0:0:
407,334,156910,2,0,B|341:358|341:358|265:325,1,132.00000402832
232,291,157495,2,0,L|231:200,1,66.0000020141602
232,158,157885,1,8,0:0:0:0:
221,26,158274,6,2,L|313:25,1,66.0000020141602
295,91,158664,2,2,L|375:90,1,66.0000020141602
380,153,159053,2,2,L|451:154,1,66.0000020141602
449,220,159443,1,2,0:0:0:0:
449,220,159638,6,0,L|449:299,1,60
341,334,160223,2,0,L|340:263,1,60,2|0,0:0|0:0,0:0:0:0:
394,167,160806,2,0,P|329:147|267:182,1,120
137,272,161781,5,2,0:0:0:0:
137,272,161975,2,0,L|137:184,1,60
140,151,162365,1,0,0:0:0:0:
86,43,162755,2,0,P|151:23|213:58,1,120
237,85,163340,1,2,0:0:0:0:
237,85,163534,1,0,0:0:0:0:
174,187,163923,2,0,P|239:207|301:172,2,120
85,105,165093,1,0,0:0:0:0:
200,72,165482,6,0,L|301:73,1,60
320,71,165872,1,0,0:0:0:0:
320,71,166066,2,0,P|342:132|308:193,1,120,4|0,0:0|0:0,0:0:0:0:
272,224,166651,1,4,0:0:0:0:
100,317,167236,2,0,L|99:213,1,66.0000020141602,4|0,0:0|0:0,0:0:0:0:
103,185,167625,2,0,P|164:163|230:194,1,132.00000402832,4|0,0:0|0:0,0:0:0:0:
271,233,168210,1,4,0:0:0:0:
465,268,168793,6,0,P|469:209|450:177,1,66.0000020141602,4|0,0:0|0:0,0:0:0:0:
405,178,169183,2,0,P|401:119|420:87,1,66.0000020141602,4|0,0:0|0:0,0:0:0:0:
430,53,169573,1,4,0:0:0:0:
430,53,169768,1,0,0:0:0:0:
297,54,170158,2,0,L|183:53,1,66.0000020141602,0|4,0:0|0:0,0:0:0:0:
164,52,170547,2,0,P|142:113|173:179,1,132.00000402832
298,179,171327,1,0,0:0:0:0:
298,179,171521,2,4,P|320:240|289:306,1,132.00000402832
189,322,172301,6,0,B|236:225|125:225|188:77,1,215.999993408203,0|2,0:0|0:0,0:0:0:0:
316,35,173664,2,0,B|372:59|420:35|420:35|412:90|468:163,1,215.999993408203
435,298,175027,2,0,B|378:320|361:371|361:371|327:326|237:314,1,215.999993408203
176,262,176197,2,0,L|175:176,1,53.9999983520508,0|2,0:0|0:0,0:0:0:0:
108,122,176781,2,0,B|221:71|224:160|329:109,1,215.999993408203
419,80,177950,1,0,0:0:0:0:
491,224,178534,6,0,P|416:255|338:220,1,161.999995056153,0|2,0:0|0:0,0:0:0:0:
281,138,179508,2,0,L|185:138,1,53.9999983520508
176,158,179898,2,0,P|157:215|192:278,1,107.999996704102,2|0,0:0|0:0,0:0:0:0:
267,309,180677,5,2,0:0:0:0:
267,309,180871,2,0,P|324:328|387:293,1,107.999996704102,2|0,0:0|0:0,0:0:0:0:
420,204,181651,2,0,P|458:114|383:30,1,180
300,46,182625,2,0,B|218:46,1,60
119,46,183210,2,2,B|151:149|48:149|108:278,1,240
275,211,184573,6,0,B|375:184|375:249|469:207,1,198.000006042481,0|8,0:0|0:0,0:0:0:0:
416,85,185547,1,0,0:0:0:0:
416,85,185742,2,0,L|323:85,1,66.0000020141602,0|8,0:0|0:0,0:0:0:0:
283,88,186132,1,0,0:0:0:0:
165,29,186521,2,0,P|142:91|174:156,1,132.00000402832
229,265,187301,5,0,0:0:0:0:
229,265,187495,2,0,P|291:288|356:256,1,132.00000402832,8|0,0:0|0:0,0:0:0:0:
416,149,188274,2,0,P|354:126|289:158,1,132.00000402832,8|0,0:0|0:0,0:0:0:0:
241,187,188859,2,0,L|143:188,1,66.0000020141602,0|8,0:0|0:0,0:0:0:0:
109,189,189248,1,0,0:0:0:0:
0,246,189638,1,4,0:0:0:0:
102,314,190027,1,4,0:0:0:0:
223,262,190417,6,0,L|307:262,2,66.0000020141602,0|8|0,0:0|0:0|0:0,0:0:0:0:
161,214,191001,2,4,B|121:125|200:125|155:8,2,198.000006042481
273,170,192560,1,4,0:0:0:0:
385,126,192950,2,0,L|386:7,1,66.0000020141602,0|4,0:0|0:0,0:0:0:0:
204,69,193729,2,0,L|204:138,1,66.0000020141602,4|0,0:0|0:0,0:0:0:0:
214,188,194118,2,0,P|310:204|356:177,1,132.00000402832,4|4,0:0|0:0,0:0:0:0:
277,67,194897,1,4,0:0:0:0:
144,62,195288,5,0,0:0:0:0:
144,62,195482,2,0,B|104:151|183:151|138:268,1,198.000006042481
192,297,196261,2,0,P|288:313|334:286,1,132.00000402832
432,162,197236,6,0,P|372:147|297:173,1,120
256,162,197819,2,0,B|203:253|274:253|247:334,1,180,0|2,0:0|0:0,0:0:0:0:
129,309,198793,2,0,P|69:324|-6:298,1,120
20,250,199378,2,0,B|73:159|2:159|29:78,1,180,0|2,0:0|0:0,0:0:0:0:
142,118,200352,6,0,P|202:103|277:129,1,120
316,128,200937,2,0,B|357:155|407:155|407:155|403:202|435:242,1,180,0|2,0:0|0:0,0:0:0:0:
309,244,201910,2,0,P|249:259|174:233,1,120
135,230,202495,2,0,B|94:203|44:203|44:203|48:156|16:116,1,180,0|2,0:0|0:0,0:0:0:0:
142,120,203469,6,0,B|235:82|236:154|345:114,2,180,0|0|2,0:0|0:0|0:0,0:0:0:0:
121,238,205028,2,0,L|121:326,1,60
241,300,205612,2,0,L|240:239,1,60
241,119,206197,1,2,0:0:0:0:
141,52,206586,2,0,P|89:37|23:55,1,120
18,112,207171,6,0,L|20:196,1,60
20,352,207950,1,0,0:0:0:0:
125,294,208340,1,0,0:0:0:0:
125,294,208534,2,0,L|125:167,1,120
