osu file format v14

[General]
AudioFilename: audio.mp3
AudioLeadIn: 0
PreviewTime: 61456
Countdown: 0
SampleSet: Soft
StackLeniency: 0.7
Mode: 0
LetterboxInBreaks: 0
WidescreenStoryboard: 0

[Editor]
DistanceSpacing: 0.9
BeatDivisor: 2
GridSize: 8
TimelineZoom: 1

[Metadata]
Title:Fly High
TitleUnicode:날아올라
Artist:Dreamcatcher
ArtistUnicode:드림캐쳐
Creator:dingo424
Version:Easy
Source:
Tags:Dreamcatcher Prequel 날아올라 Fly high 지유 수아 시연 한동 유현 다미 가현 JiU SuA Siyeon Handong Yoohyeon Dami Gahyeon
BeatmapID:1368950
BeatmapSetID:646052

[Difficulty]
HPDrainRate:2
CircleSize:3
OverallDifficulty:2
ApproachRate:3.5
SliderMultiplier:0.9
SliderTickRate:1

[Events]
//Background and Video events
Video,0,"Dreamcatcher(드림캐쳐) '날아올라 (Fly high)' MV - YouTube (1080p).avi.avi"
0,0,"20447237_686006801598462_2001213087_o.png",0,0
//Break Periods
2,86395,91439
//Storyboard Layer 0 (Background)
//Storyboard Layer 1 (Fail)
//Storyboard Layer 2 (Pass)
//Storyboard Layer 3 (Foreground)
//Storyboard Sound Samples

[TimingPoints]
11781,389.61038961039,4,2,0,50,1,0
25807,-100,4,2,0,60,0,0
29703,-100,4,2,0,50,0,0
41391,-100,4,2,0,60,0,0
42950,-100,4,2,0,50,0,0
55417,-100,4,2,0,60,0,0
58534,-100,4,2,0,50,0,0
61456,-100,4,2,0,65,0,1
72560,-100,4,2,0,50,0,1
74119,-100,4,2,0,65,0,1
80352,-100,4,2,0,75,0,1
86586,-100,4,2,0,50,0,0
92820,-100,4,2,0,60,0,0
95158,-100,4,2,0,50,0,0
106846,-100,4,2,0,60,0,0
108210,-100,4,2,0,50,0,0
120872,-100,4,2,0,60,0,0
123989,-100,4,2,0,50,0,0
126910,-100,4,2,0,65,0,1
138015,-100,4,2,0,50,0,1
139573,-100,4,2,0,65,0,1
145807,-100,4,2,0,75,0,1
152040,-100,4,2,0,60,0,0
159833,-100,4,2,0,50,0,0
166067,-100,4,2,0,60,0,0
172301,-100,4,2,0,30,0,0
178534,-100,4,2,0,40,0,0
181651,-100,4,2,0,50,0,0
184573,-100,4,2,0,65,0,1
191002,-100,4,2,0,75,0,1
197235,-100,4,2,0,35,0,0

[Colours]
Combo1 : 128,0,0
Combo2 : 128,0,255
Combo3 : 128,128,255
Combo4 : 0,0,128

[HitObjects]
120,96,11781,6,4,B|256:48|256:160|384:96,1,270
440,152,13339,2,0,P|456:208|416:264,1,90,0|8,0:0|0:0,0:0:0:0:
376,200,14118,2,0,P|320:218|296:282,1,90,0|8,0:0|0:0,0:0:0:0:
376,280,14897,2,0,P|332:318|264:307,1,90,0|8,0:0|0:0,0:0:0:0:
232,360,15677,2,0,P|221:302|267:251,1,90,0|8,0:0|0:0,0:0:0:0:
256,200,16456,6,0,P|266:142|220:91,1,90,0|8,0:0|0:0,0:0:0:0:
184,160,17236,1,0,0:0:0:0:
112,120,17625,2,0,P|100:177|145:229,1,90,8|0,0:0|0:0,0:0:0:0:
152,272,18404,1,8,0:0:0:0:
80,304,18794,2,0,P|152:352|224:304,1,180
272,240,19963,6,0,L|272:128,1,90,8|0,0:0|0:0,0:0:0:0:
312,80,20742,2,0,P|254:68|202:113,1,90,8|0,0:0|0:0,0:0:0:0:
160,40,21521,2,0,P|148:97|193:149,1,90,8|0,0:0|0:0,0:0:0:0:
224,176,22301,1,8,0:0:0:0:
288,232,22690,5,0,0:0:0:0:
368,232,23080,2,0,B|472:232,1,90,8|0,0:0|0:0,0:0:0:0:
456,312,23858,2,0,L|304:312,1,135,8|2,0:0|0:0,0:0:0:0:
208,352,25027,2,2,P|196:294|241:242,1,90,10|2,0:0|0:0,0:0:0:0:
160,200,25807,6,0,B|224:176|224:176|292:231,2,135,4|4|4,0:0|0:0|0:0,0:0:0:0:
47,245,27560,1,4,0:0:0:0:
5,130,28144,2,0,B|50:117|50:117|125:149,1,90,8|0,0:0|0:0,0:0:0:0:
218,229,29314,1,0,0:0:0:0:
218,229,29703,6,0,L|219:135,1,90
148,99,30482,2,0,P|220:54|296:108,1,180
341,164,31651,2,0,L|437:164,1,90,2|0,0:0|0:0,0:0:0:0:
429,245,32430,2,0,L|325:245,1,90,2|0,0:0|0:0,0:0:0:0:
257,244,33210,1,2,0:0:0:0:
187,203,33599,2,0,P|175:260|220:312,1,90,0|2,0:0|0:0,0:0:0:0:
256,330,34378,2,0,L|360:330,1,90,0|2,0:0|0:0,0:0:0:0:
418,366,35158,2,0,P|424:300|331:249,1,180
254,247,36327,5,2,0:0:0:0:
181,211,36716,2,0,P|169:268|214:320,2,90,0|2|0,0:0|0:0|0:0,0:0:0:0:
211,135,37885,1,2,0:0:0:0:
249,64,38274,2,0,P|191:52|139:97,2,90,0|2|0,0:0|0:0|0:0,0:0:0:0:
322,97,39443,1,2,0:0:0:0:
392,58,39832,2,0,P|403:115|358:167,1,90,0|2,0:0|0:0,0:0:0:0:
332,198,40612,2,0,P|320:255|365:307,1,90,0|2,0:0|0:0,0:0:0:0:
374,351,41391,6,0,B|333:363|333:363|257:341,1,90,4|0,0:0|0:0,0:0:0:0:
239,284,42170,2,0,B|198:272|198:272|122:294,1,90,4|0,0:0|0:0,0:0:0:0:
76,316,42950,6,0,L|77:207,1,90,0|2,0:0|0:0,0:0:0:0:
7,184,43729,2,0,P|80:140|151:190,1,180
196,254,44898,2,0,L|274:348,1,90,2|0,0:0|0:0,0:0:0:0:
322,280,45677,2,0,L|248:192,1,90,2|0,0:0|0:0,0:0:0:0:
190,177,46456,2,0,P|230:135|298:141,1,90,2|0,0:0|0:0,0:0:0:0:
340,128,47235,1,2,0:0:0:0:
380,57,47625,2,0,P|424:130|374:201,1,180
417,269,48793,6,0,P|360:282|306:239,1,90,2|0,0:0|0:0,0:0:0:0:
268,220,49573,2,0,L|268:156,2,45,2|0|0,0:0|0:0|0:0,0:0:0:0:
242,251,50158,2,0,B|154:203|154:299|18:227,1,225,0|2,0:0|0:0,0:0:0:0:
28,150,51521,2,0,B|29:47,1,90,0|2,0:0|0:0,0:0:0:0:
109,55,52300,1,0,0:0:0:0:
190,56,52690,2,0,B|278:29|276:89|379:53,1,180,2|0,0:0|0:0,0:0:0:0:
435,14,53858,2,0,P|449:70|407:125,1,90,0|2,0:0|0:0,0:0:0:0:
378,153,54638,2,0,P|363:209|405:264,1,90,0|2,0:0|0:0,0:0:0:0:
341,311,55417,6,0,B|243:292|243:292|167:341|167:341|76:320,1,270,0|8,0:0|0:0,0:0:0:0:
71,243,56976,2,0,B|95:191|95:191|65:137|65:137|90:73,1,180
164,57,58145,1,8,0:0:0:0:
233,15,58534,6,0,P|245:71|201:125,1,90,0|2,0:0|0:0,0:0:0:0:
180,161,59313,2,0,P|167:217|211:271,1,90,0|2,0:0|0:0,0:0:0:0:
136,314,60092,2,0,P|192:326|246:282,1,90,0|2,0:0|0:0,0:0:0:0:
291,273,60872,1,2,0:0:0:0:
396,212,61456,5,0,0:0:0:0:
501,152,62041,2,0,L|501:49,1,90,8|0,0:0|0:0,0:0:0:0:
420,49,62820,2,0,B|284:-7|284:105|147:44,1,270,8|0,0:0|0:0,0:0:0:0:
77,50,64378,1,8,0:0:0:0:
34,119,64768,2,0,P|90:131|144:87,1,90,0|8,0:0|0:0,0:0:0:0:
198,103,65547,2,0,P|254:90|308:134,1,90,0|8,0:0|0:0,0:0:0:0:
242,172,66326,2,0,B|300:200|330:172|362:141|424:173,1,180
379,241,67495,1,8,0:0:0:0:
332,307,67884,6,0,P|275:319|221:275,2,90,0|8|0,0:0|0:0|0:0,0:0:0:0:
289,237,69054,1,8,0:0:0:0:
244,169,69443,2,0,P|300:156|354:200,2,90,0|8|0,0:0|0:0|0:0,0:0:0:0:
172,207,70612,1,8,0:0:0:0:
130,276,71001,2,0,B|188:304|218:276|250:245|312:277,1,180
384,276,72171,1,8,0:0:0:0:
433,340,72560,6,0,B|477:304|461:250|461:250|427:157,1,180
398,102,73729,1,8,0:0:0:0:
316,105,74119,5,0,0:0:0:0:
246,64,74508,2,0,P|233:120|277:174,1,90,8|0,0:0|0:0,0:0:0:0:
293,213,75287,2,0,P|306:269|262:323,1,90,8|0,0:0|0:0,0:0:0:0:
222,259,76066,2,0,B|164:231|134:259|102:290|40:258,1,180,8|8,0:0|0:0,0:0:0:0:
87,191,77235,2,0,P|74:135|118:81,2,90,0|8|0,0:0|0:0|0:0,0:0:0:0:
155,148,78404,1,8,0:0:0:0:
224,106,78793,2,0,P|237:162|193:216,1,90,0|8,0:0|0:0,0:0:0:0:
171,250,79573,2,0,P|158:306|202:360,1,90,0|8,0:0|0:0,0:0:0:0:
240,295,80352,6,0,P|304:321|375:269,2,135,4|4|4,0:0|0:0|0:0,0:0:0:0:
301,239,81911,2,0,L|301:116,1,90,4|0,0:0|0:0,0:0:0:0:
219,146,82690,2,0,L|218:269,1,90,0|4,0:0|0:0,0:0:0:0:
175,304,83469,2,0,P|231:317|285:273,2,90,4|4|4,0:0|0:0|0:0,0:0:0:0:
107,259,84638,1,0,0:0:0:0:
63,190,85027,2,0,P|119:177|173:221,1,90
212,236,85806,2,0,P|268:249|322:205,1,90
196,214,92819,6,0,B|256:245|256:245|313:210,2,135,4|4|4,0:0|0:0|0:0,0:0:0:0:
248,104,94573,5,4,0:0:0:0:
362,63,95157,2,0,B|378:111|378:111|353:179,1,90,0|2,0:0|0:0,0:0:0:0:
433,188,95937,6,0,P|351:229|286:163,1,180
332,109,97105,2,0,P|276:96|222:140,1,90,2|0,0:0|0:0,0:0:0:0:
175,144,97884,2,0,P|119:157|65:113,1,90,2|0,0:0|0:0,0:0:0:0:
134,76,98664,1,2,0:0:0:0:
199,28,99054,2,0,L|317:28,1,90,0|2,0:0|0:0,0:0:0:0:
295,108,99833,2,0,L|171:107,1,90,0|2,0:0|0:0,0:0:0:0:
135,65,100612,2,0,B|94:154|174:154|135:241,1,180
55,236,101781,5,2,0:0:0:0:
12,309,102170,2,0,P|68:322|122:278,1,90,0|2,0:0|0:0,0:0:0:0:
169,274,102949,1,0,0:0:0:0:
239,233,103340,1,2,0:0:0:0:
310,195,103729,2,0,P|267:154|199:164,2,90,0|2|0,0:0|0:0|0:0,0:0:0:0:
340,271,104898,2,0,P|413:300|482:235,1,180,2|2,0:0|0:0,0:0:0:0:
402,218,106067,2,0,L|338:114,1,90,0|2,0:0|0:0,0:0:0:0:
279,111,106846,6,0,B|303:71|303:71|362:61,2,90,4|0|4,0:0|0:0|0:0,0:0:0:0:
282,191,108015,1,0,0:0:0:0:
324,259,108404,6,0,P|268:272|214:228,1,90,0|2,0:0|0:0,0:0:0:0:
172,305,109183,2,0,B|131:216|211:216|172:128,1,180
130,63,110352,2,0,P|186:50|240:94,1,90,2|0,0:0|0:0,0:0:0:0:
290,89,111131,2,0,B|379:130|379:50|466:89,1,180,2|2,0:0|0:0,0:0:0:0:
425,159,112301,2,0,L|425:266,1,90,0|2,0:0|0:0,0:0:0:0:
496,286,113079,2,0,P|422:331|352:280,1,180
312,213,114248,5,2,0:0:0:0:
267,145,114638,2,0,P|323:132|377:176,2,90,0|2|0,0:0|0:0|0:0,0:0:0:0:
194,181,115806,1,2,0:0:0:0:
126,225,116196,2,0,P|113:169|157:115,1,90,0|2,0:0|0:0,0:0:0:0:
154,65,116976,1,0,0:0:0:0:
154,65,117365,2,0,L|250:65,1,90,2|0,0:0|0:0,0:0:0:0:
314,24,118144,2,0,B|355:113|275:113|314:200,1,180,2|2,0:0|0:0,0:0:0:0:
332,275,119314,1,0,0:0:0:0:
291,344,119703,2,0,P|333:356|375:342,2,90,2|0|2,0:0|0:0|0:0,0:0:0:0:
210,340,120871,6,0,B|209:240|209:240|147:174|147:174|148:84,1,270,0|8,0:0|0:0,0:0:0:0:
229,93,122430,2,0,B|286:93|286:93|323:44|323:44|390:43,1,180
432,109,123599,1,8,0:0:0:0:
475,177,123988,6,0,P|419:190|365:146,1,90,0|2,0:0|0:0,0:0:0:0:
322,133,124768,2,0,P|266:120|212:164,1,90,0|2,0:0|0:0,0:0:0:0:
173,181,125547,2,0,P|117:194|63:150,1,90,0|2,0:0|0:0,0:0:0:0:
132,113,126326,1,2,0:0:0:0:
253,110,126911,5,0,0:0:0:0:
368,72,127495,2,0,P|381:128|337:182,1,90,8|0,0:0|0:0,0:0:0:0:
367,237,128274,2,0,B|231:293|231:181|94:242,1,270,8|0,0:0|0:0,0:0:0:0:
32,271,129832,1,8,0:0:0:0:
99,316,130222,2,0,P|155:329|209:285,1,90,0|8,0:0|0:0,0:0:0:0:
261,297,131001,2,0,P|317:284|371:328,1,90,0|8,0:0|0:0,0:0:0:0:
414,338,131781,2,0,B|442:280|414:250|383:218|415:156,1,180
448,92,132949,1,8,0:0:0:0:
366,90,133339,6,0,P|324:75|281:88,2,90,0|8|0,0:0|0:0|0:0,0:0:0:0:
323,159,134508,1,8,0:0:0:0:
280,228,134897,2,0,P|323:241|365:227,2,90,0|8|0,0:0|0:0|0:0,0:0:0:0:
204,200,136066,1,8,0:0:0:0:
128,170,136456,2,0,P|86:155|43:168,2,90,0|8|0,0:0|0:0|0:0,0:0:0:0:
85,238,137625,1,8,0:0:0:0:
21,287,138014,6,0,B|53:333|112:316|112:316|215:317,1,180,4|4,0:0|0:0,0:0:0:0:
269,322,139183,1,4,0:0:0:0:
350,324,139573,5,0,0:0:0:0:
334,244,139962,2,0,P|321:188|365:134,1,90,8|0,0:0|0:0,0:0:0:0:
397,110,140742,2,0,P|410:54|366:0,1,90,8|0,0:0|0:0,0:0:0:0:
329,68,141521,2,0,B|271:40|241:68|209:99|147:67,1,180,8|8,0:0|0:0,0:0:0:0:
85,112,142690,2,0,P|72:56|116:2,2,90,0|8|0,0:0|0:0|0:0,0:0:0:0:
123,183,143859,1,8,0:0:0:0:
79,250,144248,2,0,P|135:263|189:219,1,90,0|8,0:0|0:0,0:0:0:0:
231,207,145027,2,0,P|273:194|315:208,1,90,0|8,0:0|0:0,0:0:0:0:
374,152,145806,6,0,P|398:216|350:280,2,135,4|4|4,0:0|0:0|0:0,0:0:0:0:
293,146,147365,2,0,L|189:146,1,90,4|0,0:0|0:0,0:0:0:0:
210,65,148145,2,0,L|324:63,1,90,0|4,0:0|0:0,0:0:0:0:
367,106,148923,2,4,P|381:64|369:22,2,90
358,187,150093,1,0,0:0:0:0:
398,256,150482,2,0,P|355:268|313:254,1,90
241,217,151261,2,0,P|199:202|156:215,1,90
83,250,152041,6,0,B|73:209|73:209|98:146,2,90
136,312,153210,1,0,0:0:0:0:
210,279,153599,2,0,B|216:326|216:326|196:363,2,90
190,200,154768,1,8,0:0:0:0:
149,129,155157,6,0,B|189:116|189:116|253:138,1,90
304,173,155936,2,0,B|344:185|344:185|389:169,1,90
346,101,156716,2,0,B|361:55|361:55|349:15,2,90
276,58,157885,1,8,0:0:0:0:
195,58,158274,2,0,L|118:59,1,45
141,139,158858,2,0,L|222:138,1,45
267,139,159443,1,0,0:0:0:0:
337,100,159832,6,0,B|368:184|301:184|342:275,1,180
386,342,161001,2,0,P|343:355|300:342,1,90,2|0,0:0|0:0,0:0:0:0:
234,296,161781,2,0,P|191:284|149:298,1,90,2|0,0:0|0:0,0:0:0:0:
72,324,162560,1,2,0:0:0:0:
63,243,162949,2,0,B|104:152|37:152|68:67,1,180
139,106,164118,2,0,P|182:118|224:104,1,90,2|0,0:0|0:0,0:0:0:0:
296,68,164897,2,0,P|339:56|381:70,1,90,2|0,0:0|0:0,0:0:0:0:
338,139,165677,1,2,0:0:0:0:
284,199,166067,6,0,P|345:220|403:187,2,135,4|4|4,0:0|0:0|0:0,0:0:0:0:
241,129,167625,2,0,P|179:107|122:141,2,135,4|4|4,0:0|0:0|0:0,0:0:0:0:
200,199,169183,2,4,P|243:211|285:197,1,90
356,158,169962,2,4,P|398:144|440:156,1,90
400,226,170742,2,4,P|412:269|398:311,1,90
328,268,171521,2,4,P|285:281|243:269,1,90
177,317,172300,6,0,B|136:226|203:226|171:141,1,180,0|2,0:0|0:0,0:0:0:0:
50,148,173664,2,0,B|81:232|14:232|55:323,1,180,0|2,0:0|0:0,0:0:0:0:
257,323,175417,2,0,B|341:291|341:358|432:317,1,180,0|2,0:0|0:0,0:0:0:0:
382,206,176781,2,0,L|384:98,1,90
302,121,177560,2,0,L|300:243,1,90,0|2,0:0|0:0,0:0:0:0:
294,332,178534,6,0,B|164:283|165:382|28:325,1,270,0|2,0:0|0:0,0:0:0:0:
32,245,180092,2,0,P|20:202|34:160,2,90
103,205,181261,1,2,0:0:0:0:
183,209,181651,2,0,B|267:177|267:244|358:203,1,180
438,203,182820,1,2,0:0:0:0:
397,132,183209,2,0,P|440:120|482:134,2,90
275,132,184573,5,0,0:0:0:0:
161,90,185157,2,0,P|147:132|159:174,1,90,8|0,0:0|0:0,0:0:0:0:
200,244,185936,2,0,B|253:272|285:241|315:213|373:241,1,180,8|8,0:0|0:0,0:0:0:0:
441,197,187105,2,0,P|454:239|442:281,1,90,0|8,0:0|0:0,0:0:0:0:
397,349,187884,2,0,P|439:362|481:350,2,90,0|8|0,0:0|0:0|0:0,0:0:0:0:
332,300,189054,2,0,L|268:299,1,45,8|4,0:0|0:0,0:0:0:0:
205,298,189638,1,4,0:0:0:0:
123,296,190028,1,4,0:0:0:0:
42,294,190417,2,0,L|42:219,1,45,0|8,0:0|0:0,0:0:0:0:
42,167,191001,6,0,P|18:103|66:39,2,135,4|4|4,0:0|0:0|0:0,0:0:0:0:
104,114,192560,2,0,L|224:114,1,90,4|0,0:0|0:0,0:0:0:0:
210,193,193340,2,0,L|115:193,1,90,0|4,0:0|0:0,0:0:0:0:
51,150,194118,2,4,P|37:192|49:234,2,90
112,96,195287,1,0,0:0:0:0:
183,134,195677,2,0,P|195:91|181:49,2,90
136,200,196845,1,0,0:0:0:0:
59,173,197235,6,0,P|79:261|175:272,1,180
237,278,198404,1,2,0:0:0:0:
312,307,198793,2,0,P|291:218|196:207,1,180
133,207,199963,1,2,0:0:0:0:
56,234,200352,2,0,P|76:145|172:135,1,180
234,122,201521,1,2,0:0:0:0:
304,81,201911,2,0,B|353:214|244:214|310:351,1,270,0|2,0:0|0:0,0:0:0:0:
375,300,203469,6,0,P|433:328|496:303,2,135,0|0|2,0:0|0:0|0:0,0:0:0:0:
437,247,205028,2,0,L|437:143,1,90
476,86,205806,2,0,P|433:74|391:88,1,90,0|2,0:0|0:0,0:0:0:0:
309,84,206586,2,0,P|229:39|157:103,1,180
236,121,207755,1,2,0:0:0:0:
307,158,208144,2,0,P|227:202|155:138,1,180
